999
DXF file: tradon_technical_drawing.dxf
999
Pro/ENGINEER 2017170 by Parametric Technology Corporation
  0
SECTION
  2
HEADER
  9
$ACADVER
  1
AC1021
  9
$DWGCODEPAGE
  3
ANSI_1252
  9
$EXTMAX
 10
846.45
 20
598.5
 30
0.0
  9
$EXTMIN
 10
0.0
 20
0.0
 30
0.0
  9
$LIMMIN
 10
0.0
 20
0.0
  9
$LIMMAX
 10
846.45
 20
598.5
  9
$VIEWCTR
 10
423.225
 20
299.25
  9
$VIEWSIZE
 40
598.5
  9
$CLAYER
  8
0
  9
$LTSCALE
 40
46.55475
  9
$CELTYPE
  6
BYLAYER
  9
$DIMSCALE
 40
1.0
  9
$DIMASZ
 40
4.0
  9
$DIMEXO
 40
0.0
  9
$DIMDLI
 40
32.1651
  9
$DIMEXE
 40
1.0
  9
$DIMCEN
 40
7.61805
  9
$DIMLFAC
 40
1.0
  9
$DIMBLK
  1
_FILLED
  9
$DIMALT
 70
0
  9
$DIMALTF
 40
25.4
  9
$DIMTXT
 40
3.5
  9
$DIMTOL
 70
1
  9
$DIMLIM
 70
0
  9
$DIMTFAC
 40
1.0
  9
$DIMTP
 40
0.01
  9
$DIMTM
 40
0.01
  9
$DIMGAP
 40
0.625
  9
$DIMDSEP
 70
46
  9
$AUNITS
 70
0
  9
$PDMODE
 70
3
  9
$PDSIZE
 40
0.05
  9
$HANDSEED
  5
6B0
  9
$TILEMODE
 70
1
  9
$MEASUREMENT
 70
1
  9
$INSUNITS
 70
4
  0
ENDSEC
  0
SECTION
  2
CLASSES
  0
CLASS
  1
ACDBDICTIONARYWDFLT
  2
AcDbDictionaryWithDefault
  3
AutoCAD 2000
 90
0
 91
1
280
0
281
0
  0
CLASS
  1
ACDBPLACEHOLDER
  2
AcDbPlaceHolder
  3
AutoCAD 2000
 90
0
 91
1
280
0
281
0
  0
CLASS
  1
LAYOUT
  2
AcDbLayout
  3
AutoCAD 2000
 90
0
 91
0
280
0
281
0
  0
ENDSEC
  0
SECTION
  2
TABLES
  0
TABLE
  2
VPORT
  5
8
100
AcDbSymbolTable
 70
2
  0
VPORT
  5
1F4
100
AcDbSymbolTableRecord
100
AcDbViewportTableRecord
  2
*ACTIVE
 70
0
 10
0.0
 20
0.0
 11
1.0
 21
1.0
 12
423.225
 22
299.25
 13
0.0
 23
0.0
 14
1.0
 24
1.0
 15
0.0
 25
0.0
 16
0.0
 26
0.0
 36
1.0
 17
0.0
 27
0.0
 37
0.0
 40
598.5
 41
1.4142857143
 42
50.0
 43
0.0
 44
0.0
 50
0.0
 51
0.0
 71
0
 72
100
 73
1
 74
1
 75
0
 76
0
 77
0
 78
0
  0
ENDTAB
  0
TABLE
  2
LTYPE
  5
5
100
AcDbSymbolTable
 70
6
  0
LTYPE
  5
14
100
AcDbSymbolTableRecord
100
AcDbLinetypeTableRecord
  2
BYBLOCK
 70
0
  3

 72
65
 73
0
 40
0.0
  0
LTYPE
  5
15
100
AcDbSymbolTableRecord
100
AcDbLinetypeTableRecord
  2
BYLAYER
 70
0
  3

 72
65
 73
0
 40
0.0
  0
LTYPE
  5
16
100
AcDbSymbolTableRecord
100
AcDbLinetypeTableRecord
  2
CONTINUOUS
 70
64
  3
Solid line
 72
65
 73
0
 40
0.0
  0
LTYPE
  5
1F5
100
AcDbSymbolTableRecord
100
AcDbLinetypeTableRecord
  2
CENTER
 70
64
  3
____ _ ____ _ ____ _ ____ _ ____ _ ____ _ ____
 72
65
 73
4
 40
0.6
 49
0.375
 74
0
 49
-0.075
 74
0
 49
0.075
 74
0
 49
-0.075
 74
0
  0
LTYPE
  5
1F6
100
AcDbSymbolTableRecord
100
AcDbLinetypeTableRecord
  2
HIDDEN
 70
64
  3
- - - - - - - - - - - - - - - - - - - -
 72
65
 73
2
 40
0.2
 49
0.1
 74
0
 49
-0.1
 74
0
  0
LTYPE
  5
1F7
100
AcDbSymbolTableRecord
100
AcDbLinetypeTableRecord
  2
PHANTOM
 70
64
  3
_____ _ _ _____ _ _ _____ _ _ _____
 72
65
 73
6
 40
0.8
 49
0.45
 74
0
 49
-0.05
 74
0
 49
0.1
 74
0
 49
-0.05
 74
0
 49
0.1
 74
0
 49
-0.05
 74
0
  0
LTYPE
  5
1F8
100
AcDbSymbolTableRecord
100
AcDbLinetypeTableRecord
  2
DOT
 70
64
  3
. . . . . . . . . . . . . . . . . . . .
 72
65
 73
2
 40
0.2
 49
0.1
 74
0
 49
-0.1
 74
0
  0
LTYPE
  5
1F9
100
AcDbSymbolTableRecord
100
AcDbLinetypeTableRecord
  2
DASHED
 70
64
  3
- - - - - - - - - - - - - - - - - - - -
 72
65
 73
2
 40
0.2
 49
0.1
 74
0
 49
-0.1
 74
0
  0
LTYPE
  5
1FA
100
AcDbSymbolTableRecord
100
AcDbLinetypeTableRecord
  2
ACAD_ISO04W100
 70
64
  3

 72
65
 73
4
 40
30.01
 49
24.0
 74
0
 49
-3.0
 74
0
 49
0.01
 74
0
 49
-3.0
 74
0
  0
ENDTAB
  0
TABLE
  2
LAYER
  5
2
100
AcDbSymbolTable
 70
36
  0
LAYER
  5
10
100
AcDbSymbolTableRecord
100
AcDbLayerTableRecord
  2
0
 70
0
 62
7
  6
CONTINUOUS
370
-3
390
F
  0
LAYER
  5
1FB
100
AcDbSymbolTableRecord
100
AcDbLayerTableRecord
  2
DEFAULT_1
 70
0
 62
7
  6
CENTER
370
-3
390
F
  0
LAYER
  5
1FC
100
AcDbSymbolTableRecord
100
AcDbLayerTableRecord
  2
DEFAULT_2
 70
0
 62
8
  6
HIDDEN
370
-3
390
F
  0
LAYER
  5
1FD
100
AcDbSymbolTableRecord
100
AcDbLayerTableRecord
  2
DEFAULT_3
 70
0
 62
7
  6
PHANTOM
370
-3
390
F
  0
LAYER
  5
1FE
100
AcDbSymbolTableRecord
100
AcDbLayerTableRecord
  2
AB110000_DXF_DIMENSION
 70
0
 62
7
  6
CONTINUOUS
370
-3
390
F
  0
LAYER
  5
1FF
100
AcDbSymbolTableRecord
100
AcDbLayerTableRecord
  2
CE0802AE_DXF_DIMENSION
 70
0
 62
7
  6
CONTINUOUS
370
-3
390
F
  0
LAYER
  5
200
100
AcDbSymbolTableRecord
100
AcDbLayerTableRecord
  2
DD1432AE_DXF_DIMENSION
 70
0
 62
7
  6
CONTINUOUS
370
-3
390
F
  0
LAYER
  5
201
100
AcDbSymbolTableRecord
100
AcDbLayerTableRecord
  2
DD1442AE_DXF_DIMENSION
 70
0
 62
7
  6
CONTINUOUS
370
-3
390
F
  0
LAYER
  5
202
100
AcDbSymbolTableRecord
100
AcDbLayerTableRecord
  2
DD1552AE_DXF_DIMENSION
 70
0
 62
7
  6
CONTINUOUS
370
-3
390
F
  0
LAYER
  5
203
100
AcDbSymbolTableRecord
100
AcDbLayerTableRecord
  2
DD1842AP_DXF_DIMENSION
 70
0
 62
7
  6
CONTINUOUS
370
-3
390
F
  0
LAYER
  5
204
100
AcDbSymbolTableRecord
100
AcDbLayerTableRecord
  2
DG0062AB_DXF_DIMENSION
 70
0
 62
7
  6
CONTINUOUS
370
-3
390
F
  0
LAYER
  5
205
100
AcDbSymbolTableRecord
100
AcDbLayerTableRecord
  2
DG0832AZ_DXF_DIMENSION
 70
0
 62
7
  6
CONTINUOUS
370
-3
390
F
  0
LAYER
  5
206
100
AcDbSymbolTableRecord
100
AcDbLayerTableRecord
  2
Defpoints
 70
0
 62
7
  6
CONTINUOUS
290
0
370
-3
390
F
  0
LAYER
  5
207
100
AcDbSymbolTableRecord
100
AcDbLayerTableRecord
  2
EA0162A0_DXF_DIMENSION
 70
0
 62
7
  6
CONTINUOUS
370
-3
390
F
  0
LAYER
  5
208
100
AcDbSymbolTableRecord
100
AcDbLayerTableRecord
  2
EA0292A0_DXF_DIMENSION
 70
0
 62
7
  6
CONTINUOUS
370
-3
390
F
  0
LAYER
  5
209
100
AcDbSymbolTableRecord
100
AcDbLayerTableRecord
  2
EA1872A0_DXF_DIMENSION
 70
0
 62
7
  6
CONTINUOUS
370
-3
390
F
  0
LAYER
  5
20A
100
AcDbSymbolTableRecord
100
AcDbLayerTableRecord
  2
EA1882A0_DXF_DIMENSION
 70
0
 62
7
  6
CONTINUOUS
370
-3
390
F
  0
LAYER
  5
20B
100
AcDbSymbolTableRecord
100
AcDbLayerTableRecord
  2
EA2432A0_DXF_DIMENSION
 70
0
 62
7
  6
CONTINUOUS
370
-3
390
F
  0
LAYER
  5
20C
100
AcDbSymbolTableRecord
100
AcDbLayerTableRecord
  2
GE0123B0_DXF_DIMENSION
 70
0
 62
7
  6
CONTINUOUS
370
-3
390
F
  0
LAYER
  5
20D
100
AcDbSymbolTableRecord
100
AcDbLayerTableRecord
  2
HE0972AB_DXF_DIMENSION
 70
0
 62
7
  6
CONTINUOUS
370
-3
390
F
  0
LAYER
  5
20E
100
AcDbSymbolTableRecord
100
AcDbLayerTableRecord
  2
HE1882AB_DXF_DIMENSION
 70
0
 62
7
  6
CONTINUOUS
370
-3
390
F
  0
LAYER
  5
20F
100
AcDbSymbolTableRecord
100
AcDbLayerTableRecord
  2
HE1892AB_DXF_DIMENSION
 70
0
 62
7
  6
CONTINUOUS
370
-3
390
F
  0
LAYER
  5
210
100
AcDbSymbolTableRecord
100
AcDbLayerTableRecord
  2
HE1902AB_DXF_DIMENSION
 70
0
 62
7
  6
CONTINUOUS
370
-3
390
F
  0
LAYER
  5
211
100
AcDbSymbolTableRecord
100
AcDbLayerTableRecord
  2
HE2092AB_DXF_DIMENSION
 70
0
 62
7
  6
CONTINUOUS
370
-3
390
F
  0
LAYER
  5
212
100
AcDbSymbolTableRecord
100
AcDbLayerTableRecord
  2
HE2322AB_DXF_DIMENSION
 70
0
 62
7
  6
CONTINUOUS
370
-3
390
F
  0
LAYER
  5
213
100
AcDbSymbolTableRecord
100
AcDbLayerTableRecord
  2
HE2332AB_DXF_DIMENSION
 70
0
 62
7
  6
CONTINUOUS
370
-3
390
F
  0
LAYER
  5
214
100
AcDbSymbolTableRecord
100
AcDbLayerTableRecord
  2
JB0153A1_DXF_DIMENSION
 70
0
 62
7
  6
CONTINUOUS
370
-3
390
F
  0
LAYER
  5
215
100
AcDbSymbolTableRecord
100
AcDbLayerTableRecord
  2
JB0173A1_DXF_DIMENSION
 70
0
 62
7
  6
CONTINUOUS
370
-3
390
F
  0
LAYER
  5
216
100
AcDbSymbolTableRecord
100
AcDbLayerTableRecord
  2
JB0643A1_DXF_DIMENSION
 70
0
 62
7
  6
CONTINUOUS
370
-3
390
F
  0
LAYER
  5
217
100
AcDbSymbolTableRecord
100
AcDbLayerTableRecord
  2
JB0832AB_DXF_DIMENSION
 70
0
 62
7
  6
CONTINUOUS
370
-3
390
F
  0
LAYER
  5
218
100
AcDbSymbolTableRecord
100
AcDbLayerTableRecord
  2
__
 70
0
 62
7
  6
CONTINUOUS
370
-3
390
F
  0
LAYER
  5
219
100
AcDbSymbolTableRecord
100
AcDbLayerTableRecord
  2
____
 70
0
 62
7
  6
CONTINUOUS
370
-3
390
F
  0
LAYER
  5
21A
100
AcDbSymbolTableRecord
100
AcDbLayerTableRecord
  2
______
 70
0
 62
7
  6
CONTINUOUS
370
-3
390
F
  0
LAYER
  5
21B
100
AcDbSymbolTableRecord
100
AcDbLayerTableRecord
  2
________
 70
0
 62
7
  6
CONTINUOUS
370
-3
390
F
  0
LAYER
  5
21C
100
AcDbSymbolTableRecord
100
AcDbLayerTableRecord
  2
__p___
 70
0
 62
7
  6
CONTINUOUS
370
-3
390
F
  0
ENDTAB
  0
TABLE
  2
STYLE
  5
3
100
AcDbSymbolTable
 70
1
  0
STYLE
  5
11
100
AcDbSymbolTableRecord
100
AcDbTextStyleTableRecord
  2
STANDARD
 70
0
 40
0.0
 41
0.8
 50
0.0
 71
0
 42
0.2
  3
txt
  4

  0
STYLE
  5
21D
100
AcDbSymbolTableRecord
100
AcDbTextStyleTableRecord
  2
TEXTSTYLE_1
 70
0
 40
0.0
 41
0.8
 50
0.0
 71
0
 42
0.2
  3
gdt
  4

  0
STYLE
  5
21E
100
AcDbSymbolTableRecord
100
AcDbTextStyleTableRecord
  2
TEXTSTYLE_2
 70
0
 40
0.0
 41
1.0
 50
0.0
 71
0
 42
0.2
  3
arial.ttf
  4

  0
ENDTAB
  0
TABLE
  2
VIEW
  5
6
100
AcDbSymbolTable
 70
0
  0
ENDTAB
  0
TABLE
  2
UCS
  5
7
100
AcDbSymbolTable
 70
0
  0
ENDTAB
  0
TABLE
  2
APPID
  5
9
100
AcDbSymbolTable
 70
1
  0
APPID
  5
21F
100
AcDbSymbolTableRecord
100
AcDbRegAppTableRecord
  2
ACAD
 70
0
  0
ENDTAB
  0
TABLE
  2
BLOCK_RECORD
  5
1
100
AcDbSymbolTable
 70
0
  0
BLOCK_RECORD
  5
220
100
AcDbSymbolTableRecord
100
AcDbBlockTableRecord
  2
*Model_Space
  0
BLOCK_RECORD
  5
221
100
AcDbSymbolTableRecord
100
AcDbBlockTableRecord
  2
*Paper_Space
  0
BLOCK_RECORD
  5
222
100
AcDbSymbolTableRecord
100
AcDbBlockTableRecord
  2
_FILLED
  0
BLOCK_RECORD
  5
223
100
AcDbSymbolTableRecord
100
AcDbBlockTableRecord
  2
*D0
  0
BLOCK_RECORD
  5
224
100
AcDbSymbolTableRecord
100
AcDbBlockTableRecord
  2
*D1
  0
BLOCK_RECORD
  5
225
100
AcDbSymbolTableRecord
100
AcDbBlockTableRecord
  2
*D2
  0
BLOCK_RECORD
  5
226
100
AcDbSymbolTableRecord
100
AcDbBlockTableRecord
  2
*D3
  0
BLOCK_RECORD
  5
227
100
AcDbSymbolTableRecord
100
AcDbBlockTableRecord
  2
*D4
  0
BLOCK_RECORD
  5
228
100
AcDbSymbolTableRecord
100
AcDbBlockTableRecord
  2
*D5
  0
BLOCK_RECORD
  5
229
100
AcDbSymbolTableRecord
100
AcDbBlockTableRecord
  2
*D6
  0
BLOCK_RECORD
  5
22A
100
AcDbSymbolTableRecord
100
AcDbBlockTableRecord
  2
*D7
  0
BLOCK_RECORD
  5
22B
100
AcDbSymbolTableRecord
100
AcDbBlockTableRecord
  2
*D8
  0
BLOCK_RECORD
  5
22C
100
AcDbSymbolTableRecord
100
AcDbBlockTableRecord
  2
*D9
  0
BLOCK_RECORD
  5
22D
100
AcDbSymbolTableRecord
100
AcDbBlockTableRecord
  2
*D10
  0
BLOCK_RECORD
  5
22E
100
AcDbSymbolTableRecord
100
AcDbBlockTableRecord
  2
*D11
  0
ENDTAB
  0
TABLE
  2
DIMSTYLE
  5
A
100
AcDbSymbolTable
 70
1
100
AcDbDimStyleTable
 71
0
  0
DIMSTYLE
105
22F
100
AcDbSymbolTableRecord
100
AcDbDimStyleTableRecord
  2
STANDARD
 70
0
  3

  4

 40
1.0
 41
4.0
 42
0.0
 43
0.38
 44
1.0
 45
0.0
 46
0.0
 47
0.01
 48
0.01
140
3.5
141
0.09
142
0.0
143
25.4
144
1.0
145
0.0
146
1.0
147
0.625
 71
1.0
 72
0.0
 73
0
 74
0
 75
0
 76
0
 77
1
 78
8
 79
2
170
0
171
1
172
0
173
0
174
0
175
0
176
0
177
0
178
5
270
2
179
2
271
2
272
2
273
2
274
2
275
0
280
0
281
0
282
0
283
1
284
8
285
0
286
0
287
3
288
0
340
11
278
46
341
222
342
222
343
222
344
222
  0
DIMSTYLE
105
230
100
AcDbSymbolTableRecord
100
AcDbDimStyleTableRecord
  2
DIMSTYLE_1
 70
0
  3

  4

 40
1.0
 41
4.0
 42
0.0
 43
0.38
 44
1.0
 45
0.0
 46
0.0
 47
0.1
 48
0.1
140
14.0
141
0.09
142
0.0
143
25.4
144
1.0
145
0.0
146
1.0
147
3.5
 71
0.0
 72
0.0
 73
0
 74
0
 75
0
 76
0
 77
1
 78
8
 79
2
170
0
171
1
172
0
173
0
174
0
175
0
176
0
177
0
178
0
270
2
179
2
271
2
272
-1
273
2
274
2
275
0
280
0
281
0
282
0
283
1
284
8
285
0
286
0
287
3
288
0
340
21E
278
46
341
222
342
222
343
222
344
222
  0
DIMSTYLE
105
231
100
AcDbSymbolTableRecord
100
AcDbDimStyleTableRecord
  2
DIMSTYLE_2
 70
0
  3

  4

 40
1.0
 41
4.0
 42
0.0
 43
0.38
 44
1.0
 45
0.0
 46
0.0
 47
0.5
 48
0.5
140
14.0
141
0.09
142
0.0
143
25.4
144
1.0
145
0.0
146
1.0
147
3.5
 71
0.0
 72
0.0
 73
0
 74
0
 75
0
 76
0
 77
1
 78
8
 79
2
170
0
171
1
172
0
173
0
174
0
175
0
176
0
177
0
178
0
270
2
179
2
271
2
272
-1
273
2
274
2
275
0
280
0
281
0
282
0
283
1
284
8
285
0
286
0
287
3
288
0
340
21E
278
46
341
222
342
222
343
222
344
222
  0
DIMSTYLE
105
232
100
AcDbSymbolTableRecord
100
AcDbDimStyleTableRecord
  2
DIMSTYLE_3
 70
0
  3

  4

 40
1.0
 41
4.0
 42
0.0
 43
0.38
 44
1.0
 45
0.0
 46
0.0
 47
0.3
 48
0.3
140
14.0
141
0.09
142
0.0
143
25.4
144
1.0
145
0.0
146
1.0
147
3.5
 71
0.0
 72
0.0
 73
0
 74
0
 75
0
 76
0
 77
1
 78
8
 79
2
170
0
171
1
172
0
173
0
174
0
175
0
176
0
177
0
178
0
270
2
179
2
271
2
272
-1
273
2
274
2
275
0
280
0
281
0
282
0
283
1
284
8
285
0
286
0
287
3
288
0
340
21E
278
46
341
222
342
222
343
222
344
222
  0
DIMSTYLE
105
233
100
AcDbSymbolTableRecord
100
AcDbDimStyleTableRecord
  2
DIMSTYLE_4
 70
0
  3

  4

 40
1.0
 41
4.0
 42
0.0
 43
0.38
 44
1.0
 45
0.0
 46
0.0
 47
0.2
 48
0.2
140
14.0
141
0.09
142
0.0
143
25.4
144
1.0
145
0.0
146
1.0
147
3.5
 71
0.0
 72
0.0
 73
0
 74
0
 75
0
 76
0
 77
1
 78
8
 79
2
170
0
171
1
172
0
173
0
174
0
175
0
176
0
177
0
178
0
270
2
179
2
271
2
272
-1
273
2
274
2
275
0
280
0
281
0
282
0
283
1
284
8
285
0
286
0
287
3
288
0
340
21E
278
46
341
222
342
222
343
222
344
222
  0
DIMSTYLE
105
234
100
AcDbSymbolTableRecord
100
AcDbDimStyleTableRecord
  2
DIMSTYLE_5
 70
0
  3

  4

 40
1.0
 41
4.0
 42
0.0
 43
0.38
 44
1.0
 45
0.0
 46
0.0
 47
0.5
 48
0.5
140
19.6
141
0.09
142
0.0
143
25.4
144
1.0
145
0.0
146
1.0
147
19.6
 71
0.0
 72
0.0
 73
0
 74
0
 75
0
 76
0
 77
1
 78
8
 79
2
170
0
171
1
172
0
173
0
174
0
175
0
176
0
177
0
178
0
270
2
179
2
271
2
272
-1
273
2
274
2
275
0
280
0
281
0
282
0
283
1
284
8
285
0
286
0
287
3
288
0
340
21E
278
46
341
222
342
222
343
222
344
222
  0
ENDTAB
  0
ENDSEC
  0
SECTION
  2
BLOCKS
  0
BLOCK
  5
20
100
AcDbEntity
  8
0
100
AcDbBlockBegin
  2
*Model_Space
 70
0
 10
0.0
 20
0.0
 30
0.0
  3
*Model_Space
  1

  0
ENDBLK
  5
21
100
AcDbEntity
  8
0
100
AcDbBlockEnd
  0
BLOCK
  5
1C
100
AcDbEntity
  8
0
100
AcDbBlockBegin
  2
*Paper_Space
 70
0
 10
0.0
 20
0.0
 30
0.0
  3
*Paper_Space
  1

  0
ENDBLK
  5
1D
100
AcDbEntity
  8
0
100
AcDbBlockEnd
  0
BLOCK
  5
235
100
AcDbEntity
  8
0
100
AcDbBlockBegin
  2
_FILLED
 70
64
 10
0.0
 20
0.0
  3
_FILLED
  1

  0
SOLID
  5
236
100
AcDbEntity
  8
0
  6
BYBLOCK
 62
0
100
AcDbTrace
 10
0.0
 20
0.0
 11
-1.0
 21
0.125
 12
-1.0
 22
-0.125
 13
-1.0
 23
-0.125
  0
ENDBLK
  5
237
100
AcDbEntity
  8
0
  6
BYBLOCK
 62
0
100
AcDbBlockEnd
  0
BLOCK
  5
238
100
AcDbEntity
  8
__p___
100
AcDbBlockBegin
 62
3
  6
CONTINUOUS
  2
*D0
 70
65
 10
0.0
 20
0.0
  3
*D0
  1

  0
TEXT
  5
239
100
AcDbEntity
  8
__p___
100
AcDbText
 62
3
  6
CONTINUOUS
 10
532.1414996328
 20
546.5224961148
  7
TEXTSTYLE_2
 40
14.0
  1
236
 72
5
 11
564.773469893
 21
546.5224961148
100
AcDbText
  0
LINE
  5
23A
100
AcDbEntity
  8
__p___
100
AcDbLine
 62
3
  6
CONTINUOUS
 10
430.3651456606
 20
205.0282949777
 11
430.3651456606
 21
544.0224961148
  0
LINE
  5
23B
100
AcDbEntity
  8
__p___
100
AcDbLine
 62
3
  6
CONTINUOUS
 10
666.5498238652
 20
416.8783930211
 11
666.5498238652
 21
544.0224961148
  0
LINE
  5
23C
100
AcDbEntity
  8
__p___
100
AcDbLine
 62
3
  6
CONTINUOUS
 10
430.3651456606
 20
543.0224961148
 11
548.4574847629
 21
543.0224961148
  0
LINE
  5
23D
100
AcDbEntity
  8
__p___
100
AcDbLine
 62
3
  6
CONTINUOUS
 10
666.5498238652
 20
543.0224961148
 11
548.4574847629
 21
543.0224961148
  0
INSERT
  5
23E
100
AcDbEntity
  8
__p___
100
AcDbBlockReference
 62
3
  6
CONTINUOUS
  2
_FILLED
 10
430.3651456606
 20
543.0224961148
 41
4.0
 42
4.0
 43
4.0
 50
180.0
  0
INSERT
  5
23F
100
AcDbEntity
  8
__p___
100
AcDbBlockReference
 62
3
  6
CONTINUOUS
  2
_FILLED
 10
666.5498238652
 20
543.0224961148
 41
4.0
 42
4.0
 43
4.0
  0
ENDBLK
  5
240
100
AcDbEntity
  8
0
  6
BYBLOCK
 62
0
100
AcDbBlockEnd
  0
BLOCK
  5
241
100
AcDbEntity
  8
__p___
100
AcDbBlockBegin
 62
3
  6
CONTINUOUS
  2
*D1
 70
65
 10
0.0
 20
0.0
  3
*D1
  1

  0
TEXT
  5
242
100
AcDbEntity
  8
__p___
100
AcDbText
 62
3
  6
CONTINUOUS
 10
709.1800099533
 20
312.0351403924
  7
TEXTSTYLE_2
 40
14.0
  1
187
 50
90.0
 72
5
 11
709.1800099533
 21
344.6671106526
100
AcDbText
  0
LINE
  5
243
100
AcDbEntity
  8
__p___
100
AcDbLine
 62
3
  6
CONTINUOUS
 10
456.6651456606
 20
234.8238580239
 11
709.1800099533
 21
234.8238580239
  0
LINE
  5
244
100
AcDbEntity
  8
__p___
100
AcDbLine
 62
3
  6
CONTINUOUS
 10
709.1800099533
 20
234.8238580239
 11
713.6800099533
 21
234.8238580239
  0
LINE
  5
245
100
AcDbEntity
  8
__p___
100
AcDbLine
 62
3
  6
CONTINUOUS
 10
677.1349669672
 20
421.8783930211
 11
709.1800099533
 21
421.8783930211
  0
LINE
  5
246
100
AcDbEntity
  8
__p___
100
AcDbLine
 62
3
  6
CONTINUOUS
 10
709.1800099533
 20
421.8783930211
 11
713.6800099533
 21
421.8783930211
  0
LINE
  5
247
100
AcDbEntity
  8
__p___
100
AcDbLine
 62
3
  6
CONTINUOUS
 10
712.6800099533
 20
234.8238580239
 11
712.6800099533
 21
328.3511255225
  0
LINE
  5
248
100
AcDbEntity
  8
__p___
100
AcDbLine
 62
3
  6
CONTINUOUS
 10
712.6800099533
 20
421.8783930211
 11
712.6800099533
 21
328.3511255225
  0
INSERT
  5
249
100
AcDbEntity
  8
__p___
100
AcDbBlockReference
 62
3
  6
CONTINUOUS
  2
_FILLED
 10
712.6800099533
 20
234.8238580239
 41
4.0
 42
4.0
 43
4.0
 50
270.0
  0
INSERT
  5
24A
100
AcDbEntity
  8
__p___
100
AcDbBlockReference
 62
3
  6
CONTINUOUS
  2
_FILLED
 10
712.6800099533
 20
421.8783930211
 41
4.0
 42
4.0
 43
4.0
 50
90.0
  0
ENDBLK
  5
24B
100
AcDbEntity
  8
0
  6
BYBLOCK
 62
0
100
AcDbBlockEnd
  0
BLOCK
  5
24C
100
AcDbEntity
  8
__p___
100
AcDbBlockBegin
 62
3
  6
CONTINUOUS
  2
*D2
 70
65
 10
0.0
 20
0.0
  3
*D2
  1

  0
TEXT
  5
24D
100
AcDbEntity
  8
__p___
100
AcDbText
 62
3
  6
CONTINUOUS
 10
467.7690864515
 20
220.3474304422
  7
TEXTSTYLE_1
 40
14.0
  1
n
 72
5
 11
486.4357531182
 21
220.3474304422
100
AcDbText
  0
TEXT
  5
24E
100
AcDbEntity
  8
__p___
100
AcDbText
 62
3
  6
CONTINUOUS
 10
486.4357531182
 20
220.3474304422
  7
TEXTSTYLE_2
 40
14.0
  1
53
 72
5
 11
508.1903999583
 21
220.3474304422
100
AcDbText
  0
LINE
  5
24F
100
AcDbEntity
  8
__p___
100
AcDbLine
 62
3
  6
CONTINUOUS
 10
403.8651456606
 20
235.0238580239
 11
403.8651456606
 21
220.3474304422
  0
LINE
  5
250
100
AcDbEntity
  8
__p___
100
AcDbLine
 62
3
  6
CONTINUOUS
 10
403.8651456606
 20
220.3474304422
 11
403.8651456606
 21
215.8474304422
  0
LINE
  5
251
100
AcDbEntity
  8
__p___
100
AcDbLine
 62
3
  6
CONTINUOUS
 10
456.8651456606
 20
235.0238580239
 11
456.8651456606
 21
220.3474304422
  0
LINE
  5
252
100
AcDbEntity
  8
__p___
100
AcDbLine
 62
3
  6
CONTINUOUS
 10
456.8651456606
 20
220.3474304422
 11
456.8651456606
 21
215.8474304422
  0
LINE
  5
253
100
AcDbEntity
  8
__p___
100
AcDbLine
 62
3
  6
CONTINUOUS
 10
403.8651456606
 20
216.8474304422
 11
396.8651456606
 21
216.8474304422
  0
LINE
  5
254
100
AcDbEntity
  8
__p___
100
AcDbLine
 62
3
  6
CONTINUOUS
 10
396.8651456606
 20
216.8474304422
 11
430.3651456606
 21
216.8474304422
  0
LINE
  5
255
100
AcDbEntity
  8
__p___
100
AcDbLine
 62
3
  6
CONTINUOUS
 10
456.8651456606
 20
216.8474304422
 11
508.1903999583
 21
216.8474304422
  0
LINE
  5
256
100
AcDbEntity
  8
__p___
100
AcDbLine
 62
3
  6
CONTINUOUS
 10
508.1903999583
 20
216.8474304422
 11
430.3651456606
 21
216.8474304422
  0
INSERT
  5
257
100
AcDbEntity
  8
__p___
100
AcDbBlockReference
 62
3
  6
CONTINUOUS
  2
_FILLED
 10
403.8651456606
 20
216.8474304422
 41
4.0
 42
4.0
 43
4.0
  0
INSERT
  5
258
100
AcDbEntity
  8
__p___
100
AcDbBlockReference
 62
3
  6
CONTINUOUS
  2
_FILLED
 10
456.8651456606
 20
216.8474304422
 41
4.0
 42
4.0
 43
4.0
 50
180.0
  0
ENDBLK
  5
259
100
AcDbEntity
  8
0
  6
BYBLOCK
 62
0
100
AcDbBlockEnd
  0
BLOCK
  5
25A
100
AcDbEntity
  8
__p___
100
AcDbBlockBegin
 62
3
  6
CONTINUOUS
  2
*D3
 70
65
 10
0.0
 20
0.0
  3
*D3
  1

  0
TEXT
  5
25B
100
AcDbEntity
  8
__p___
100
AcDbText
 62
3
  6
CONTINUOUS
 10
464.1977777269
 20
396.2947209506
  7
TEXTSTYLE_2
 40
14.0
  1
107
 72
5
 11
496.8297479871
 21
396.2947209506
100
AcDbText
  0
LINE
  5
25C
100
AcDbEntity
  8
__p___
100
AcDbLine
 62
3
  6
CONTINUOUS
 10
430.3651456606
 20
349.7668824139
 11
430.3651456606
 21
393.7947209506
  0
LINE
  5
25D
100
AcDbEntity
  8
__p___
100
AcDbLine
 62
3
  6
CONTINUOUS
 10
537.1651456606
 20
370.1738580239
 11
537.1651456606
 21
393.7947209506
  0
LINE
  5
25E
100
AcDbEntity
  8
__p___
100
AcDbLine
 62
3
  6
CONTINUOUS
 10
430.3651456606
 20
392.7947209506
 11
483.7651456606
 21
392.7947209506
  0
LINE
  5
25F
100
AcDbEntity
  8
__p___
100
AcDbLine
 62
3
  6
CONTINUOUS
 10
537.1651456606
 20
392.7947209506
 11
483.7651456606
 21
392.7947209506
  0
INSERT
  5
260
100
AcDbEntity
  8
__p___
100
AcDbBlockReference
 62
3
  6
CONTINUOUS
  2
_FILLED
 10
430.3651456606
 20
392.7947209506
 41
4.0
 42
4.0
 43
4.0
 50
180.0
  0
INSERT
  5
261
100
AcDbEntity
  8
__p___
100
AcDbBlockReference
 62
3
  6
CONTINUOUS
  2
_FILLED
 10
537.1651456606
 20
392.7947209506
 41
4.0
 42
4.0
 43
4.0
  0
ENDBLK
  5
262
100
AcDbEntity
  8
0
  6
BYBLOCK
 62
0
100
AcDbBlockEnd
  0
BLOCK
  5
263
100
AcDbEntity
  8
__p___
100
AcDbBlockBegin
 62
3
  6
CONTINUOUS
  2
*D4
 70
65
 10
0.0
 20
0.0
  3
*D4
  1

  0
TEXT
  5
264
100
AcDbEntity
  8
__p___
100
AcDbText
 62
3
  6
CONTINUOUS
 10
156.2793045916
 20
433.7980622887
  7
TEXTSTYLE_2
 40
14.0
  1
83
 72
5
 11
178.0339514318
 21
433.7980622887
100
AcDbText
  0
LINE
  5
265
100
AcDbEntity
  8
__p___
100
AcDbLine
 62
3
  6
CONTINUOUS
 10
210.0275478133
 20
370.1559063541
 11
210.0275478133
 21
431.2980622887
  0
LINE
  5
266
100
AcDbEntity
  8
__p___
100
AcDbLine
 62
3
  6
CONTINUOUS
 10
127.131009021
 20
336.3005732144
 11
127.131009021
 21
431.2980622887
  0
LINE
  5
267
100
AcDbEntity
  8
__p___
100
AcDbLine
 62
3
  6
CONTINUOUS
 10
210.0275478133
 20
430.2980622887
 11
168.5792784172
 21
430.2980622887
  0
LINE
  5
268
100
AcDbEntity
  8
__p___
100
AcDbLine
 62
3
  6
CONTINUOUS
 10
127.131009021
 20
430.2980622887
 11
168.5792784172
 21
430.2980622887
  0
INSERT
  5
269
100
AcDbEntity
  8
__p___
100
AcDbBlockReference
 62
3
  6
CONTINUOUS
  2
_FILLED
 10
210.0275478133
 20
430.2980622887
 41
4.0
 42
4.0
 43
4.0
  0
INSERT
  5
26A
100
AcDbEntity
  8
__p___
100
AcDbBlockReference
 62
3
  6
CONTINUOUS
  2
_FILLED
 10
127.131009021
 20
430.2980622887
 41
4.0
 42
4.0
 43
4.0
 50
180.0
  0
ENDBLK
  5
26B
100
AcDbEntity
  8
0
  6
BYBLOCK
 62
0
100
AcDbBlockEnd
  0
BLOCK
  5
26C
100
AcDbEntity
  8
__p___
100
AcDbBlockBegin
 62
3
  6
CONTINUOUS
  2
*D5
 70
65
 10
0.0
 20
0.0
  3
*D5
  1

  0
TEXT
  5
26D
100
AcDbEntity
  8
__p___
100
AcDbText
 62
3
  6
CONTINUOUS
 10
152.7161492087
 20
483.3823284255
  7
TEXTSTYLE_2
 40
14.0
  1
93
 72
5
 11
174.4707960489
 21
483.3823284255
100
AcDbText
  0
LINE
  5
26E
100
AcDbEntity
  8
__p___
100
AcDbLine
 62
3
  6
CONTINUOUS
 10
210.0275478133
 20
370.1559063541
 11
210.0275478133
 21
480.8823284255
  0
LINE
  5
26F
100
AcDbEntity
  8
__p___
100
AcDbLine
 62
3
  6
CONTINUOUS
 10
117.1593974442
 20
260.5586635703
 11
117.1593974442
 21
480.8823284255
  0
LINE
  5
270
100
AcDbEntity
  8
__p___
100
AcDbLine
 62
3
  6
CONTINUOUS
 10
210.0275478133
 20
479.8823284255
 11
163.5934726288
 21
479.8823284255
  0
LINE
  5
271
100
AcDbEntity
  8
__p___
100
AcDbLine
 62
3
  6
CONTINUOUS
 10
117.1593974442
 20
479.8823284255
 11
163.5934726288
 21
479.8823284255
  0
INSERT
  5
272
100
AcDbEntity
  8
__p___
100
AcDbBlockReference
 62
3
  6
CONTINUOUS
  2
_FILLED
 10
210.0275478133
 20
479.8823284255
 41
4.0
 42
4.0
 43
4.0
  0
INSERT
  5
273
100
AcDbEntity
  8
__p___
100
AcDbBlockReference
 62
3
  6
CONTINUOUS
  2
_FILLED
 10
117.1593974442
 20
479.8823284255
 41
4.0
 42
4.0
 43
4.0
 50
180.0
  0
ENDBLK
  5
274
100
AcDbEntity
  8
0
  6
BYBLOCK
 62
0
100
AcDbBlockEnd
  0
BLOCK
  5
275
100
AcDbEntity
  8
__p___
100
AcDbBlockBegin
 62
3
  6
CONTINUOUS
  2
*D6
 70
65
 10
0.0
 20
0.0
  3
*D6
  1

  0
TEXT
  5
276
100
AcDbEntity
  8
__p___
100
AcDbText
 62
3
  6
CONTINUOUS
 10
152.6185210069
 20
214.61297826
  7
TEXTSTYLE_2
 40
14.0
  1
6
 50
90.0
 72
5
 11
152.6185210069
 21
225.4903016801
100
AcDbText
  0
LINE
  5
277
100
AcDbEntity
  8
__p___
100
AcDbLine
 62
3
  6
CONTINUOUS
 10
183.6622469798
 20
234.8238580239
 11
155.1185210069
 21
234.8238580239
  0
LINE
  5
278
100
AcDbEntity
  8
__p___
100
AcDbLine
 62
3
  6
CONTINUOUS
 10
184.9622363687
 20
240.8238580239
 11
155.1185210069
 21
240.8238580239
  0
LINE
  5
279
100
AcDbEntity
  8
__p___
100
AcDbLine
 62
3
  6
CONTINUOUS
 10
156.1185210069
 20
234.8238580239
 11
156.1185210069
 21
214.61297826
  0
LINE
  5
27A
100
AcDbEntity
  8
__p___
100
AcDbLine
 62
3
  6
CONTINUOUS
 10
156.1185210069
 20
214.61297826
 11
156.1185210069
 21
237.8238580239
  0
LINE
  5
27B
100
AcDbEntity
  8
__p___
100
AcDbLine
 62
3
  6
CONTINUOUS
 10
156.1185210069
 20
240.8238580239
 11
156.1185210069
 21
247.8238580239
  0
LINE
  5
27C
100
AcDbEntity
  8
__p___
100
AcDbLine
 62
3
  6
CONTINUOUS
 10
156.1185210069
 20
247.8238580239
 11
156.1185210069
 21
237.8238580239
  0
INSERT
  5
27D
100
AcDbEntity
  8
__p___
100
AcDbBlockReference
 62
3
  6
CONTINUOUS
  2
_FILLED
 10
156.1185210069
 20
234.8238580239
 41
4.0
 42
4.0
 43
4.0
 50
90.0
  0
INSERT
  5
27E
100
AcDbEntity
  8
__p___
100
AcDbBlockReference
 62
3
  6
CONTINUOUS
  2
_FILLED
 10
156.1185210069
 20
240.8238580239
 41
4.0
 42
4.0
 43
4.0
 50
270.0
  0
ENDBLK
  5
27F
100
AcDbEntity
  8
0
  6
BYBLOCK
 62
0
100
AcDbBlockEnd
  0
BLOCK
  5
280
100
AcDbEntity
  8
__p___
100
AcDbBlockBegin
 62
3
  6
CONTINUOUS
  2
*D7
 70
65
 10
0.0
 20
0.0
  3
*D7
  1

  0
TEXT
  5
281
100
AcDbEntity
  8
__p___
100
AcDbText
 62
3
  6
CONTINUOUS
 10
295.236708762
 20
113.4703669788
  7
TEXTSTYLE_2
 40
14.0
  1
max.30
 50
90.0
 72
5
 11
295.236708762
 21
177.5372814769
100
AcDbText
  0
LINE
  5
282
100
AcDbEntity
  8
__p___
100
AcDbLine
 62
3
  6
CONTINUOUS
 10
239.027292924
 20
204.8238580239
 11
295.236708762
 21
204.8238580239
  0
LINE
  5
283
100
AcDbEntity
  8
__p___
100
AcDbLine
 62
3
  6
CONTINUOUS
 10
295.236708762
 20
204.8238580239
 11
299.736708762
 21
204.8238580239
  0
LINE
  5
284
100
AcDbEntity
  8
__p___
100
AcDbLine
 62
3
  6
CONTINUOUS
 10
236.2618183208
 20
234.8238580239
 11
295.236708762
 21
234.8238580239
  0
LINE
  5
285
100
AcDbEntity
  8
__p___
100
AcDbLine
 62
3
  6
CONTINUOUS
 10
295.236708762
 20
234.8238580239
 11
299.736708762
 21
234.8238580239
  0
LINE
  5
286
100
AcDbEntity
  8
__p___
100
AcDbLine
 62
3
  6
CONTINUOUS
 10
298.736708762
 20
204.8238580239
 11
298.736708762
 21
113.4703669788
  0
LINE
  5
287
100
AcDbEntity
  8
__p___
100
AcDbLine
 62
3
  6
CONTINUOUS
 10
298.736708762
 20
113.4703669788
 11
298.736708762
 21
219.8238580239
  0
LINE
  5
288
100
AcDbEntity
  8
__p___
100
AcDbLine
 62
3
  6
CONTINUOUS
 10
298.736708762
 20
234.8238580239
 11
298.736708762
 21
241.8238580239
  0
LINE
  5
289
100
AcDbEntity
  8
__p___
100
AcDbLine
 62
3
  6
CONTINUOUS
 10
298.736708762
 20
241.8238580239
 11
298.736708762
 21
219.8238580239
  0
INSERT
  5
28A
100
AcDbEntity
  8
__p___
100
AcDbBlockReference
 62
3
  6
CONTINUOUS
  2
_FILLED
 10
298.736708762
 20
204.8238580239
 41
4.0
 42
4.0
 43
4.0
 50
90.0
  0
INSERT
  5
28B
100
AcDbEntity
  8
__p___
100
AcDbBlockReference
 62
3
  6
CONTINUOUS
  2
_FILLED
 10
298.736708762
 20
234.8238580239
 41
4.0
 42
4.0
 43
4.0
 50
270.0
  0
ENDBLK
  5
28C
100
AcDbEntity
  8
0
  6
BYBLOCK
 62
0
100
AcDbBlockEnd
  0
BLOCK
  5
28D
100
AcDbEntity
  8
__p___
100
AcDbBlockBegin
 62
3
  6
CONTINUOUS
  2
*D8
 70
65
 10
0.0
 20
0.0
  3
*D8
  1

  0
TEXT
  5
28E
100
AcDbEntity
  8
__p___
100
AcDbText
 62
3
  6
CONTINUOUS
 10
755.684562415
 20
348.7937763745
  7
TEXTSTYLE_2
 40
14.0
  1
261
 50
90.0
 72
5
 11
755.684562415
 21
381.4257466348
100
AcDbText
  0
LINE
  5
28F
100
AcDbEntity
  8
__p___
100
AcDbLine
 62
3
  6
CONTINUOUS
 10
456.6651456606
 20
234.8238580239
 11
755.684562415
 21
234.8238580239
  0
LINE
  5
290
100
AcDbEntity
  8
__p___
100
AcDbLine
 62
3
  6
CONTINUOUS
 10
755.684562415
 20
234.8238580239
 11
760.184562415
 21
234.8238580239
  0
LINE
  5
291
100
AcDbEntity
  8
__p___
100
AcDbLine
 62
3
  6
CONTINUOUS
 10
632.5498238652
 20
495.3956649854
 11
755.684562415
 21
495.3956649854
  0
LINE
  5
292
100
AcDbEntity
  8
__p___
100
AcDbLine
 62
3
  6
CONTINUOUS
 10
755.684562415
 20
495.3956649854
 11
760.184562415
 21
495.3956649854
  0
LINE
  5
293
100
AcDbEntity
  8
__p___
100
AcDbLine
 62
3
  6
CONTINUOUS
 10
759.184562415
 20
234.8238580239
 11
759.184562415
 21
365.1097615047
  0
LINE
  5
294
100
AcDbEntity
  8
__p___
100
AcDbLine
 62
3
  6
CONTINUOUS
 10
759.184562415
 20
495.3956649854
 11
759.184562415
 21
365.1097615047
  0
INSERT
  5
295
100
AcDbEntity
  8
__p___
100
AcDbBlockReference
 62
3
  6
CONTINUOUS
  2
_FILLED
 10
759.184562415
 20
234.8238580239
 41
4.0
 42
4.0
 43
4.0
 50
270.0
  0
INSERT
  5
296
100
AcDbEntity
  8
__p___
100
AcDbBlockReference
 62
3
  6
CONTINUOUS
  2
_FILLED
 10
759.184562415
 20
495.3956649854
 41
4.0
 42
4.0
 43
4.0
 50
90.0
  0
ENDBLK
  5
297
100
AcDbEntity
  8
0
  6
BYBLOCK
 62
0
100
AcDbBlockEnd
  0
BLOCK
  5
298
100
AcDbEntity
  8
__p___
100
AcDbBlockBegin
 62
3
  6
CONTINUOUS
  2
*D9
 70
65
 10
0.0
 20
0.0
  3
*D9
  1

  0
TEXT
  5
299
100
AcDbEntity
  8
__p___
100
AcDbText
 62
3
  6
CONTINUOUS
 10
398.0878222405
 20
396.2947209506
  7
TEXTSTYLE_2
 40
14.0
  1
43
 72
5
 11
419.8424690807
 21
396.2947209506
100
AcDbText
  0
LINE
  5
29A
100
AcDbEntity
  8
__p___
100
AcDbLine
 62
3
  6
CONTINUOUS
 10
430.3651456606
 20
349.7668824139
 11
430.3651456606
 21
393.7947209506
  0
LINE
  5
29B
100
AcDbEntity
  8
__p___
100
AcDbLine
 62
3
  6
CONTINUOUS
 10
387.5651456606
 20
293.3238580239
 11
387.5651456606
 21
393.7947209506
  0
LINE
  5
29C
100
AcDbEntity
  8
__p___
100
AcDbLine
 62
3
  6
CONTINUOUS
 10
430.3651456606
 20
392.7947209506
 11
408.9651456606
 21
392.7947209506
  0
LINE
  5
29D
100
AcDbEntity
  8
__p___
100
AcDbLine
 62
3
  6
CONTINUOUS
 10
387.5651456606
 20
392.7947209506
 11
408.9651456606
 21
392.7947209506
  0
INSERT
  5
29E
100
AcDbEntity
  8
__p___
100
AcDbBlockReference
 62
3
  6
CONTINUOUS
  2
_FILLED
 10
430.3651456606
 20
392.7947209506
 41
4.0
 42
4.0
 43
4.0
  0
INSERT
  5
29F
100
AcDbEntity
  8
__p___
100
AcDbBlockReference
 62
3
  6
CONTINUOUS
  2
_FILLED
 10
387.5651456606
 20
392.7947209506
 41
4.0
 42
4.0
 43
4.0
 50
180.0
  0
ENDBLK
  5
2A0
100
AcDbEntity
  8
0
  6
BYBLOCK
 62
0
100
AcDbBlockEnd
  0
BLOCK
  5
2A1
100
AcDbEntity
  8
__p___
100
AcDbBlockBegin
 62
3
  6
CONTINUOUS
  2
*D10
 70
65
 10
0.0
 20
0.0
  3
*D10
  1

  0
TEXT
  5
2A2
100
AcDbEntity
  8
__p___
100
AcDbText
 62
3
  6
CONTINUOUS
 10
742.4837974747
 20
137.8279595586
  7
TEXTSTYLE_2
 40
19.6
  1
360
 50
-89.9818392525
 72
5
 11
742.4982779366
 21
92.1432034891
100
AcDbText
  0
TEXT
  5
2A3
100
AcDbEntity
  8
__p___
100
AcDbText
 62
3
  6
CONTINUOUS
 10
742.4982779366
 20
92.1432034891
  7
TEXTSTYLE_1
 40
19.6
  1
~
 50
-89.9818392525
 72
5
 11
742.5024196104
 21
79.0765374789
100
AcDbText
  0
LINE
  5
2A4
100
AcDbEntity
  8
__p___
100
AcDbLine
 62
3
  6
CONTINUOUS
 10
667.6672185074
 20
44.7684161444
 11
713.8914008913
 21
32.3826838039
  0
LINE
  5
2A5
100
AcDbEntity
  8
__p___
100
AcDbLine
 62
3
  6
CONTINUOUS
 10
667.6672185074
 20
171.9382137075
 11
713.8914008913
 21
184.323946048
  0
ARC
  5
2A6
100
AcDbEntity
  8
__p___
100
AcDbCircle
 62
3
  6
CONTINUOUS
 10
430.3651456606
 20
108.353314926
 40
292.5279785612
100
AcDbArc
 50
345.0
 51
360.0
  0
ARC
  5
2A7
100
AcDbEntity
  8
__p___
100
AcDbCircle
 62
3
  6
CONTINUOUS
 10
430.3651456606
 20
108.353314926
 40
292.5279785612
100
AcDbArc
 50
0.0
 51
15.0
  0
SOLID
  5
2A8
100
AcDbEntity
  8
__p___
100
AcDbTrace
 62
3
  6
CONTINUOUS
 10
713.4504749122
 20
36.6382984605
 11
712.925475065
 21
32.641502849
 12
714.4181476828
 22
36.3860894024
 13
714.4181476828
 23
36.3860894024
  0
SOLID
  5
2A9
100
AcDbEntity
  8
__p___
100
AcDbTrace
 62
3
  6
CONTINUOUS
 10
714.4181476828
 20
180.3205404495
 11
712.925475065
 21
184.0651270029
 12
713.4504749122
 22
180.0683313914
 13
713.4504749122
 23
180.0683313914
  0
ENDBLK
  5
2AA
100
AcDbEntity
  8
0
  6
BYBLOCK
 62
0
100
AcDbBlockEnd
  0
BLOCK
  5
2AB
100
AcDbEntity
  8
__p___
100
AcDbBlockBegin
 62
3
  6
CONTINUOUS
  2
*D11
 70
65
 10
0.0
 20
0.0
  3
*D11
  1

  0
TEXT
  5
2AC
100
AcDbEntity
  8
__p___
100
AcDbText
 62
3
  6
CONTINUOUS
 10
482.7637242397
 20
425.490820112
  7
TEXTSTYLE_2
 40
14.0
  1
137
 72
5
 11
515.3956945
 21
425.490820112
100
AcDbText
  0
LINE
  5
2AD
100
AcDbEntity
  8
__p___
100
AcDbLine
 62
3
  6
CONTINUOUS
 10
430.3651456606
 20
422.4645827815
 11
430.3651456606
 21
420.990820112
  0
LINE
  5
2AE
100
AcDbEntity
  8
__p___
100
AcDbLine
 62
3
  6
CONTINUOUS
 10
567.7942730791
 20
342.6329235304
 11
567.7942730791
 21
422.990820112
  0
LINE
  5
2AF
100
AcDbEntity
  8
__p___
100
AcDbLine
 62
3
  6
CONTINUOUS
 10
430.3651456606
 20
421.990820112
 11
499.0797093698
 21
421.990820112
  0
LINE
  5
2B0
100
AcDbEntity
  8
__p___
100
AcDbLine
 62
3
  6
CONTINUOUS
 10
567.7942730791
 20
421.990820112
 11
499.0797093698
 21
421.990820112
  0
INSERT
  5
2B1
100
AcDbEntity
  8
__p___
100
AcDbBlockReference
 62
3
  6
CONTINUOUS
  2
_FILLED
 10
430.3651456606
 20
421.990820112
 41
4.0
 42
4.0
 43
4.0
 50
180.0
  0
INSERT
  5
2B2
100
AcDbEntity
  8
__p___
100
AcDbBlockReference
 62
3
  6
CONTINUOUS
  2
_FILLED
 10
567.7942730791
 20
421.990820112
 41
4.0
 42
4.0
 43
4.0
  0
ENDBLK
  5
2B3
100
AcDbEntity
  8
0
  6
BYBLOCK
 62
0
100
AcDbBlockEnd
  0
ENDSEC
  0
SECTION
  2
ENTITIES
  0
DIMENSION
  5
2B4
100
AcDbEntity
  8
__p___
100
AcDbDimension
 62
3
  6
CONTINUOUS
  2
*D0
 10
666.5498238652
 20
543.0224961148
 11
548.2783006485
 21
543.0224961148
 70
160
 71
2
  1
236
  3
DIMSTYLE_1
100
AcDbAlignedDimension
 13
430.3651456606
 23
205.0282949777
 14
666.5498238652
 24
416.8783930211
100
AcDbRotatedDimension
  0
DIMENSION
  5
2B5
100
AcDbEntity
  8
__p___
100
AcDbDimension
 62
3
  6
CONTINUOUS
  2
*D1
 10
712.6800099533
 20
421.8783930211
 11
712.6800099533
 21
328.952613424
 70
160
 71
2
 42
187.0545349972
  1
187
  3
DIMSTYLE_2
100
AcDbAlignedDimension
 13
456.6651456606
 23
234.8238580239
 14
677.1349669672
 24
421.8783930211
 50
90.0
100
AcDbRotatedDimension
  0
DIMENSION
  5
2B6
100
AcDbEntity
  8
__p___
100
AcDbDimension
 62
3
  6
CONTINUOUS
  2
*D2
 10
456.8651456606
 20
216.8474304422
 11
487.9797432049
 21
216.8474304422
 70
160
 71
2
 42
53.0
  1
%%c53
  3
DIMSTYLE_3
100
AcDbAlignedDimension
 13
403.8651456606
 23
235.0238580239
 14
456.8651456606
 24
235.0238580239
100
AcDbRotatedDimension
  0
DIMENSION
  5
2B7
100
AcDbEntity
  8
__p___
100
AcDbDimension
 62
3
  6
CONTINUOUS
  2
*D3
 10
537.1651456606
 20
392.7947209506
 11
481.1152519638
 21
392.7947209506
 70
160
 71
2
  1
107
  3
DIMSTYLE_1
100
AcDbAlignedDimension
 13
430.3651456606
 23
349.7668824139
 14
537.1651456606
 24
370.1738580239
100
AcDbRotatedDimension
  0
DIMENSION
  5
2B8
100
AcDbEntity
  8
__p___
100
AcDbDimension
 62
3
  6
CONTINUOUS
  2
*D4
 10
127.131009021
 20
430.2980622887
 11
167.0930608269
 21
430.2980622887
 70
160
 71
2
  1
83
  3
DIMSTYLE_1
100
AcDbAlignedDimension
 13
210.0275478133
 23
370.1559063541
 14
127.131009021
 24
336.3005732144
 50
180.0
100
AcDbRotatedDimension
  0
DIMENSION
  5
2B9
100
AcDbEntity
  8
__p___
100
AcDbDimension
 62
3
  6
CONTINUOUS
  2
*D5
 10
117.1593974442
 20
479.8823284255
 11
163.5559263748
 21
479.8823284255
 70
160
 71
2
  1
93
  3
DIMSTYLE_1
100
AcDbAlignedDimension
 13
210.0275478133
 23
370.1559063541
 14
117.1593974442
 24
260.5586635703
 50
180.0
100
AcDbRotatedDimension
  0
DIMENSION
  5
2BA
100
AcDbEntity
  8
__p___
100
AcDbDimension
 62
3
  6
CONTINUOUS
  2
*D6
 10
156.1185210069
 20
240.8238580239
 11
156.1185210069
 21
219.9735728079
 70
160
 71
2
 42
6.0
  1
6
  3
DIMSTYLE_1
100
AcDbAlignedDimension
 13
183.6622469798
 23
234.8238580239
 14
184.9622363687
 24
240.8238580239
 50
90.0
100
AcDbRotatedDimension
  0
DIMENSION
  5
2BB
100
AcDbEntity
  8
__p___
100
AcDbDimension
 62
3
  6
CONTINUOUS
  2
*D7
 10
298.736708762
 20
234.8238580239
 11
298.736708762
 21
145.6646216865
 70
160
 71
2
 42
30.0
  1
max.30
  3
DIMSTYLE_4
100
AcDbAlignedDimension
 13
239.027292924
 23
204.8238580239
 14
236.2618183208
 24
234.8238580239
 50
90.0
100
AcDbRotatedDimension
  0
DIMENSION
  5
2BC
100
AcDbEntity
  8
__p___
100
AcDbDimension
 62
3
  6
CONTINUOUS
  2
*D8
 10
759.184562415
 20
495.3956649854
 11
759.184562415
 21
363.5774106575
 70
160
 71
2
  1
261
  3
DIMSTYLE_1
100
AcDbAlignedDimension
 13
456.6651456606
 23
234.8238580239
 14
632.5498238652
 24
495.3956649854
 50
90.0
100
AcDbRotatedDimension
  0
DIMENSION
  5
2BD
100
AcDbEntity
  8
__p___
100
AcDbDimension
 62
3
  6
CONTINUOUS
  2
*D9
 10
387.5651456606
 20
392.7947209506
 11
408.6153293129
 21
392.7947209506
 70
160
 71
2
  1
43
  3
DIMSTYLE_1
100
AcDbAlignedDimension
 13
430.3651456606
 23
349.7668824139
 14
387.5651456606
 24
293.3238580239
 50
180.0
100
AcDbRotatedDimension
  0
DIMENSION
  5
2BE
100
AcDbEntity
  8
__p___
100
AcDbDimension
 62
3
  6
CONTINUOUS
  2
*D10
 10
667.6672185074
 20
171.9382137075
 11
722.8931095271
 21
108.446036008
 70
162
 71
2
 42
0.5235987756
  1
360%%d
  3
DIMSTYLE_5
100
AcDb2LineAngularDimension
 13
664.8416152133
 23
45.5255342652
 14
667.6672185074
 24
44.7684161444
 15
664.8416152133
 25
171.1810955867
 16
722.8931242218
 26
108.353314926
  0
DIMENSION
  5
2BF
100
AcDbEntity
  8
__p___
100
AcDbDimension
 62
3
  6
CONTINUOUS
  2
*D11
 10
567.7942730791
 20
421.990820112
 11
499.6812007095
 21
421.990820112
 70
160
 71
2
  1
137
  3
DIMSTYLE_1
100
AcDbAlignedDimension
 13
430.3651456606
 23
420.990820112
 14
567.7942730791
 24
342.6329235304
100
AcDbRotatedDimension
  0
TEXT
  5
2C0
100
AcDbEntity
  8
__p___
100
AcDbText
 62
3
  6
CONTINUOUS
 10
22.9505907937
 20
565.0128843258
  7
TEXTSTYLE_2
 40
21.375
  1
TRADON
 72
5
 11
148.8167617975
 21
565.0128843258
100
AcDbText
  0
LINE
  5
2C1
100
AcDbEntity
  8
0
100
AcDbLine
 62
7
  6
CONTINUOUS
 10
0.0
 20
0.0
 11
0.0
 21
598.5
  0
LINE
  5
2C2
100
AcDbEntity
  8
________
100
AcDbLine
 62
7
  6
CONTINUOUS
 10
0.0
 20
0.0
 11
0.0
 21
598.5
  0
LINE
  5
2C3
100
AcDbEntity
  8
0
100
AcDbLine
 62
7
  6
CONTINUOUS
 10
0.0
 20
0.0
 11
846.45
 21
0.0
  0
LINE
  5
2C4
100
AcDbEntity
  8
________
100
AcDbLine
 62
7
  6
CONTINUOUS
 10
0.0
 20
0.0
 11
846.45
 21
0.0
  0
LINE
  5
2C5
100
AcDbEntity
  8
______
100
AcDbLine
 62
5
  6
ACAD_ISO04W100
 10
121.3993307674
 20
248.5128067984
 11
117.2950890475
 21
259.7891182478
  0
LINE
  5
2C6
100
AcDbEntity
  8
______
100
AcDbLine
 62
5
  6
ACAD_ISO04W100
 10
125.6279475609
 20
250.0518974433
 11
121.523705841
 21
261.3282088928
  0
LINE
  5
2C7
100
AcDbEntity
  8
________
100
AcDbLine
 62
6
  6
PHANTOM
 10
125.058828864
 20
251.7070662797
 11
122.1516576456
 21
259.6944535564
  0
LINE
  5
2C8
100
AcDbEntity
  8
________
100
AcDbLine
 62
7
  6
CONTINUOUS
 10
146.2026091321
 20
598.5
 11
146.2026091321
 21
547.7051846266
  0
LINE
  5
2C9
100
AcDbEntity
  8
______
100
AcDbLine
 62
5
  6
ACAD_ISO04W100
 10
127.5379169213
 20
337.5911201962
 11
134.4208341575
 21
347.4209447276
  0
LINE
  5
2CA
100
AcDbEntity
  8
0
100
AcDbLine
 62
1
  6
CONTINUOUS
 10
181.0275478133
 20
199.3238580239
 11
181.0275478133
 21
204.8238580239
  0
LINE
  5
2CB
100
AcDbEntity
  8
0
100
AcDbLine
 62
1
  6
CONTINUOUS
 10
183.4620326503
 20
235.0238580239
 11
183.4620326503
 21
239.3238580239
  0
LINE
  5
2CC
100
AcDbEntity
  8
0
100
AcDbLine
 62
1
  6
CONTINUOUS
 10
185.7835646967
 20
186.8238580239
 11
185.7835646967
 21
184.8238580239
  0
LINE
  5
2CD
100
AcDbEntity
  8
0
100
AcDbLine
 62
1
  6
CONTINUOUS
 10
185.8275478133
 20
186.8238580239
 11
185.8275478133
 21
184.8238580239
  0
LINE
  5
2CE
100
AcDbEntity
  8
0
100
AcDbLine
 62
1
  6
CONTINUOUS
 10
186.8335646967
 20
183.8142334523
 11
186.8335646967
 21
182.308798242
  0
LINE
  5
2CF
100
AcDbEntity
  8
0
100
AcDbLine
 62
1
  6
CONTINUOUS
 10
188.0275478133
 20
198.9080870617
 11
188.0275478133
 21
186.8238580239
  0
LINE
  5
2D0
100
AcDbEntity
  8
0
100
AcDbLine
 62
1
  6
CONTINUOUS
 10
189.7120326503
 20
241.1238580239
 11
189.7120326503
 21
270.2180494846
  0
LINE
  5
2D1
100
AcDbEntity
  8
______
100
AcDbLine
 62
5
  6
ACAD_ISO04W100
 10
131.2241011206
 20
335.0100262326
 11
138.1070183568
 21
344.8398507641
  0
LINE
  5
2D2
100
AcDbEntity
  8
______
100
AcDbLine
 62
5
  6
ACAD_ISO04W100
 10
132.2535029825
 20
336.4255868194
 11
137.1289026914
 21
343.3883791959
  0
LINE
  5
2D3
100
AcDbEntity
  8
0
100
AcDbLine
 62
1
  6
CONTINUOUS
 10
222.5701128236
 20
430.9864731943
 11
223.1691394315
 21
431.5854998022
  0
LINE
  5
2D4
100
AcDbEntity
  8
0
100
AcDbLine
 62
1
  6
CONTINUOUS
 10
213.0526106278
 20
156.9238580239
 11
213.6560492144
 21
156.3238580239
  0
LINE
  5
2D5
100
AcDbEntity
  8
0
100
AcDbLine
 62
1
  6
CONTINUOUS
 10
211.6275478133
 20
170.7781199996
 11
211.5275478133
 21
170.8781199996
  0
LINE
  5
2D6
100
AcDbEntity
  8
0
100
AcDbLine
 62
1
  6
CONTINUOUS
 10
193.4620326503
 20
231.0238580239
 11
193.4620326503
 21
234.8238580239
  0
LINE
  5
2D7
100
AcDbEntity
  8
0
100
AcDbLine
 62
1
  6
CONTINUOUS
 10
196.4620326503
 20
309.8648081926
 11
196.4620326503
 21
323.5238580239
  0
LINE
  5
2D8
100
AcDbEntity
  8
0
100
AcDbLine
 62
1
  6
CONTINUOUS
 10
196.4620326503
 20
432.2926065834
 11
196.4620326503
 21
435.6783930211
  0
LINE
  5
2D9
100
AcDbEntity
  8
0
100
AcDbLine
 62
1
  6
CONTINUOUS
 10
196.4620326503
 20
440.0783930211
 11
196.4620326503
 21
443.6783930211
  0
LINE
  5
2DA
100
AcDbEntity
  8
______
100
AcDbLine
 62
5
  6
ACAD_ISO04W100
 10
196.8393746547
 20
274.6012785455
 11
196.8393746546
 21
276.2591401395
  0
LINE
  5
2DB
100
AcDbEntity
  8
0
100
AcDbLine
 62
1
  6
CONTINUOUS
 10
196.9620326503
 20
443.8783930211
 11
196.9620326503
 21
446.3783930211
  0
LINE
  5
2DC
100
AcDbEntity
  8
0
100
AcDbLine
 62
1
  6
CONTINUOUS
 10
197.4620326503
 20
447.5946935425
 11
197.4620326503
 21
451.3238580239
  0
LINE
  5
2DD
100
AcDbEntity
  8
0
100
AcDbLine
 62
1
  6
CONTINUOUS
 10
197.5275478133
 20
368.3694594629
 11
197.5275478133
 21
370.1559063542
  0
LINE
  5
2DE
100
AcDbEntity
  8
0
100
AcDbLine
 62
1
  6
CONTINUOUS
 10
197.7120326503
 20
323.8238580239
 11
197.7120326503
 21
335.6959396857
  0
LINE
  5
2DF
100
AcDbEntity
  8
0
100
AcDbLine
 62
1
  6
CONTINUOUS
 10
197.7120326503
 20
364.9517763621
 11
197.7120326503
 21
375.698440976
  0
LINE
  5
2E0
100
AcDbEntity
  8
0
100
AcDbLine
 62
1
  6
CONTINUOUS
 10
197.7120326503
 20
400.9492750717
 11
197.7120326503
 21
411.9741833635
  0
LINE
  5
2E1
100
AcDbEntity
  8
0
100
AcDbLine
 62
1
  6
CONTINUOUS
 10
199.4620326503
 20
446.8783930211
 11
199.4620326503
 21
447.9651160947
  0
LINE
  5
2E2
100
AcDbEntity
  8
0
100
AcDbLine
 62
1
  6
CONTINUOUS
 10
200.9620326503
 20
486.2369405658
 11
200.9620326503
 21
452.3956649854
  0
LINE
  5
2E3
100
AcDbEntity
  8
0
100
AcDbLine
 62
1
  6
CONTINUOUS
 10
201.2397167537
 20
192.8238580239
 11
201.2397167537
 21
199.3238580239
  0
LINE
  5
2E4
100
AcDbEntity
  8
0
100
AcDbLine
 62
1
  6
CONTINUOUS
 10
204.6275478133
 20
302.805802585
 11
204.6275478134
 21
298.9468752201
  0
LINE
  5
2E5
100
AcDbEntity
  8
0
100
AcDbLine
 62
1
  6
CONTINUOUS
 10
205.9620326503
 20
498.4407112669
 11
205.9620326503
 21
499.3489377552
  0
LINE
  5
2E6
100
AcDbEntity
  8
______
100
AcDbLine
 62
6
  6
CENTER
 10
210.0275478133
 20
384.1559063541
 11
210.0275478133
 21
213.65593691
  0
LINE
  5
2E7
100
AcDbEntity
  8
0
100
AcDbLine
 62
1
  6
CONTINUOUS
 10
211.5275478133
 20
170.8781154018
 11
211.5275478133
 21
180.3238580239
  0
LINE
  5
2E8
100
AcDbEntity
  8
0
100
AcDbLine
 62
1
  6
CONTINUOUS
 10
211.6275478133
 20
161.7781199996
 11
211.6275478133
 21
170.7781199996
  0
LINE
  5
2E9
100
AcDbEntity
  8
0
100
AcDbLine
 62
1
  6
CONTINUOUS
 10
211.7144611348
 20
171.7781199996
 11
211.7144611348
 21
180.3238580239
  0
LINE
  5
2EA
100
AcDbEntity
  8
0
100
AcDbLine
 62
1
  6
CONTINUOUS
 10
213.0275478133
 20
158.3238580239
 11
213.0275478133
 21
161.7781199996
  0
LINE
  5
2EB
100
AcDbEntity
  8
0
100
AcDbLine
 62
1
  6
CONTINUOUS
 10
213.0275478133
 20
204.8238580239
 11
213.0275478133
 21
230.8238580239
  0
LINE
  5
2EC
100
AcDbEntity
  8
0
100
AcDbLine
 62
1
  6
CONTINUOUS
 10
213.0526106278
 20
156.9238580239
 11
213.0526106278
 21
158.3238580239
  0
LINE
  5
2ED
100
AcDbEntity
  8
0
100
AcDbLine
 62
1
  6
CONTINUOUS
 10
213.7775478133
 20
230.8238580239
 11
213.7775478133
 21
204.8238580239
  0
LINE
  5
2EE
100
AcDbEntity
  8
0
100
AcDbLine
 62
1
  6
CONTINUOUS
 10
213.7775478133
 20
161.7781199996
 11
213.7775478133
 21
156.3238580239
  0
LINE
  5
2EF
100
AcDbEntity
  8
0
100
AcDbLine
 62
1
  6
CONTINUOUS
 10
213.9620326503
 20
498.4407112669
 11
213.9620326503
 21
499.3489377552
  0
LINE
  5
2F0
100
AcDbEntity
  8
0
100
AcDbLine
 62
1
  6
CONTINUOUS
 10
215.4275478133
 20
302.8058025851
 11
215.4275478133
 21
298.9468752202
  0
LINE
  5
2F1
100
AcDbEntity
  8
0
100
AcDbLine
 62
1
  6
CONTINUOUS
 10
217.8406344918
 20
171.7781199996
 11
217.8406344918
 21
180.3238580239
  0
LINE
  5
2F2
100
AcDbEntity
  8
0
100
AcDbLine
 62
1
  6
CONTINUOUS
 10
218.2144611348
 20
171.7781199996
 11
218.2144611348
 21
180.3238580239
  0
LINE
  5
2F3
100
AcDbEntity
  8
0
100
AcDbLine
 62
1
  6
CONTINUOUS
 10
218.9620326503
 20
486.2369405658
 11
218.9620326503
 21
452.3956649854
  0
LINE
  5
2F4
100
AcDbEntity
  8
0
100
AcDbLine
 62
1
  6
CONTINUOUS
 10
220.7434988302
 20
422.0402190892
 11
222.4328585194
 21
430.7283546333
  0
LINE
  5
2F5
100
AcDbEntity
  8
______
100
AcDbLine
 62
5
  6
ACAD_ISO04W100
 10
200.5381275389
 20
302.6960959773
 11
200.1090413842
 21
301.0947246473
  0
LINE
  5
2F6
100
AcDbEntity
  8
0
100
AcDbLine
 62
1
  6
CONTINUOUS
 10
490.8651456606
 20
81.753314926
 11
503.567820834
 21
82.4190339228
  0
LINE
  5
2F7
100
AcDbEntity
  8
0
100
AcDbLine
 62
1
  6
CONTINUOUS
 10
392.3651456606
 20
79.353314926
 11
468.3651456605
 21
79.353314926
  0
LINE
  5
2F8
100
AcDbEntity
  8
0
100
AcDbLine
 62
1
  6
CONTINUOUS
 10
474.3651456606
 20
83.853314926
 11
408.3651456606
 21
83.853314926
  0
LINE
  5
2F9
100
AcDbEntity
  8
0
100
AcDbLine
 62
1
  6
CONTINUOUS
 10
480.3651456606
 20
83.853314926
 11
485.0639552406
 21
83.853314926
  0
LINE
  5
2FA
100
AcDbEntity
  8
0
100
AcDbLine
 62
1
  6
CONTINUOUS
 10
402.3835086181
 20
84.353314926
 11
392.3651456606
 21
84.353314926
  0
LINE
  5
2FB
100
AcDbEntity
  8
0
100
AcDbLine
 62
1
  6
CONTINUOUS
 10
395.9651456606
 20
86.853314926
 11
395.0918614784
 21
86.853314926
  0
LINE
  5
2FC
100
AcDbEntity
  8
0
100
AcDbLine
 62
1
  6
CONTINUOUS
 10
517.4311710643
 20
95.253314926
 11
530.1651456606
 21
95.253314926
  0
LINE
  5
2FD
100
AcDbEntity
  8
0
100
AcDbLine
 62
1
  6
CONTINUOUS
 10
493.8651456606
 20
95.753314926
 11
494.8651456606
 21
95.753314926
  0
LINE
  5
2FE
100
AcDbEntity
  8
0
100
AcDbLine
 62
1
  6
CONTINUOUS
 10
515.5651456606
 20
96.253314926
 11
516.4496756067
 21
96.253314926
  0
LINE
  5
2FF
100
AcDbEntity
  8
0
100
AcDbLine
 62
1
  6
CONTINUOUS
 10
187.8336220947
 20
199.0410780242
 11
187.42127592
 21
199.3238580239
  0
LINE
  5
300
100
AcDbEntity
  8
0
100
AcDbLine
 62
1
  6
CONTINUOUS
 10
234.8775478133
 20
184.8238580239
 11
235.8775478133
 21
182.6793511034
  0
LINE
  5
301
100
AcDbEntity
  8
______
100
AcDbLine
 62
5
  6
ACAD_ISO04W100
 10
188.0618662977
 20
286.1062279178
 11
192.5261392559
 21
273.8407387706
  0
LINE
  5
302
100
AcDbEntity
  8
0
100
AcDbLine
 62
1
  6
CONTINUOUS
 10
220.4620326503
 20
446.8783930211
 11
220.4620326503
 21
447.9651160947
  0
LINE
  5
303
100
AcDbEntity
  8
0
100
AcDbLine
 62
1
  6
CONTINUOUS
 10
222.2120326503
 20
323.8238580239
 11
222.2120326503
 21
335.6959396857
  0
LINE
  5
304
100
AcDbEntity
  8
0
100
AcDbLine
 62
1
  6
CONTINUOUS
 10
222.2120326503
 20
364.9517763621
 11
222.2120326503
 21
375.698440976
  0
LINE
  5
305
100
AcDbEntity
  8
0
100
AcDbLine
 62
1
  6
CONTINUOUS
 10
222.2120326503
 20
400.9492750717
 11
222.2120326503
 21
411.9741833635
  0
LINE
  5
306
100
AcDbEntity
  8
0
100
AcDbLine
 62
1
  6
CONTINUOUS
 10
222.2775478133
 20
230.8238580239
 11
222.2775478133
 21
204.8238580239
  0
LINE
  5
307
100
AcDbEntity
  8
0
100
AcDbLine
 62
1
  6
CONTINUOUS
 10
222.2775478133
 20
161.7781199996
 11
222.2775478133
 21
156.3238580239
  0
LINE
  5
308
100
AcDbEntity
  8
0
100
AcDbLine
 62
1
  6
CONTINUOUS
 10
222.4620326503
 20
447.5946935425
 11
222.4620326503
 21
451.3238580239
  0
LINE
  5
309
100
AcDbEntity
  8
0
100
AcDbLine
 62
1
  6
CONTINUOUS
 10
222.5275478134
 20
368.3694594629
 11
222.5275478133
 21
370.1559063542
  0
LINE
  5
30A
100
AcDbEntity
  8
0
100
AcDbLine
 62
1
  6
CONTINUOUS
 10
222.9620326503
 20
443.8783930211
 11
222.9620326503
 21
446.3783930211
  0
LINE
  5
30B
100
AcDbEntity
  8
0
100
AcDbLine
 62
1
  6
CONTINUOUS
 10
223.0024849988
 20
156.9238580239
 11
223.0024849988
 21
158.3238580239
  0
LINE
  5
30C
100
AcDbEntity
  8
0
100
AcDbLine
 62
1
  6
CONTINUOUS
 10
223.0275478133
 20
158.3238580239
 11
223.0275478133
 21
161.7781199996
  0
LINE
  5
30D
100
AcDbEntity
  8
0
100
AcDbLine
 62
1
  6
CONTINUOUS
 10
223.0275478133
 20
204.8238580239
 11
223.0275478133
 21
230.8238580239
  0
LINE
  5
30E
100
AcDbEntity
  8
0
100
AcDbLine
 62
1
  6
CONTINUOUS
 10
223.4620326503
 20
309.9712784014
 11
223.4620326503
 21
315.8234444898
  0
LINE
  5
30F
100
AcDbEntity
  8
0
100
AcDbLine
 62
1
  6
CONTINUOUS
 10
223.4620326503
 20
319.8242715581
 11
223.4620326503
 21
323.5238580239
  0
LINE
  5
310
100
AcDbEntity
  8
0
100
AcDbLine
 62
1
  6
CONTINUOUS
 10
223.4620326503
 20
432.2926065834
 11
223.4620326503
 21
435.6783930211
  0
LINE
  5
311
100
AcDbEntity
  8
0
100
AcDbLine
 62
1
  6
CONTINUOUS
 10
223.4620326503
 20
440.0783930211
 11
223.4620326503
 21
443.6783930211
  0
LINE
  5
312
100
AcDbEntity
  8
0
100
AcDbLine
 62
1
  6
CONTINUOUS
 10
224.3406344918
 20
171.7781199996
 11
224.3406344918
 21
180.3238580239
  0
LINE
  5
313
100
AcDbEntity
  8
0
100
AcDbLine
 62
1
  6
CONTINUOUS
 10
224.4275478133
 20
161.7781199996
 11
224.4275478133
 21
170.7781199996
  0
LINE
  5
314
100
AcDbEntity
  8
0
100
AcDbLine
 62
1
  6
CONTINUOUS
 10
224.5275478133
 20
170.8781154018
 11
224.5275478133
 21
180.3238580239
  0
LINE
  5
315
100
AcDbEntity
  8
0
100
AcDbLine
 62
1
  6
CONTINUOUS
 10
226.4620326503
 20
231.0238580239
 11
226.4620326503
 21
234.8238580239
  0
LINE
  5
316
100
AcDbEntity
  8
0
100
AcDbLine
 62
1
  6
CONTINUOUS
 10
230.2120326503
 20
241.1238580239
 11
230.2120326503
 21
270.0482461031
  0
LINE
  5
317
100
AcDbEntity
  8
0
100
AcDbLine
 62
1
  6
CONTINUOUS
 10
231.8850408077
 20
199.3238580239
 11
231.8850408077
 21
192.8238580239
  0
LINE
  5
318
100
AcDbEntity
  8
0
100
AcDbLine
 62
1
  6
CONTINUOUS
 10
232.0275478133
 20
192.8238580239
 11
232.0275478133
 21
186.8238580239
  0
LINE
  5
319
100
AcDbEntity
  8
0
100
AcDbLine
 62
1
  6
CONTINUOUS
 10
234.8275478133
 20
186.8238580239
 11
234.8275478133
 21
184.8238580239
  0
LINE
  5
31A
100
AcDbEntity
  8
0
100
AcDbLine
 62
1
  6
CONTINUOUS
 10
236.4620326503
 20
235.0238580239
 11
236.4620326503
 21
239.3238580239
  0
LINE
  5
31B
100
AcDbEntity
  8
0
100
AcDbLine
 62
1
  6
CONTINUOUS
 10
239.0275478133
 20
204.8238580239
 11
239.0275478133
 21
199.3238580239
  0
LINE
  5
31C
100
AcDbEntity
  8
______
100
AcDbLine
 62
5
  6
ACAD_ISO04W100
 10
196.5687042507
 20
304.547068455
 11
189.0820055158
 21
293.8549545798
  0
LINE
  5
31D
100
AcDbEntity
  8
______
100
AcDbLine
 62
6
  6
CENTER
 10
430.3651456606
 20
108.353314926
 11
666.3149223506
 21
171.5758670444
  0
LINE
  5
31E
100
AcDbEntity
  8
0
100
AcDbLine
 62
1
  6
CONTINUOUS
 10
461.3651456606
 20
97.853314926
 11
459.9293041698
 21
97.853314926
  0
LINE
  5
31F
100
AcDbEntity
  8
0
100
AcDbLine
 62
1
  6
CONTINUOUS
 10
447.1651456606
 20
97.853314926
 11
444.4647910462
 21
97.853314926
  0
LINE
  5
320
100
AcDbEntity
  8
0
100
AcDbLine
 62
1
  6
CONTINUOUS
 10
449.279475515
 20
98.853314926
 11
447.5651456606
 21
98.853314926
  0
LINE
  5
321
100
AcDbEntity
  8
0
100
AcDbLine
 62
1
  6
CONTINUOUS
 10
462.3651456606
 20
99.353314926
 11
666.5498238652
 21
99.353314926
  0
LINE
  5
322
100
AcDbEntity
  8
0
100
AcDbLine
 62
1
  6
CONTINUOUS
 10
413.9822277275
 20
101.853314926
 11
412.8170688513
 21
101.853314926
  0
LINE
  5
323
100
AcDbEntity
  8
0
100
AcDbLine
 62
1
  6
CONTINUOUS
 10
412.4170688513
 20
102.353314926
 11
411.2330615685
 21
102.353314926
  0
LINE
  5
324
100
AcDbEntity
  8
0
100
AcDbLine
 62
1
  6
CONTINUOUS
 10
404.0010761341
 20
102.353314926
 11
403.3170688513
 21
102.353314926
  0
LINE
  5
325
100
AcDbEntity
  8
______
100
AcDbLine
 62
6
  6
CENTER
 10
384.1668307395
 20
108.3533149259
 11
694.0806689837
 21
108.3533149259
  0
LINE
  5
326
100
AcDbEntity
  8
0
100
AcDbLine
 62
1
  6
CONTINUOUS
 10
412.4170688513
 20
114.353314926
 11
411.2330615685
 21
114.353314926
  0
LINE
  5
327
100
AcDbEntity
  8
0
100
AcDbLine
 62
1
  6
CONTINUOUS
 10
404.0010761341
 20
114.353314926
 11
403.3170688513
 21
114.353314926
  0
LINE
  5
328
100
AcDbEntity
  8
0
100
AcDbLine
 62
1
  6
CONTINUOUS
 10
413.9822277275
 20
114.853314926
 11
412.8170688513
 21
114.853314926
  0
LINE
  5
329
100
AcDbEntity
  8
0
100
AcDbLine
 62
1
  6
CONTINUOUS
 10
462.3651456606
 20
117.353314926
 11
666.5498238652
 21
117.353314926
  0
LINE
  5
32A
100
AcDbEntity
  8
0
100
AcDbLine
 62
1
  6
CONTINUOUS
 10
449.279475515
 20
117.853314926
 11
447.5651456606
 21
117.853314926
  0
LINE
  5
32B
100
AcDbEntity
  8
0
100
AcDbLine
 62
1
  6
CONTINUOUS
 10
461.3651456606
 20
118.853314926
 11
459.9293041698
 21
118.853314926
  0
LINE
  5
32C
100
AcDbEntity
  8
0
100
AcDbLine
 62
1
  6
CONTINUOUS
 10
447.1651456606
 20
118.853314926
 11
444.4647910462
 21
118.853314926
  0
LINE
  5
32D
100
AcDbEntity
  8
0
100
AcDbLine
 62
1
  6
CONTINUOUS
 10
515.5651456606
 20
120.253314926
 11
516.4496756067
 21
120.253314926
  0
LINE
  5
32E
100
AcDbEntity
  8
0
100
AcDbLine
 62
1
  6
CONTINUOUS
 10
493.8651456606
 20
120.753314926
 11
494.8651456606
 21
120.753314926
  0
LINE
  5
32F
100
AcDbEntity
  8
0
100
AcDbLine
 62
1
  6
CONTINUOUS
 10
517.4311710643
 20
121.253314926
 11
530.1651456606
 21
121.253314926
  0
LINE
  5
330
100
AcDbEntity
  8
______
100
AcDbLine
 62
6
  6
CENTER
 10
430.3651456606
 20
108.353314926
 11
666.3149223506
 21
45.1307628076
  0
LINE
  5
331
100
AcDbEntity
  8
0
100
AcDbLine
 62
1
  6
CONTINUOUS
 10
403.0065115704
 20
103.1585935664
 11
400.1698552558
 21
104.5769217237
  0
LINE
  5
332
100
AcDbEntity
  8
______
100
AcDbLine
 62
5
  6
ACAD_ISO04W100
 10
191.8548618507
 20
288.2961149215
 11
192.9205147419
 21
287.0261192599
  0
LINE
  5
333
100
AcDbEntity
  8
0
100
AcDbLine
 62
1
  6
CONTINUOUS
 10
199.1805664704
 20
422.0402190892
 11
197.4912067813
 21
430.7283546333
  0
LINE
  5
334
100
AcDbEntity
  8
0
100
AcDbLine
 62
1
  6
CONTINUOUS
 10
223.4619243617
 20
315.8245207609
 11
223.4617714723
 21
315.8255617666
  0
LINE
  5
335
100
AcDbEntity
  8
0
100
AcDbLine
 62
1
  6
CONTINUOUS
 10
403.0065115704
 20
468.5731143806
 11
400.1698552558
 21
467.1547862233
  0
LINE
  5
336
100
AcDbEntity
  8
0
100
AcDbLine
 62
1
  6
CONTINUOUS
 10
395.9651456606
 20
129.853314926
 11
395.0918614784
 21
129.853314926
  0
LINE
  5
337
100
AcDbEntity
  8
0
100
AcDbLine
 62
1
  6
CONTINUOUS
 10
474.3651456606
 20
132.853314926
 11
408.3651456606
 21
132.853314926
  0
LINE
  5
338
100
AcDbEntity
  8
0
100
AcDbLine
 62
1
  6
CONTINUOUS
 10
480.3651456606
 20
132.853314926
 11
485.0639552406
 21
132.853314926
  0
LINE
  5
339
100
AcDbEntity
  8
0
100
AcDbLine
 62
1
  6
CONTINUOUS
 10
490.8651456606
 20
134.753314926
 11
503.567820834
 21
134.0875959292
  0
LINE
  5
33A
100
AcDbEntity
  8
______
100
AcDbLine
 62
5
  6
ACAD_ISO04W100
 10
136.3315943059
 20
323.4986861759
 11
134.8682226829
 21
324.5233500176
  0
LINE
  5
33B
100
AcDbEntity
  8
______
100
AcDbLine
 62
5
  6
ACAD_ISO04W100
 10
192.1789734164
 20
290.7579866792
 11
193.5370141302
 21
291.7088970243
  0
LINE
  5
33C
100
AcDbEntity
  8
0
100
AcDbLine
 62
1
  6
CONTINUOUS
 10
434.7648861854
 20
156.3238580239
 11
430.8651456606
 21
156.3238580239
  0
LINE
  5
33D
100
AcDbEntity
  8
0
100
AcDbLine
 62
1
  6
CONTINUOUS
 10
429.8651456606
 20
156.3238580239
 11
425.9654051357
 21
156.3238580239
  0
LINE
  5
33E
100
AcDbEntity
  8
0
100
AcDbLine
 62
1
  6
CONTINUOUS
 10
222.3990464122
 20
156.3238580239
 11
213.6560492144
 21
156.3238580239
  0
LINE
  5
33F
100
AcDbEntity
  8
0
100
AcDbLine
 62
1
  6
CONTINUOUS
 10
213.0526106278
 20
156.9238580239
 11
223.0024849988
 21
156.9238580239
  0
LINE
  5
340
100
AcDbEntity
  8
0
100
AcDbLine
 62
1
  6
CONTINUOUS
 10
425.3651456606
 20
156.9238580239
 11
429.8651456606
 21
156.9238580239
  0
LINE
  5
341
100
AcDbEntity
  8
0
100
AcDbLine
 62
1
  6
CONTINUOUS
 10
430.8651456606
 20
156.9238580239
 11
435.3651456606
 21
156.9238580239
  0
LINE
  5
342
100
AcDbEntity
  8
0
100
AcDbLine
 62
1
  6
CONTINUOUS
 10
213.0275478133
 20
158.3238580239
 11
213.0526106278
 21
158.3238580239
  0
LINE
  5
343
100
AcDbEntity
  8
0
100
AcDbLine
 62
1
  6
CONTINUOUS
 10
223.0024849988
 20
158.3238580239
 11
223.0275478133
 21
158.3238580239
  0
LINE
  5
344
100
AcDbEntity
  8
0
100
AcDbLine
 62
1
  6
CONTINUOUS
 10
429.8651456606
 20
158.3238580239
 11
430.8651456606
 21
158.3238580239
  0
LINE
  5
345
100
AcDbEntity
  8
0
100
AcDbLine
 62
1
  6
CONTINUOUS
 10
224.4274728233
 20
161.7781199996
 11
211.6276228033
 21
161.7781199996
  0
LINE
  5
346
100
AcDbEntity
  8
0
100
AcDbLine
 62
1
  6
CONTINUOUS
 10
423.9651456606
 20
161.7781199996
 11
436.7651456606
 21
161.7781199996
  0
LINE
  5
347
100
AcDbEntity
  8
0
100
AcDbLine
 62
1
  6
CONTINUOUS
 10
224.4275478133
 20
170.7781199996
 11
211.6275478133
 21
170.7781199996
  0
LINE
  5
348
100
AcDbEntity
  8
0
100
AcDbLine
 62
1
  6
CONTINUOUS
 10
423.9651456606
 20
170.7781199996
 11
436.7651456606
 21
170.7781199996
  0
LINE
  5
349
100
AcDbEntity
  8
0
100
AcDbLine
 62
1
  6
CONTINUOUS
 10
224.5275478133
 20
171.7781199996
 11
224.3406344918
 21
171.7781199996
  0
LINE
  5
34A
100
AcDbEntity
  8
0
100
AcDbLine
 62
1
  6
CONTINUOUS
 10
218.2144611348
 20
171.7781199996
 11
217.8406344918
 21
171.7781199996
  0
LINE
  5
34B
100
AcDbEntity
  8
0
100
AcDbLine
 62
1
  6
CONTINUOUS
 10
211.5275478133
 20
171.7781199996
 11
211.7144611348
 21
171.7781199996
  0
LINE
  5
34C
100
AcDbEntity
  8
0
100
AcDbLine
 62
1
  6
CONTINUOUS
 10
422.9651456606
 20
171.7781199996
 11
422.9675066176
 21
171.7781199996
  0
LINE
  5
34D
100
AcDbEntity
  8
0
100
AcDbLine
 62
1
  6
CONTINUOUS
 10
426.5044544543
 20
171.7781199996
 11
426.8281978238
 21
171.7781199996
  0
LINE
  5
34E
100
AcDbEntity
  8
0
100
AcDbLine
 62
1
  6
CONTINUOUS
 10
433.9020934973
 20
171.7781199996
 11
434.2258368668
 21
171.7781199996
  0
LINE
  5
34F
100
AcDbEntity
  8
0
100
AcDbLine
 62
1
  6
CONTINUOUS
 10
437.7627847035
 20
171.7781199996
 11
437.7651456606
 21
171.7781199996
  0
LINE
  5
350
100
AcDbEntity
  8
0
100
AcDbLine
 62
1
  6
CONTINUOUS
 10
455.687564419
 20
180.3238580239
 11
448.7729491912
 21
180.3238580239
  0
LINE
  5
351
100
AcDbEntity
  8
0
100
AcDbLine
 62
1
  6
CONTINUOUS
 10
411.9573421299
 20
180.3238580239
 11
405.0427183835
 21
180.3238580239
  0
LINE
  5
352
100
AcDbEntity
  8
0
100
AcDbLine
 62
1
  6
CONTINUOUS
 10
231.1719284271
 20
180.3238580239
 11
188.4374532619
 21
180.3238580239
  0
LINE
  5
353
100
AcDbEntity
  8
0
100
AcDbLine
 62
1
  6
CONTINUOUS
 10
411.9760059403
 20
180.3238580239
 11
422.9651456606
 21
180.3238580239
  0
LINE
  5
354
100
AcDbEntity
  8
0
100
AcDbLine
 62
1
  6
CONTINUOUS
 10
437.7651456606
 20
180.3238580239
 11
448.7573947761
 21
180.3238580239
  0
LINE
  5
355
100
AcDbEntity
  8
0
100
AcDbLine
 62
1
  6
CONTINUOUS
 10
422.9651456606
 20
180.7781199996
 11
422.9675066176
 21
180.7781199996
  0
LINE
  5
356
100
AcDbEntity
  8
0
100
AcDbLine
 62
1
  6
CONTINUOUS
 10
426.5044544543
 20
180.7781199996
 11
426.8281978238
 21
180.7781199996
  0
LINE
  5
357
100
AcDbEntity
  8
0
100
AcDbLine
 62
1
  6
CONTINUOUS
 10
433.9020934973
 20
180.7781199996
 11
434.2258368668
 21
180.7781199996
  0
LINE
  5
358
100
AcDbEntity
  8
0
100
AcDbLine
 62
1
  6
CONTINUOUS
 10
437.7627847035
 20
180.7781199996
 11
437.7651456606
 21
180.7781199996
  0
LINE
  5
359
100
AcDbEntity
  8
0
100
AcDbLine
 62
1
  6
CONTINUOUS
 10
447.3585429216
 20
181.1947346602
 11
437.3485309999
 21
181.1947346602
  0
LINE
  5
35A
100
AcDbEntity
  8
0
100
AcDbLine
 62
1
  6
CONTINUOUS
 10
423.3817603212
 20
181.1947346602
 11
413.3717483995
 21
181.1947346602
  0
LINE
  5
35B
100
AcDbEntity
  8
0
100
AcDbLine
 62
1
  6
CONTINUOUS
 10
402.6149056894
 20
181.1947346602
 11
409.8653573132
 21
181.1947346602
  0
LINE
  5
35C
100
AcDbEntity
  8
0
100
AcDbLine
 62
1
  6
CONTINUOUS
 10
450.864934008
 20
181.1947346602
 11
458.1153856317
 21
181.1947346602
  0
LINE
  5
35D
100
AcDbEntity
  8
0
100
AcDbLine
 62
1
  6
CONTINUOUS
 10
447.0904617011
 20
181.7781199996
 11
413.63982962
 21
181.7781199996
  0
LINE
  5
35E
100
AcDbEntity
  8
0
100
AcDbLine
 62
1
  6
CONTINUOUS
 10
459.1432817941
 20
181.8238580239
 11
451.6735352782
 21
181.8238580239
  0
LINE
  5
35F
100
AcDbEntity
  8
0
100
AcDbLine
 62
1
  6
CONTINUOUS
 10
409.0567560429
 20
181.8238580239
 11
401.5870095271
 21
181.8238580239
  0
LINE
  5
360
100
AcDbEntity
  8
0
100
AcDbLine
 62
1
  6
CONTINUOUS
 10
234.6555267236
 20
181.8238580239
 11
186.8956373503
 21
181.8238580239
  0
LINE
  5
361
100
AcDbEntity
  8
0
100
AcDbLine
 62
1
  6
CONTINUOUS
 10
186.8775478133
 20
182.6793511034
 11
235.8775478133
 21
182.6793511034
  0
LINE
  5
362
100
AcDbEntity
  8
0
100
AcDbLine
 62
1
  6
CONTINUOUS
 10
400.3651456606
 20
182.6793511034
 11
407.1487721281
 21
182.6793511034
  0
LINE
  5
363
100
AcDbEntity
  8
0
100
AcDbLine
 62
1
  6
CONTINUOUS
 10
453.581519193
 20
182.6793511034
 11
460.3651456606
 21
182.6793511034
  0
LINE
  5
364
100
AcDbEntity
  8
0
100
AcDbLine
 62
1
  6
CONTINUOUS
 10
449.2681493811
 20
182.7238580239
 11
448.4335671516
 21
182.7238580239
  0
LINE
  5
365
100
AcDbEntity
  8
0
100
AcDbLine
 62
1
  6
CONTINUOUS
 10
412.2967241695
 20
182.7238580239
 11
411.46214194
 21
182.7238580239
  0
LINE
  5
366
100
AcDbEntity
  8
0
100
AcDbLine
 62
1
  6
CONTINUOUS
 10
410.0267003197
 20
183.8253931033
 11
411.8958618325
 21
183.8253931033
  0
LINE
  5
367
100
AcDbEntity
  8
0
100
AcDbLine
 62
1
  6
CONTINUOUS
 10
448.8344294886
 20
183.8253931033
 11
450.7035227426
 21
183.8253931033
  0
LINE
  5
368
100
AcDbEntity
  8
0
100
AcDbLine
 62
1
  6
CONTINUOUS
 10
460.364932288
 20
184.8238580239
 11
450.2956311245
 21
184.8238580239
  0
LINE
  5
369
100
AcDbEntity
  8
0
100
AcDbLine
 62
1
  6
CONTINUOUS
 10
447.7228243547
 20
184.8238580239
 11
446.8566447231
 21
184.8238580239
  0
LINE
  5
36A
100
AcDbEntity
  8
0
100
AcDbLine
 62
1
  6
CONTINUOUS
 10
446.8563551535
 20
184.8238580239
 11
413.8739008402
 21
184.8238580239
  0
LINE
  5
36B
100
AcDbEntity
  8
0
100
AcDbLine
 62
1
  6
CONTINUOUS
 10
413.8736465981
 20
184.8238580239
 11
413.0074669664
 21
184.8238580239
  0
LINE
  5
36C
100
AcDbEntity
  8
0
100
AcDbLine
 62
1
  6
CONTINUOUS
 10
410.4346601966
 20
184.8238580239
 11
400.3653590331
 21
184.8238580239
  0
LINE
  5
36D
100
AcDbEntity
  8
0
100
AcDbLine
 62
1
  6
CONTINUOUS
 10
234.8775478133
 20
184.8238580239
 11
185.7837363582
 21
184.8238580239
  0
LINE
  5
36E
100
AcDbEntity
  8
______
100
AcDbLine
 62
5
  6
ACAD_ISO04W100
 10
184.5095165883
 20
294.6472401736
 11
184.263770975
 21
294.8193131045
  0
LINE
  5
36F
100
AcDbEntity
  8
______
100
AcDbLine
 62
5
  6
ACAD_ISO04W100
 10
194.1105905666
 20
291.7088970243
 11
197.2716388063
 21
289.4955072182
  0
LINE
  5
370
100
AcDbEntity
  8
______
100
AcDbLine
 62
6
  6
CENTER
 10
130.5697995173
 20
342.7928206801
 11
196.9211151047
 21
296.3331293357
  0
LINE
  5
371
100
AcDbEntity
  8
______
100
AcDbLine
 62
5
  6
ACAD_ISO04W100
 10
200.3052160792
 20
300.5557391026
 11
203.4662643189
 21
298.3423492965
  0
LINE
  5
372
100
AcDbEntity
  8
0
100
AcDbLine
 62
1
  6
CONTINUOUS
 10
194.2603160062
 20
308.5728249265
 11
194.0145703929
 21
308.7448978574
  0
LINE
  5
373
100
AcDbEntity
  8
______
100
AcDbLine
 62
5
  6
ACAD_ISO04W100
 10
150.6710052147
 20
343.9774872832
 11
149.2076335917
 21
345.0021511248
  0
LINE
  5
374
100
AcDbEntity
  8
0
100
AcDbLine
 62
1
  6
CONTINUOUS
 10
460.364932288
 20
186.8238580239
 11
400.3653590331
 21
186.8238580239
  0
LINE
  5
375
100
AcDbEntity
  8
0
100
AcDbLine
 62
1
  6
CONTINUOUS
 10
234.8272324618
 20
186.8238580239
 11
185.7838615042
 21
186.8238580239
  0
LINE
  5
376
100
AcDbEntity
  8
0
100
AcDbLine
 62
1
  6
CONTINUOUS
 10
450.533785309
 20
192.8238580239
 11
448.0286039563
 21
192.8238580239
  0
LINE
  5
377
100
AcDbEntity
  8
0
100
AcDbLine
 62
1
  6
CONTINUOUS
 10
412.7016873648
 20
192.8238580239
 11
410.1965060121
 21
192.8238580239
  0
LINE
  5
378
100
AcDbEntity
  8
0
100
AcDbLine
 62
1
  6
CONTINUOUS
 10
232.0275478133
 20
192.8238580239
 11
231.8850408077
 21
192.8238580239
  0
LINE
  5
379
100
AcDbEntity
  8
0
100
AcDbLine
 62
1
  6
CONTINUOUS
 10
201.2397167537
 20
192.8238580239
 11
196.9125853263
 21
192.8238580239
  0
LINE
  5
37A
100
AcDbEntity
  8
0
100
AcDbLine
 62
1
  6
CONTINUOUS
 10
181.0275478133
 20
199.3238580239
 11
239.027292924
 21
199.3238580239
  0
LINE
  5
37B
100
AcDbEntity
  8
0
100
AcDbLine
 62
1
  6
CONTINUOUS
 10
385.3651456606
 20
199.3238580239
 11
475.3651456606
 21
199.3238580239
  0
LINE
  5
37C
100
AcDbEntity
  8
0
100
AcDbLine
 62
1
  6
CONTINUOUS
 10
475.3651456606
 20
204.8238580239
 11
385.3651456606
 21
204.8238580239
  0
LINE
  5
37D
100
AcDbEntity
  8
0
100
AcDbLine
 62
1
  6
CONTINUOUS
 10
239.027292924
 20
204.8238580239
 11
181.0275478133
 21
204.8238580239
  0
LINE
  5
37E
100
AcDbEntity
  8
0
100
AcDbLine
 62
1
  6
CONTINUOUS
 10
410.1965060121
 20
192.8238580239
 11
393.8024261286
 21
199.3238580239
  0
LINE
  5
37F
100
AcDbEntity
  8
0
100
AcDbLine
 62
1
  6
CONTINUOUS
 10
396.3076074813
 20
199.3238580239
 11
412.7016873648
 21
192.8238580239
  0
LINE
  5
380
100
AcDbEntity
  8
0
100
AcDbLine
 62
1
  6
CONTINUOUS
 10
400.3651456606
 20
182.6793511034
 11
401.5869163968
 21
181.8238580239
  0
LINE
  5
381
100
AcDbEntity
  8
0
100
AcDbLine
 62
1
  6
CONTINUOUS
 10
401.8651456606
 20
181.8238580239
 11
402.6149056894
 21
181.1947346602
  0
LINE
  5
382
100
AcDbEntity
  8
0
100
AcDbLine
 62
1
  6
CONTINUOUS
 10
425.9651456606
 20
156.3238580239
 11
425.3651456606
 21
156.9238580239
  0
LINE
  5
383
100
AcDbEntity
  8
0
100
AcDbLine
 62
1
  6
CONTINUOUS
 10
423.9651456606
 20
170.7781199996
 11
422.9651456606
 21
171.7781199996
  0
LINE
  5
384
100
AcDbEntity
  8
0
100
AcDbLine
 62
1
  6
CONTINUOUS
 10
232.0275478133
 20
192.8238580239
 11
237.9837004444
 21
199.3238580239
  0
LINE
  5
385
100
AcDbEntity
  8
0
100
AcDbLine
 62
1
  6
CONTINUOUS
 10
231.8850408077
 20
192.8238580239
 11
237.8716938755
 21
199.3238580239
  0
LINE
  5
386
100
AcDbEntity
  8
0
100
AcDbLine
 62
1
  6
CONTINUOUS
 10
589.7069580291
 20
476.329142521
 11
609.7632955032
 21
488.8617331201
  0
LINE
  5
387
100
AcDbEntity
  8
0
100
AcDbLine
 62
1
  6
CONTINUOUS
 10
217.3144180479
 20
303.8426709554
 11
215.7565377417
 21
303.2756488955
  0
LINE
  5
388
100
AcDbEntity
  8
______
100
AcDbLine
 62
5
  6
ACAD_ISO04W100
 10
129.4365194576
 20
271.1253930396
 11
127.7578084965
 21
270.5143922178
  0
LINE
  5
389
100
AcDbEntity
  8
______
100
AcDbLine
 62
5
  6
ACAD_ISO04W100
 10
193.4745470351
 20
286.8776667544
 11
197.100752604
 21
288.1974976448
  0
LINE
  5
38A
100
AcDbEntity
  8
______
100
AcDbLine
 62
6
  6
CENTER
 10
118.8773635971
 20
253.9799524515
 11
194.9924658807
 21
281.6835840609
  0
LINE
  5
38B
100
AcDbEntity
  8
______
100
AcDbLine
 62
5
  6
ACAD_ISO04W100
 10
197.168364583
 20
276.7289864499
 11
200.7945701519
 21
278.0488173403
  0
LINE
  5
38C
100
AcDbEntity
  8
0
100
AcDbLine
 62
1
  6
CONTINUOUS
 10
193.6622237598
 20
230.8238580239
 11
226.2618415408
 21
230.8238580239
  0
LINE
  5
38D
100
AcDbEntity
  8
0
100
AcDbLine
 62
1
  6
CONTINUOUS
 10
414.0651456606
 20
230.8238580239
 11
446.6651456606
 21
230.8238580239
  0
LINE
  5
38E
100
AcDbEntity
  8
0
100
AcDbLine
 62
1
  6
CONTINUOUS
 10
413.8651456606
 20
231.0238580239
 11
446.8651456606
 21
231.0238580239
  0
LINE
  5
38F
100
AcDbEntity
  8
0
100
AcDbLine
 62
1
  6
CONTINUOUS
 10
183.6622469798
 20
234.8238580239
 11
236.2618183208
 21
234.8238580239
  0
LINE
  5
390
100
AcDbEntity
  8
0
100
AcDbLine
 62
1
  6
CONTINUOUS
 10
404.0651456606
 20
234.8238580239
 11
456.6651456606
 21
234.8238580239
  0
LINE
  5
391
100
AcDbEntity
  8
0
100
AcDbLine
 62
1
  6
CONTINUOUS
 10
403.8651456606
 20
235.0238580239
 11
456.8651456606
 21
235.0238580239
  0
LINE
  5
392
100
AcDbEntity
  8
0
100
AcDbLine
 62
1
  6
CONTINUOUS
 10
403.8651456606
 20
239.3238580239
 11
456.8651456606
 21
239.3238580239
  0
LINE
  5
393
100
AcDbEntity
  8
0
100
AcDbLine
 62
1
  6
CONTINUOUS
 10
184.9622363687
 20
240.8238580239
 11
234.9618289319
 21
240.8238580239
  0
LINE
  5
394
100
AcDbEntity
  8
0
100
AcDbLine
 62
1
  6
CONTINUOUS
 10
405.3651456606
 20
240.8238580239
 11
455.3651456606
 21
240.8238580239
  0
LINE
  5
395
100
AcDbEntity
  8
0
100
AcDbLine
 62
1
  6
CONTINUOUS
 10
410.1151456606
 20
241.1238580239
 11
450.6151456606
 21
241.1238580239
  0
LINE
  5
396
100
AcDbEntity
  8
0
100
AcDbLine
 62
1
  6
CONTINUOUS
 10
202.7406775789
 20
303.8426709554
 11
204.298557885
 21
303.2756488954
  0
LINE
  5
397
100
AcDbEntity
  8
0
100
AcDbLine
 62
1
  6
CONTINUOUS
 10
436.7651456605
 20
181.7781199996
 11
437.7651456605
 21
180.7781199996
  0
LINE
  5
398
100
AcDbEntity
  8
0
100
AcDbLine
 62
1
  6
CONTINUOUS
 10
197.353952477
 20
430.9864731943
 11
196.7549258691
 21
431.5854998022
  0
LINE
  5
399
100
AcDbEntity
  8
0
100
AcDbLine
 62
1
  6
CONTINUOUS
 10
385.3651456606
 20
204.8238580239
 11
385.3651456606
 21
199.3238580239
  0
LINE
  5
39A
100
AcDbEntity
  8
0
100
AcDbLine
 62
1
  6
CONTINUOUS
 10
387.5651456606
 20
102.353314926
 11
387.5651456606
 21
114.353314926
  0
LINE
  5
39B
100
AcDbEntity
  8
0
100
AcDbLine
 62
1
  6
CONTINUOUS
 10
387.5651456606
 20
281.3238580239
 11
387.5651456606
 21
293.3238580239
  0
LINE
  5
39C
100
AcDbEntity
  8
0
100
AcDbLine
 62
1
  6
CONTINUOUS
 10
392.0651456606
 20
97.2422921787
 11
392.0651456606
 21
119.4643376732
  0
LINE
  5
39D
100
AcDbEntity
  8
0
100
AcDbLine
 62
1
  6
CONTINUOUS
 10
392.0651456606
 20
276.2126406447
 11
392.0651456606
 21
298.4350754031
  0
LINE
  5
39E
100
AcDbEntity
  8
0
100
AcDbLine
 62
1
  6
CONTINUOUS
 10
392.1356798999
 20
275.9565954135
 11
392.1356798999
 21
298.6911206344
  0
LINE
  5
39F
100
AcDbEntity
  8
0
100
AcDbLine
 62
1
  6
CONTINUOUS
 10
392.3651456606
 20
204.8238580239
 11
392.3651456606
 21
199.3238580239
  0
LINE
  5
3A0
100
AcDbEntity
  8
0
100
AcDbLine
 62
1
  6
CONTINUOUS
 10
394.5918614784
 20
87.353314926
 11
394.5918614784
 21
129.353314926
  0
LINE
  5
3A1
100
AcDbEntity
  8
0
100
AcDbLine
 62
1
  6
CONTINUOUS
 10
394.5918614784
 20
266.3238580239
 11
394.5918614784
 21
308.3238580239
  0
LINE
  5
3A2
100
AcDbEntity
  8
0
100
AcDbLine
 62
1
  6
CONTINUOUS
 10
395.0918614784
 20
265.8238580239
 11
395.0918614784
 21
308.8238580239
  0
LINE
  5
3A3
100
AcDbEntity
  8
0
100
AcDbLine
 62
1
  6
CONTINUOUS
 10
395.9651456606
 20
129.853314926
 11
395.9651456606
 21
86.853314926
  0
LINE
  5
3A4
100
AcDbEntity
  8
0
100
AcDbLine
 62
1
  6
CONTINUOUS
 10
395.9651456606
 20
265.8238580239
 11
395.9651456606
 21
308.8238580239
  0
LINE
  5
3A5
100
AcDbEntity
  8
0
100
AcDbLine
 62
1
  6
CONTINUOUS
 10
224.4275478133
 20
170.7781199996
 11
224.5275478133
 21
170.8781199996
  0
LINE
  5
3A6
100
AcDbEntity
  8
0
100
AcDbLine
 62
1
  6
CONTINUOUS
 10
222.3990464122
 20
156.3238580239
 11
223.0024849988
 21
156.9238580239
  0
LINE
  5
3A7
100
AcDbEntity
  8
0
100
AcDbLine
 62
1
  6
CONTINUOUS
 10
234.3775478133
 20
181.8238580239
 11
233.6277877844
 21
181.1947346602
  0
LINE
  5
3A8
100
AcDbEntity
  8
0
100
AcDbLine
 62
1
  6
CONTINUOUS
 10
599.2455047853
 20
461.0642767902
 11
619.3018422594
 21
473.5968673893
  0
LINE
  5
3A9
100
AcDbEntity
  8
______
100
AcDbLine
 62
5
  6
ACAD_ISO04W100
 10
137.9870230408
 20
247.6330775199
 11
136.3083120796
 21
247.0220766982
  0
LINE
  5
3AA
100
AcDbEntity
  8
0
100
AcDbLine
 62
1
  6
CONTINUOUS
 10
490.8651456606
 20
260.6738580239
 11
503.567820834
 21
261.3395770207
  0
LINE
  5
3AB
100
AcDbEntity
  8
0
100
AcDbLine
 62
1
  6
CONTINUOUS
 10
452.6151456606
 20
262.8238580239
 11
474.3651456606
 21
262.8238580239
  0
LINE
  5
3AC
100
AcDbEntity
  8
0
100
AcDbLine
 62
1
  6
CONTINUOUS
 10
480.3651456606
 20
262.8238580239
 11
485.0639552406
 21
262.8238580239
  0
LINE
  5
3AD
100
AcDbEntity
  8
0
100
AcDbLine
 62
1
  6
CONTINUOUS
 10
395.9651456606
 20
265.8238580239
 11
395.0918614784
 21
265.8238580239
  0
LINE
  5
3AE
100
AcDbEntity
  8
0
100
AcDbLine
 62
1
  6
CONTINUOUS
 10
399.6170688513
 20
105.4715789669
 11
399.6170688513
 21
111.235050885
  0
LINE
  5
3AF
100
AcDbEntity
  8
0
100
AcDbLine
 62
1
  6
CONTINUOUS
 10
399.6170688513
 20
460.4964270098
 11
399.6170688513
 21
466.2603590323
  0
LINE
  5
3B0
100
AcDbEntity
  8
0
100
AcDbLine
 62
1
  6
CONTINUOUS
 10
400.1698552558
 20
459.6019998188
 11
400.1698552558
 21
467.1547862233
  0
LINE
  5
3B1
100
AcDbEntity
  8
0
100
AcDbLine
 62
1
  6
CONTINUOUS
 10
400.3651456606
 20
186.8238580239
 11
400.3651456606
 21
184.8238580239
  0
LINE
  5
3B2
100
AcDbEntity
  8
0
100
AcDbLine
 62
1
  6
CONTINUOUS
 10
402.3651456606
 20
84.4877573484
 11
402.3651456606
 21
103.4792765213
  0
LINE
  5
3B3
100
AcDbEntity
  8
0
100
AcDbLine
 62
1
  6
CONTINUOUS
 10
402.3651456606
 20
113.2273533306
 11
402.3651456606
 21
132.2188725035
  0
LINE
  5
3B4
100
AcDbEntity
  8
0
100
AcDbLine
 62
1
  6
CONTINUOUS
 10
402.3651456606
 20
263.4581059496
 11
402.3651456606
 21
311.1896100982
  0
LINE
  5
3B5
100
AcDbEntity
  8
0
100
AcDbLine
 62
1
  6
CONTINUOUS
 10
402.4372612371
 20
263.1994267658
 11
402.4372612371
 21
311.4482892821
  0
LINE
  5
3B6
100
AcDbEntity
  8
0
100
AcDbLine
 62
1
  6
CONTINUOUS
 10
403.0065115704
 20
468.5731143806
 11
403.0065115704
 21
458.1836716615
  0
LINE
  5
3B7
100
AcDbEntity
  8
0
100
AcDbLine
 62
1
  6
CONTINUOUS
 10
403.1170688513
 20
102.553314926
 11
403.1170688513
 21
114.153314926
  0
LINE
  5
3B8
100
AcDbEntity
  8
0
100
AcDbLine
 62
1
  6
CONTINUOUS
 10
403.1170688513
 20
457.5783930211
 11
403.1170688513
 21
469.1783930211
  0
LINE
  5
3B9
100
AcDbEntity
  8
0
100
AcDbLine
 62
1
  6
CONTINUOUS
 10
403.3170688513
 20
457.3783930211
 11
403.3170688513
 21
469.3783930211
  0
LINE
  5
3BA
100
AcDbEntity
  8
0
100
AcDbLine
 62
1
  6
CONTINUOUS
 10
403.8651456606
 20
235.0238580239
 11
403.8651456606
 21
239.3238580239
  0
LINE
  5
3BB
100
AcDbEntity
  8
0
100
AcDbLine
 62
1
  6
CONTINUOUS
 10
404.0010761341
 20
469.3783930211
 11
404.0010761341
 21
457.3783930211
  0
LINE
  5
3BC
100
AcDbEntity
  8
0
100
AcDbLine
 62
1
  6
CONTINUOUS
 10
404.1732662635
 20
469.4766553223
 11
404.1732662635
 21
457.2801307198
  0
LINE
  5
3BD
100
AcDbEntity
  8
0
100
AcDbLine
 62
1
  6
CONTINUOUS
 10
407.1487721281
 20
186.8238580239
 11
407.1487721281
 21
184.8238580239
  0
LINE
  5
3BE
100
AcDbEntity
  8
0
100
AcDbLine
 62
1
  6
CONTINUOUS
 10
408.3651456606
 20
133.353314926
 11
408.3651456606
 21
116.3389581621
  0
LINE
  5
3BF
100
AcDbEntity
  8
0
100
AcDbLine
 62
1
  6
CONTINUOUS
 10
408.3651456606
 20
83.353314926
 11
408.3651456606
 21
100.3676716899
  0
LINE
  5
3C0
100
AcDbEntity
  8
0
100
AcDbLine
 62
1
  6
CONTINUOUS
 10
408.3651456606
 20
186.8238580239
 11
408.3651456606
 21
193.5483591223
  0
LINE
  5
3C1
100
AcDbEntity
  8
0
100
AcDbLine
 62
1
  6
CONTINUOUS
 10
408.3651456606
 20
262.3238580239
 11
408.3651456606
 21
312.3238580239
  0
LINE
  5
3C2
100
AcDbEntity
  8
0
100
AcDbLine
 62
1
  6
CONTINUOUS
 10
410.1151456606
 20
241.1238580239
 11
410.1151456606
 21
260.8238580239
  0
LINE
  5
3C3
100
AcDbEntity
  8
0
100
AcDbLine
 62
1
  6
CONTINUOUS
 10
411.0608714391
 20
469.4766553223
 11
411.0608714391
 21
457.2801307198
  0
LINE
  5
3C4
100
AcDbEntity
  8
0
100
AcDbLine
 62
1
  6
CONTINUOUS
 10
411.2330615685
 20
469.3783930211
 11
411.2330615685
 21
457.3783930211
  0
LINE
  5
3C5
100
AcDbEntity
  8
0
100
AcDbLine
 62
1
  6
CONTINUOUS
 10
412.4170688513
 20
469.3783930211
 11
412.4170688513
 21
457.3783930211
  0
LINE
  5
3C6
100
AcDbEntity
  8
0
100
AcDbLine
 62
1
  6
CONTINUOUS
 10
412.6170688513
 20
102.053314926
 11
412.6170688513
 21
114.653314926
  0
LINE
  5
3C7
100
AcDbEntity
  8
0
100
AcDbLine
 62
1
  6
CONTINUOUS
 10
412.6170688513
 20
457.0783930211
 11
412.6170688513
 21
469.6783930211
  0
LINE
  5
3C8
100
AcDbEntity
  8
0
100
AcDbLine
 62
1
  6
CONTINUOUS
 10
412.7016873648
 20
192.8238580239
 11
412.7016873648
 21
199.3238580239
  0
LINE
  5
3C9
100
AcDbEntity
  8
0
100
AcDbLine
 62
1
  6
CONTINUOUS
 10
412.8170688513
 20
456.8783930211
 11
412.8170688513
 21
469.8783930211
  0
LINE
  5
3CA
100
AcDbEntity
  8
0
100
AcDbLine
 62
1
  6
CONTINUOUS
 10
413.8651456606
 20
231.0238580239
 11
413.8651456606
 21
234.8238580239
  0
LINE
  5
3CB
100
AcDbEntity
  8
0
100
AcDbLine
 62
1
  6
CONTINUOUS
 10
413.8739361676
 20
186.8238580239
 11
413.8739361676
 21
181.7781199996
  0
LINE
  5
3CC
100
AcDbEntity
  8
0
100
AcDbLine
 62
1
  6
CONTINUOUS
 10
413.9822277275
 20
469.8783930211
 11
413.9822277275
 21
456.8783930211
  0
LINE
  5
3CD
100
AcDbEntity
  8
0
100
AcDbLine
 62
1
  6
CONTINUOUS
 10
414.1673454443
 20
470.0026868064
 11
414.1673454443
 21
456.7540992357
  0
LINE
  5
3CE
100
AcDbEntity
  8
0
100
AcDbLine
 62
1
  6
CONTINUOUS
 10
416.8651456606
 20
313.8238580239
 11
416.8651456606
 21
323.5238580239
  0
LINE
  5
3CF
100
AcDbEntity
  8
0
100
AcDbLine
 62
1
  6
CONTINUOUS
 10
417.8651456606
 20
447.5946935425
 11
417.8651456606
 21
451.3238580239
  0
LINE
  5
3D0
100
AcDbEntity
  8
0
100
AcDbLine
 62
1
  6
CONTINUOUS
 10
418.1151456606
 20
323.8238580239
 11
418.1151456606
 21
335.6959396857
  0
LINE
  5
3D1
100
AcDbEntity
  8
0
100
AcDbLine
 62
1
  6
CONTINUOUS
 10
418.1151456606
 20
364.9517763621
 11
418.1151456606
 21
375.698440976
  0
LINE
  5
3D2
100
AcDbEntity
  8
0
100
AcDbLine
 62
1
  6
CONTINUOUS
 10
418.1151456606
 20
400.9492750717
 11
418.1151456606
 21
411.9741833635
  0
LINE
  5
3D3
100
AcDbEntity
  8
0
100
AcDbLine
 62
1
  6
CONTINUOUS
 10
422.9651456606
 20
171.7781199996
 11
422.9651456606
 21
180.7781199996
  0
LINE
  5
3D4
100
AcDbEntity
  8
0
100
AcDbLine
 62
1
  6
CONTINUOUS
 10
422.9675066176
 20
171.7781199996
 11
422.9675066176
 21
180.7781199996
  0
LINE
  5
3D5
100
AcDbEntity
  8
0
100
AcDbLine
 62
1
  6
CONTINUOUS
 10
423.1151456606
 20
479.1783930211
 11
423.1151456606
 21
480.5783930211
  0
LINE
  5
3D6
100
AcDbEntity
  8
0
100
AcDbLine
 62
1
  6
CONTINUOUS
 10
423.5187956275
 20
186.8238580239
 11
423.5187956275
 21
181.7781199996
  0
LINE
  5
3D7
100
AcDbEntity
  8
0
100
AcDbLine
 62
1
  6
CONTINUOUS
 10
423.9651456606
 20
161.7781199996
 11
423.9651456606
 21
170.7781199996
  0
LINE
  5
3D8
100
AcDbEntity
  8
0
100
AcDbLine
 62
1
  6
CONTINUOUS
 10
425.3651456606
 20
156.9238580239
 11
425.3651456606
 21
161.7781199996
  0
LINE
  5
3D9
100
AcDbEntity
  8
0
100
AcDbLine
 62
1
  6
CONTINUOUS
 10
425.3651456606
 20
204.8238580239
 11
425.3651456606
 21
230.8238580239
  0
LINE
  5
3DA
100
AcDbEntity
  8
0
100
AcDbLine
 62
1
  6
CONTINUOUS
 10
425.3651456606
 20
482.6783930211
 11
425.3651456606
 21
483.0233959537
  0
LINE
  5
3DB
100
AcDbEntity
  8
0
100
AcDbLine
 62
1
  6
CONTINUOUS
 10
426.1151456606
 20
230.8238580239
 11
426.1151456606
 21
204.8238580239
  0
LINE
  5
3DC
100
AcDbEntity
  8
0
100
AcDbLine
 62
1
  6
CONTINUOUS
 10
426.1151456606
 20
161.7781199996
 11
426.1151456606
 21
156.3238580239
  0
LINE
  5
3DD
100
AcDbEntity
  8
0
100
AcDbLine
 62
1
  6
CONTINUOUS
 10
426.3651456606
 20
498.4407112669
 11
426.3651456606
 21
499.3489377552
  0
LINE
  5
3DE
100
AcDbEntity
  8
0
100
AcDbLine
 62
1
  6
CONTINUOUS
 10
426.5044544543
 20
171.7781199996
 11
426.5044544543
 21
180.7781199996
  0
LINE
  5
3DF
100
AcDbEntity
  8
0
100
AcDbLine
 62
1
  6
CONTINUOUS
 10
426.8281978238
 20
171.7781199996
 11
426.8281978238
 21
180.7781199996
  0
LINE
  5
3E0
100
AcDbEntity
  8
0
100
AcDbLine
 62
1
  6
CONTINUOUS
 10
235.8775478133
 20
182.6793511034
 11
234.655777077
 21
181.8238580239
  0
LINE
  5
3E1
100
AcDbEntity
  8
0
100
AcDbLine
 62
1
  6
CONTINUOUS
 10
517.4311710643
 20
274.1738580239
 11
530.1651456606
 21
274.1738580239
  0
LINE
  5
3E2
100
AcDbEntity
  8
0
100
AcDbLine
 62
1
  6
CONTINUOUS
 10
515.5651456606
 20
275.1738580239
 11
516.4496756067
 21
275.1738580239
  0
LINE
  5
3E3
100
AcDbEntity
  8
______
100
AcDbLine
 62
6
  6
CENTER
 10
180.8775478133
 20
287.155906354
 11
239.1775478133
 21
287.155906354
  0
LINE
  5
3E4
100
AcDbEntity
  8
______
100
AcDbLine
 62
6
  6
CENTER
 10
382.5207768773
 20
287.3238580239
 11
538.6429007711
 21
287.3238580239
  0
LINE
  5
3E5
100
AcDbEntity
  8
0
100
AcDbLine
 62
1
  6
CONTINUOUS
 10
515.5651456606
 20
299.1738580239
 11
516.4496756067
 21
299.1738580239
  0
LINE
  5
3E6
100
AcDbEntity
  8
0
100
AcDbLine
 62
1
  6
CONTINUOUS
 10
517.4311710643
 20
300.1738580239
 11
519.1651456606
 21
300.1738580239
  0
LINE
  5
3E7
100
AcDbEntity
  8
0
100
AcDbLine
 62
1
  6
CONTINUOUS
 10
519.2651456606
 20
302.8237542548
 11
530.0651456606
 21
302.8237542548
  0
LINE
  5
3E8
100
AcDbEntity
  8
______
100
AcDbLine
 62
5
  6
ACAD_ISO04W100
 10
534.2011587864
 20
280.9323213891
 11
532.5496058564
 21
281.0768135477
  0
LINE
  5
3E9
100
AcDbEntity
  8
______
100
AcDbLine
 62
5
  6
ACAD_ISO04W100
 10
478.712292962
 20
259.1558820128
 11
490.5061713931
 21
254.3908458224
  0
LINE
  5
3EA
100
AcDbEntity
  8
______
100
AcDbLine
 62
5
  6
ACAD_ISO04W100
 10
508.4946351895
 20
260.1637496604
 11
520.0355355261
 21
254.7821394514
  0
LINE
  5
3EB
100
AcDbEntity
  8
______
100
AcDbLine
 62
5
  6
ACAD_ISO04W100
 10
507.2260600971
 20
261.8586738599
 11
508.0277164751
 21
261.4848553516
  0
LINE
  5
3EC
100
AcDbEntity
  8
0
100
AcDbLine
 62
1
  6
CONTINUOUS
 10
516.6228806875
 20
96.153314926
 11
516.9981583624
 21
95.503314926
  0
LINE
  5
3ED
100
AcDbEntity
  8
0
100
AcDbLine
 62
1
  6
CONTINUOUS
 10
459.3651456606
 20
184.8238580239
 11
460.3651456606
 21
182.6793511034
  0
LINE
  5
3EE
100
AcDbEntity
  8
0
100
AcDbLine
 62
1
  6
CONTINUOUS
 10
429.8651456606
 20
156.3238580239
 11
429.8651456606
 21
158.3238580239
  0
LINE
  5
3EF
100
AcDbEntity
  8
______
100
AcDbLine
 62
6
  6
CENTER
 10
430.3651456606
 20
511.9312789576
 11
430.3651456606
 21
158.3238580239
  0
LINE
  5
3F0
100
AcDbEntity
  8
______
100
AcDbLine
 62
6
  6
CENTER
 10
430.3651456606
 20
76.4533149259
 11
430.3651456606
 21
140.2533149259
  0
LINE
  5
3F1
100
AcDbEntity
  8
0
100
AcDbLine
 62
1
  6
CONTINUOUS
 10
430.8651456606
 20
156.3238580239
 11
430.8651456606
 21
158.3238580239
  0
LINE
  5
3F2
100
AcDbEntity
  8
0
100
AcDbLine
 62
1
  6
CONTINUOUS
 10
433.9020934973
 20
171.7781199996
 11
433.9020934973
 21
180.7781199996
  0
LINE
  5
3F3
100
AcDbEntity
  8
0
100
AcDbLine
 62
1
  6
CONTINUOUS
 10
434.2258368668
 20
171.7781199996
 11
434.2258368668
 21
180.7781199996
  0
LINE
  5
3F4
100
AcDbEntity
  8
0
100
AcDbLine
 62
1
  6
CONTINUOUS
 10
434.3651456606
 20
498.4407112669
 11
434.3651456606
 21
499.3489377552
  0
LINE
  5
3F5
100
AcDbEntity
  8
0
100
AcDbLine
 62
1
  6
CONTINUOUS
 10
434.6151456606
 20
230.8238580239
 11
434.6151456606
 21
204.8238580239
  0
LINE
  5
3F6
100
AcDbEntity
  8
0
100
AcDbLine
 62
1
  6
CONTINUOUS
 10
434.6151456606
 20
161.7781199996
 11
434.6151456606
 21
156.3238580239
  0
LINE
  5
3F7
100
AcDbEntity
  8
0
100
AcDbLine
 62
1
  6
CONTINUOUS
 10
435.3651456606
 20
156.9238580239
 11
435.3651456606
 21
161.7781199996
  0
LINE
  5
3F8
100
AcDbEntity
  8
0
100
AcDbLine
 62
1
  6
CONTINUOUS
 10
435.3651456606
 20
204.8238580239
 11
435.3651456606
 21
230.8238580239
  0
LINE
  5
3F9
100
AcDbEntity
  8
0
100
AcDbLine
 62
1
  6
CONTINUOUS
 10
435.3651456606
 20
482.6783930211
 11
435.3651456606
 21
483.0233959537
  0
LINE
  5
3FA
100
AcDbEntity
  8
0
100
AcDbLine
 62
1
  6
CONTINUOUS
 10
436.7651456606
 20
161.7781199996
 11
436.7651456606
 21
170.7781199996
  0
LINE
  5
3FB
100
AcDbEntity
  8
0
100
AcDbLine
 62
1
  6
CONTINUOUS
 10
437.2114956936
 20
186.8238580239
 11
437.2114956936
 21
181.7781199996
  0
LINE
  5
3FC
100
AcDbEntity
  8
0
100
AcDbLine
 62
1
  6
CONTINUOUS
 10
437.6151456606
 20
479.1783930211
 11
437.6151456606
 21
480.5783930211
  0
LINE
  5
3FD
100
AcDbEntity
  8
0
100
AcDbLine
 62
1
  6
CONTINUOUS
 10
437.7627847035
 20
171.7781199996
 11
437.7627847035
 21
180.7781199996
  0
LINE
  5
3FE
100
AcDbEntity
  8
0
100
AcDbLine
 62
1
  6
CONTINUOUS
 10
437.7651456606
 20
171.7781199996
 11
437.7651456606
 21
180.7781199996
  0
LINE
  5
3FF
100
AcDbEntity
  8
0
100
AcDbLine
 62
1
  6
CONTINUOUS
 10
442.6151456606
 20
323.8238580239
 11
442.6151456606
 21
335.6959396857
  0
LINE
  5
400
100
AcDbEntity
  8
0
100
AcDbLine
 62
1
  6
CONTINUOUS
 10
442.6151456606
 20
364.9517763621
 11
442.6151456606
 21
375.698440976
  0
LINE
  5
401
100
AcDbEntity
  8
0
100
AcDbLine
 62
1
  6
CONTINUOUS
 10
442.6151456606
 20
400.9492750717
 11
442.6151456606
 21
411.9741833635
  0
LINE
  5
402
100
AcDbEntity
  8
0
100
AcDbLine
 62
1
  6
CONTINUOUS
 10
442.8651456606
 20
447.5946935425
 11
442.8651456606
 21
451.3238580239
  0
LINE
  5
403
100
AcDbEntity
  8
0
100
AcDbLine
 62
1
  6
CONTINUOUS
 10
443.8651456606
 20
313.8238580239
 11
443.8651456606
 21
323.5238580239
  0
LINE
  5
404
100
AcDbEntity
  8
0
100
AcDbLine
 62
1
  6
CONTINUOUS
 10
444.3054730192
 20
473.9574890663
 11
444.3054730192
 21
452.7992969759
  0
LINE
  5
405
100
AcDbEntity
  8
0
100
AcDbLine
 62
1
  6
CONTINUOUS
 10
444.4647910462
 20
473.8783930211
 11
444.4647910462
 21
452.8783930211
  0
LINE
  5
406
100
AcDbEntity
  8
0
100
AcDbLine
 62
1
  6
CONTINUOUS
 10
446.8563551535
 20
186.8238580239
 11
446.8563551535
 21
181.7781199996
  0
LINE
  5
407
100
AcDbEntity
  8
0
100
AcDbLine
 62
1
  6
CONTINUOUS
 10
446.8651456606
 20
231.0238580239
 11
446.8651456606
 21
234.8238580239
  0
LINE
  5
408
100
AcDbEntity
  8
0
100
AcDbLine
 62
1
  6
CONTINUOUS
 10
447.1651456606
 20
452.8783930211
 11
447.1651456606
 21
473.8783930211
  0
LINE
  5
409
100
AcDbEntity
  8
0
100
AcDbLine
 62
1
  6
CONTINUOUS
 10
447.3651456606
 20
98.053314926
 11
447.3651456606
 21
118.653314926
  0
LINE
  5
40A
100
AcDbEntity
  8
0
100
AcDbLine
 62
1
  6
CONTINUOUS
 10
447.3651456606
 20
453.0783930211
 11
447.3651456606
 21
473.6783930211
  0
LINE
  5
40B
100
AcDbEntity
  8
0
100
AcDbLine
 62
1
  6
CONTINUOUS
 10
447.5651456606
 20
472.8783930211
 11
447.5651456606
 21
453.8783930211
  0
LINE
  5
40C
100
AcDbEntity
  8
0
100
AcDbLine
 62
1
  6
CONTINUOUS
 10
448.0286039563
 20
199.3238580239
 11
448.0286039563
 21
192.8238580239
  0
LINE
  5
40D
100
AcDbEntity
  8
0
100
AcDbLine
 62
1
  6
CONTINUOUS
 10
449.279475515
 20
472.8783930211
 11
449.279475515
 21
453.8783930211
  0
LINE
  5
40E
100
AcDbEntity
  8
0
100
AcDbLine
 62
1
  6
CONTINUOUS
 10
449.4235243972
 20
472.9396489418
 11
449.4235243972
 21
453.8171371004
  0
LINE
  5
40F
100
AcDbEntity
  8
0
100
AcDbLine
 62
1
  6
CONTINUOUS
 10
450.6151456606
 20
241.1238580239
 11
450.6151456606
 21
260.8238580239
  0
LINE
  5
410
100
AcDbEntity
  8
0
100
AcDbLine
 62
1
  6
CONTINUOUS
 10
452.3651456606
 20
186.8238580239
 11
452.3651456606
 21
193.5484997771
  0
LINE
  5
411
100
AcDbEntity
  8
0
100
AcDbLine
 62
1
  6
CONTINUOUS
 10
453.581519193
 20
186.8238580239
 11
453.581519193
 21
184.8238580239
  0
LINE
  5
412
100
AcDbEntity
  8
0
100
AcDbLine
 62
1
  6
CONTINUOUS
 10
401.3651456606
 20
184.8238580239
 11
400.3651456606
 21
182.6793511034
  0
LINE
  5
413
100
AcDbEntity
  8
0
100
AcDbLine
 62
1
  6
CONTINUOUS
 10
531.952015895
 20
303.8606226252
 11
530.3941355889
 21
303.2936005652
  0
LINE
  5
414
100
AcDbEntity
  8
0
100
AcDbLine
 62
1
  6
CONTINUOUS
 10
518.9361557322
 20
303.2936005652
 11
530.3941355889
 21
303.2936005652
  0
LINE
  5
415
100
AcDbEntity
  8
0
100
AcDbLine
 62
1
  6
CONTINUOUS
 10
531.952015895
 20
303.8606226252
 11
517.3782754261
 21
303.8606226252
  0
LINE
  5
416
100
AcDbEntity
  8
0
100
AcDbLine
 62
1
  6
CONTINUOUS
 10
203.5012173539
 20
308.1559063541
 11
216.5538782729
 21
308.1559063542
  0
LINE
  5
417
100
AcDbEntity
  8
0
100
AcDbLine
 62
1
  6
CONTINUOUS
 10
531.1914761201
 20
308.1738580239
 11
518.138815201
 21
308.1738580239
  0
LINE
  5
418
100
AcDbEntity
  8
0
100
AcDbLine
 62
1
  6
CONTINUOUS
 10
395.9651456606
 20
308.8238580239
 11
395.0918614784
 21
308.8238580239
  0
LINE
  5
419
100
AcDbEntity
  8
0
100
AcDbLine
 62
1
  6
CONTINUOUS
 10
408.3651456606
 20
311.8238580239
 11
414.8651456606
 21
311.8238580239
  0
LINE
  5
41A
100
AcDbEntity
  8
0
100
AcDbLine
 62
1
  6
CONTINUOUS
 10
445.8651456606
 20
311.8238580239
 11
474.3651456606
 21
311.8238580239
  0
LINE
  5
41B
100
AcDbEntity
  8
0
100
AcDbLine
 62
1
  6
CONTINUOUS
 10
480.3651456606
 20
311.8238580239
 11
485.0639552406
 21
311.8238580239
  0
LINE
  5
41C
100
AcDbEntity
  8
0
100
AcDbLine
 62
1
  6
CONTINUOUS
 10
516.1651456606
 20
312.3738580239
 11
533.1651456606
 21
312.3738580239
  0
LINE
  5
41D
100
AcDbEntity
  8
0
100
AcDbLine
 62
1
  6
CONTINUOUS
 10
516.1651456606
 20
312.6738580239
 11
533.1651456606
 21
312.6738580239
  0
LINE
  5
41E
100
AcDbEntity
  8
0
100
AcDbLine
 62
1
  6
CONTINUOUS
 10
416.8651456606
 20
323.5238580239
 11
443.8651456606
 21
323.5238580239
  0
LINE
  5
41F
100
AcDbEntity
  8
0
100
AcDbLine
 62
1
  6
CONTINUOUS
 10
196.7623927236
 20
323.8238580239
 11
201.3196038381
 21
323.8238580239
  0
LINE
  5
420
100
AcDbEntity
  8
0
100
AcDbLine
 62
1
  6
CONTINUOUS
 10
218.7354917887
 20
323.8238580239
 11
223.161672577
 21
323.8238580239
  0
LINE
  5
421
100
AcDbEntity
  8
0
100
AcDbLine
 62
1
  6
CONTINUOUS
 10
417.1651456606
 20
323.8238580239
 11
443.5651456606
 21
323.8238580239
  0
LINE
  5
422
100
AcDbEntity
  8
0
100
AcDbLine
 62
1
  6
CONTINUOUS
 10
222.2120140259
 20
324.3238580239
 11
218.7545355127
 21
324.3238580239
  0
LINE
  5
423
100
AcDbEntity
  8
0
100
AcDbLine
 62
1
  6
CONTINUOUS
 10
201.3005601141
 20
324.3238580239
 11
197.7120512747
 21
324.3238580239
  0
LINE
  5
424
100
AcDbEntity
  8
0
100
AcDbLine
 62
1
  6
CONTINUOUS
 10
418.1151456606
 20
324.3238580239
 11
442.6151456606
 21
324.3238580239
  0
LINE
  5
425
100
AcDbEntity
  8
0
100
AcDbLine
 62
1
  6
CONTINUOUS
 10
490.8651456606
 20
313.6738580239
 11
503.567820834
 21
313.0081390271
  0
LINE
  5
426
100
AcDbEntity
  8
______
100
AcDbLine
 62
5
  6
ACAD_ISO04W100
 10
517.3688983789
 20
283.6100607488
 11
518.1705547569
 21
283.2362422405
  0
LINE
  5
427
100
AcDbEntity
  8
______
100
AcDbLine
 62
5
  6
ACAD_ISO04W100
 10
519.4827099948
 20
283.7277521233
 11
521.0542246739
 21
282.9949427935
  0
LINE
  5
428
100
AcDbEntity
  8
______
100
AcDbLine
 62
5
  6
ACAD_ISO04W100
 10
522.2647499915
 20
285.3543025563
 11
532.0528740915
 21
280.7900253295
  0
LINE
  5
429
100
AcDbEntity
  8
______
100
AcDbLine
 62
5
  6
ACAD_ISO04W100
 10
522.1651494886
 20
285.9191650778
 11
532.5496058564
 21
281.0768135477
  0
LINE
  5
42A
100
AcDbEntity
  8
______
100
AcDbLine
 62
5
  6
ACAD_ISO04W100
 10
534.2011587864
 20
280.9323213891
 11
520.9928643132
 21
287.0914502531
  0
LINE
  5
42B
100
AcDbEntity
  8
0
100
AcDbLine
 62
1
  6
CONTINUOUS
 10
456.8651456606
 20
235.0238580239
 11
456.8651456606
 21
239.3238580239
  0
LINE
  5
42C
100
AcDbEntity
  8
0
100
AcDbLine
 62
1
  6
CONTINUOUS
 10
459.8136011335
 20
473.9152586979
 11
459.8136011335
 21
452.8415273443
  0
LINE
  5
42D
100
AcDbEntity
  8
0
100
AcDbLine
 62
1
  6
CONTINUOUS
 10
459.9293041698
 20
473.8783930211
 11
459.9293041698
 21
452.8783930211
  0
LINE
  5
42E
100
AcDbEntity
  8
0
100
AcDbLine
 62
1
  6
CONTINUOUS
 10
460.3651456606
 20
186.8238580239
 11
460.3651456606
 21
184.8238580239
  0
LINE
  5
42F
100
AcDbEntity
  8
0
100
AcDbLine
 62
1
  6
CONTINUOUS
 10
461.3651456606
 20
452.8783930211
 11
461.3651456606
 21
473.8783930211
  0
LINE
  5
430
100
AcDbEntity
  8
0
100
AcDbLine
 62
1
  6
CONTINUOUS
 10
462.3651456606
 20
98.853314926
 11
462.3651456606
 21
117.853314926
  0
LINE
  5
431
100
AcDbEntity
  8
0
100
AcDbLine
 62
1
  6
CONTINUOUS
 10
462.3651456606
 20
453.8783930211
 11
462.3651456606
 21
472.8783930211
  0
LINE
  5
432
100
AcDbEntity
  8
0
100
AcDbLine
 62
1
  6
CONTINUOUS
 10
468.3651456605
 20
199.3238580239
 11
468.3651456605
 21
204.8238580239
  0
LINE
  5
433
100
AcDbEntity
  8
0
100
AcDbLine
 62
1
  6
CONTINUOUS
 10
474.3651456606
 20
312.3238580239
 11
474.3651456606
 21
262.3238580239
  0
LINE
  5
434
100
AcDbEntity
  8
0
100
AcDbLine
 62
1
  6
CONTINUOUS
 10
474.3651456606
 20
99.353314926
 11
474.3651456606
 21
83.353314926
  0
LINE
  5
435
100
AcDbEntity
  8
0
100
AcDbLine
 62
1
  6
CONTINUOUS
 10
474.3651456606
 20
117.353314926
 11
474.3651456606
 21
133.353314926
  0
LINE
  5
436
100
AcDbEntity
  8
0
100
AcDbLine
 62
1
  6
CONTINUOUS
 10
475.3651456606
 20
204.8238580239
 11
475.3651456606
 21
199.3238580239
  0
LINE
  5
437
100
AcDbEntity
  8
0
100
AcDbLine
 62
1
  6
CONTINUOUS
 10
480.2296236189
 20
311.9752205285
 11
480.2296236189
 21
262.6724955194
  0
LINE
  5
438
100
AcDbEntity
  8
0
100
AcDbLine
 62
1
  6
CONTINUOUS
 10
480.3651456606
 20
311.8238580239
 11
480.3651456606
 21
262.8238580239
  0
LINE
  5
439
100
AcDbEntity
  8
0
100
AcDbLine
 62
1
  6
CONTINUOUS
 10
480.3651456606
 20
99.353314926
 11
480.3651456606
 21
83.853314926
  0
LINE
  5
43A
100
AcDbEntity
  8
0
100
AcDbLine
 62
1
  6
CONTINUOUS
 10
480.3651456606
 20
117.353314926
 11
480.3651456606
 21
132.853314926
  0
LINE
  5
43B
100
AcDbEntity
  8
0
100
AcDbLine
 62
1
  6
CONTINUOUS
 10
485.0639552406
 20
311.8238580239
 11
485.0639552406
 21
262.8238580239
  0
LINE
  5
43C
100
AcDbEntity
  8
0
100
AcDbLine
 62
1
  6
CONTINUOUS
 10
418.1151456606
 20
335.6959396857
 11
442.6151456606
 21
335.6959396857
  0
LINE
  5
43D
100
AcDbEntity
  8
0
100
AcDbLine
 62
1
  6
CONTINUOUS
 10
418.576911522
 20
338.699619016
 11
442.1533797991
 21
338.699619016
  0
LINE
  5
43E
100
AcDbEntity
  8
0
100
AcDbLine
 62
1
  6
CONTINUOUS
 10
513.0882225836
 20
355.5304373383
 11
536.2420687375
 21
355.5304373383
  0
LINE
  5
43F
100
AcDbEntity
  8
0
100
AcDbLine
 62
1
  6
CONTINUOUS
 10
418.576911522
 20
361.9480970319
 11
442.1533797991
 21
361.9480970319
  0
LINE
  5
440
100
AcDbEntity
  8
0
100
AcDbLine
 62
1
  6
CONTINUOUS
 10
517.3782754261
 20
303.8606226252
 11
518.9361557322
 21
303.2936005652
  0
LINE
  5
441
100
AcDbEntity
  8
______
100
AcDbLine
 62
5
  6
ACAD_ISO04W100
 10
535.3347277128
 20
285.1628582159
 11
523.5049994802
 21
290.6791510846
  0
LINE
  5
442
100
AcDbEntity
  8
______
100
AcDbLine
 62
5
  6
ACAD_ISO04W100
 10
523.4912441061
 20
295.3197525806
 11
538.8984764857
 21
288.135242131
  0
LINE
  5
443
100
AcDbEntity
  8
______
100
AcDbLine
 62
5
  6
ACAD_ISO04W100
 10
523.6180295846
 20
295.5916449167
 11
539.0252619642
 21
288.4071344671
  0
LINE
  5
444
100
AcDbEntity
  8
______
100
AcDbLine
 62
5
  6
ACAD_ISO04W100
 10
501.1110608343
 20
307.1901947258
 11
512.3422492549
 21
301.2184659138
  0
LINE
  5
445
100
AcDbEntity
  8
______
100
AcDbLine
 62
5
  6
ACAD_ISO04W100
 10
520.9928643132
 20
287.0914502531
 11
522.1651494886
 21
285.9191650778
  0
LINE
  5
446
100
AcDbEntity
  8
______
100
AcDbLine
 62
5
  6
ACAD_ISO04W100
 10
508.1424317624
 20
261.3210249427
 11
508.2078469713
 21
260.5733256825
  0
LINE
  5
447
100
AcDbEntity
  8
0
100
AcDbLine
 62
1
  6
CONTINUOUS
 10
490.8651456606
 20
313.6738580239
 11
490.8651456606
 21
260.6738580239
  0
LINE
  5
448
100
AcDbEntity
  8
0
100
AcDbLine
 62
1
  6
CONTINUOUS
 10
490.8651456606
 20
99.353314926
 11
490.8651456606
 21
81.7534696027
  0
LINE
  5
449
100
AcDbEntity
  8
0
100
AcDbLine
 62
1
  6
CONTINUOUS
 10
490.8651456606
 20
117.353314926
 11
490.8651456606
 21
134.7531602492
  0
LINE
  5
44A
100
AcDbEntity
  8
0
100
AcDbLine
 62
1
  6
CONTINUOUS
 10
493.8651456606
 20
99.3529992144
 11
493.8651456606
 21
95.7533150292
  0
LINE
  5
44B
100
AcDbEntity
  8
0
100
AcDbLine
 62
1
  6
CONTINUOUS
 10
493.8651456606
 20
117.3534974412
 11
493.8651456606
 21
120.7533148185
  0
LINE
  5
44C
100
AcDbEntity
  8
0
100
AcDbLine
 62
1
  6
CONTINUOUS
 10
494.8651456606
 20
120.753314926
 11
494.8651456606
 21
117.3534996226
  0
LINE
  5
44D
100
AcDbEntity
  8
0
100
AcDbLine
 62
1
  6
CONTINUOUS
 10
494.8651456606
 20
95.753314926
 11
494.8651456606
 21
99.3529984332
  0
LINE
  5
44E
100
AcDbEntity
  8
0
100
AcDbLine
 62
1
  6
CONTINUOUS
 10
503.567820834
 20
313.0081390271
 11
503.567820834
 21
261.3395770207
  0
LINE
  5
44F
100
AcDbEntity
  8
0
100
AcDbLine
 62
1
  6
CONTINUOUS
 10
512.1651456606
 20
368.3874111327
 11
512.1651456606
 21
370.1738580239
  0
LINE
  5
450
100
AcDbEntity
  8
0
100
AcDbLine
 62
1
  6
CONTINUOUS
 10
515.2701806165
 20
303.9842459632
 11
515.2701806165
 21
270.3634700847
  0
LINE
  5
451
100
AcDbEntity
  8
0
100
AcDbLine
 62
1
  6
CONTINUOUS
 10
515.3651456606
 20
303.3752781343
 11
515.3651456606
 21
270.9724379136
  0
LINE
  5
452
100
AcDbEntity
  8
0
100
AcDbLine
 62
1
  6
CONTINUOUS
 10
515.3651456606
 20
124.4547350363
 11
515.3651456606
 21
117.353314926
  0
LINE
  5
453
100
AcDbEntity
  8
0
100
AcDbLine
 62
1
  6
CONTINUOUS
 10
515.3651456606
 20
99.353314926
 11
515.3651456606
 21
92.0518948156
  0
LINE
  5
454
100
AcDbEntity
  8
0
100
AcDbLine
 62
1
  6
CONTINUOUS
 10
515.5651456606
 20
275.1738580239
 11
515.5651456606
 21
299.1738580239
  0
LINE
  5
455
100
AcDbEntity
  8
______
100
AcDbLine
 62
5
  6
ACAD_ISO04W100
 10
501.1110608343
 20
307.1901947258
 11
478.712292962
 21
259.1558820128
  0
LINE
  5
456
100
AcDbEntity
  8
______
100
AcDbLine
 62
5
  6
ACAD_ISO04W100
 10
512.3422492549
 20
301.2184659138
 11
490.5061713931
 21
254.3908458224
  0
LINE
  5
457
100
AcDbEntity
  8
______
100
AcDbLine
 62
5
  6
ACAD_ISO04W100
 10
543.5383634067
 20
347.7757449897
 11
544.2933484865
 21
349.3948157183
  0
LINE
  5
458
100
AcDbEntity
  8
______
100
AcDbLine
 62
5
  6
ACAD_ISO04W100
 10
519.1345270517
 20
288.094410411
 11
504.9257731915
 21
257.6236394261
  0
LINE
  5
459
100
AcDbEntity
  8
______
100
AcDbLine
 62
5
  6
ACAD_ISO04W100
 10
518.9632336854
 20
287.5023641638
 11
505.2692016758
 21
258.1354177496
  0
LINE
  5
45A
100
AcDbEntity
  8
______
100
AcDbLine
 62
5
  6
ACAD_ISO04W100
 10
507.2260600971
 20
261.8586738599
 11
517.3688983789
 21
283.6100607488
  0
LINE
  5
45B
100
AcDbEntity
  8
______
100
AcDbLine
 62
5
  6
ACAD_ISO04W100
 10
523.4912441061
 20
295.3197525806
 11
523.6180295846
 21
295.5916449167
  0
LINE
  5
45C
100
AcDbEntity
  8
0
100
AcDbLine
 62
1
  6
CONTINUOUS
 10
386.2946062415
 20
89.8387921044
 11
392.0651456606
 21
99.8891482593
  0
LINE
  5
45D
100
AcDbEntity
  8
0
100
AcDbLine
 62
1
  6
CONTINUOUS
 10
393.8561270394
 20
92.9667741607
 11
390.6307058265
 21
87.3491655484
  0
LINE
  5
45E
100
AcDbEntity
  8
0
100
AcDbLine
 62
1
  6
CONTINUOUS
 10
516.6228806875
 20
299.2738580239
 11
516.9981583624
 21
299.9238580239
  0
LINE
  5
45F
100
AcDbEntity
  8
0
100
AcDbLine
 62
1
  6
CONTINUOUS
 10
423.9651456606
 20
181.7781199996
 11
422.9651456606
 21
180.7781199996
  0
LINE
  5
460
100
AcDbEntity
  8
0
100
AcDbLine
 62
1
  6
CONTINUOUS
 10
679.1579040385
 20
430.9864731943
 11
679.7569306464
 21
431.5854998022
  0
LINE
  5
461
100
AcDbEntity
  8
______
100
AcDbLine
 62
5
  6
ACAD_ISO04W100
 10
518.3697936965
 20
283.253673389
 11
518.9846126457
 21
283.6841742519
  0
LINE
  5
462
100
AcDbEntity
  8
0
100
AcDbLine
 62
1
  6
CONTINUOUS
 10
418.1151456606
 20
364.9517763621
 11
442.6151456606
 21
364.9517763621
  0
LINE
  5
463
100
AcDbEntity
  8
0
100
AcDbLine
 62
1
  6
CONTINUOUS
 10
512.1651456606
 20
368.3874111327
 11
537.1651456606
 21
368.3874111327
  0
LINE
  5
464
100
AcDbEntity
  8
0
100
AcDbLine
 62
1
  6
CONTINUOUS
 10
512.1651456606
 20
370.1738580239
 11
537.1651456606
 21
370.1738580239
  0
LINE
  5
465
100
AcDbEntity
  8
0
100
AcDbLine
 62
1
  6
CONTINUOUS
 10
418.1151456606
 20
375.698440976
 11
442.6151456606
 21
375.698440976
  0
LINE
  5
466
100
AcDbEntity
  8
0
100
AcDbLine
 62
1
  6
CONTINUOUS
 10
419.6920357446
 20
378.6227611109
 11
441.0382555765
 21
378.6227611109
  0
LINE
  5
467
100
AcDbEntity
  8
0
100
AcDbLine
 62
1
  6
CONTINUOUS
 10
214.2775478133
 20
379.1246019114
 11
205.7775478133
 21
379.1246019115
  0
LINE
  5
468
100
AcDbEntity
  8
0
100
AcDbLine
 62
1
  6
CONTINUOUS
 10
520.4151456606
 20
379.1425535812
 11
528.9151456606
 21
379.1425535812
  0
LINE
  5
469
100
AcDbEntity
  8
0
100
AcDbLine
 62
1
  6
CONTINUOUS
 10
216.0275478133
 20
379.1559063542
 11
204.0275478133
 21
379.1559063542
  0
LINE
  5
46A
100
AcDbEntity
  8
0
100
AcDbLine
 62
1
  6
CONTINUOUS
 10
518.6651456606
 20
379.1738580239
 11
530.6651456606
 21
379.1738580239
  0
LINE
  5
46B
100
AcDbEntity
  8
0
100
AcDbLine
 62
1
  6
CONTINUOUS
 10
420.2453305109
 20
381.4208267088
 11
440.4849608102
 21
381.4208267088
  0
LINE
  5
46C
100
AcDbEntity
  8
0
100
AcDbLine
 62
1
  6
CONTINUOUS
 10
216.0275478133
 20
383.6559063542
 11
204.0275478134
 21
383.6559063542
  0
LINE
  5
46D
100
AcDbEntity
  8
0
100
AcDbLine
 62
1
  6
CONTINUOUS
 10
518.6651456606
 20
383.6738580239
 11
530.6651456606
 21
383.6738580239
  0
LINE
  5
46E
100
AcDbEntity
  8
______
100
AcDbLine
 62
5
  6
ACAD_ISO04W100
 10
538.9413632938
 20
335.7332603574
 11
559.9258743629
 21
325.9480221432
  0
LINE
  5
46F
100
AcDbEntity
  8
0
100
AcDbLine
 62
1
  6
CONTINUOUS
 10
516.6228806875
 20
275.0738580239
 11
516.9981583624
 21
274.4238580239
  0
LINE
  5
470
100
AcDbEntity
  8
0
100
AcDbLine
 62
1
  6
CONTINUOUS
 10
516.1651456606
 20
312.3738580239
 11
516.1651456606
 21
312.6738580239
  0
LINE
  5
471
100
AcDbEntity
  8
0
100
AcDbLine
 62
1
  6
CONTINUOUS
 10
516.4496756067
 20
275.1738580239
 11
516.4496756067
 21
299.1738580239
  0
LINE
  5
472
100
AcDbEntity
  8
0
100
AcDbLine
 62
1
  6
CONTINUOUS
 10
516.6228806875
 20
275.0738580239
 11
516.6228806875
 21
299.2738580239
  0
LINE
  5
473
100
AcDbEntity
  8
0
100
AcDbLine
 62
1
  6
CONTINUOUS
 10
516.9981583624
 20
299.9238580239
 11
516.9981583624
 21
274.4238580239
  0
LINE
  5
474
100
AcDbEntity
  8
0
100
AcDbLine
 62
1
  6
CONTINUOUS
 10
517.4311710643
 20
300.1738580239
 11
517.4311710643
 21
274.1738580239
  0
LINE
  5
475
100
AcDbEntity
  8
0
100
AcDbLine
 62
1
  6
CONTINUOUS
 10
519.2651456606
 20
302.8237542548
 11
519.2651456606
 21
300.1318924049
  0
LINE
  5
476
100
AcDbEntity
  8
0
100
AcDbLine
 62
1
  6
CONTINUOUS
 10
530.0651456606
 20
302.8237542548
 11
530.0651456606
 21
300.1318880076
  0
LINE
  5
477
100
AcDbEntity
  8
0
100
AcDbLine
 62
1
  6
CONTINUOUS
 10
530.1651456606
 20
300.1738580239
 11
530.1651456606
 21
274.1738580239
  0
LINE
  5
478
100
AcDbEntity
  8
0
100
AcDbLine
 62
1
  6
CONTINUOUS
 10
532.726868778
 20
299.0774961709
 11
532.726868778
 21
275.2702198769
  0
LINE
  5
479
100
AcDbEntity
  8
0
100
AcDbLine
 62
1
  6
CONTINUOUS
 10
532.8651456606
 20
298.7323058085
 11
532.8651456606
 21
275.6154102394
  0
LINE
  5
47A
100
AcDbEntity
  8
0
100
AcDbLine
 62
1
  6
CONTINUOUS
 10
532.8651456606
 20
119.8117627105
 11
532.8651456606
 21
117.663715586
  0
LINE
  5
47B
100
AcDbEntity
  8
0
100
AcDbLine
 62
1
  6
CONTINUOUS
 10
532.8651456606
 20
98.8429142659
 11
532.8651456606
 21
96.6948671414
  0
LINE
  5
47C
100
AcDbEntity
  8
0
100
AcDbLine
 62
1
  6
CONTINUOUS
 10
533.1651456606
 20
312.3738580239
 11
533.1651456606
 21
312.6738580239
  0
LINE
  5
47D
100
AcDbEntity
  8
0
100
AcDbLine
 62
1
  6
CONTINUOUS
 10
534.3651456606
 20
293.4238580239
 11
534.3651456606
 21
280.9238580239
  0
LINE
  5
47E
100
AcDbEntity
  8
0
100
AcDbLine
 62
1
  6
CONTINUOUS
 10
537.1651456606
 20
368.3874111327
 11
537.1651456606
 21
370.1738580239
  0
LINE
  5
47F
100
AcDbEntity
  8
______
100
AcDbLine
 62
5
  6
ACAD_ISO04W100
 10
508.0277164751
 20
261.4848553516
 11
518.1705547569
 21
283.2362422405
  0
LINE
  5
480
100
AcDbEntity
  8
______
100
AcDbLine
 62
5
  6
ACAD_ISO04W100
 10
508.1424317624
 20
261.3210249427
 11
518.3697936965
 21
283.253673389
  0
LINE
  5
481
100
AcDbEntity
  8
______
100
AcDbLine
 62
5
  6
ACAD_ISO04W100
 10
518.9846126457
 20
283.6841742519
 11
508.2078469713
 21
260.5733256825
  0
LINE
  5
482
100
AcDbEntity
  8
______
100
AcDbLine
 62
5
  6
ACAD_ISO04W100
 10
519.4827099948
 20
283.7277521233
 11
508.4946351895
 21
260.1637496604
  0
LINE
  5
483
100
AcDbEntity
  8
______
100
AcDbLine
 62
5
  6
ACAD_ISO04W100
 10
522.2647499915
 20
285.3543025563
 11
521.1271200157
 21
282.9146472001
  0
LINE
  5
484
100
AcDbEntity
  8
______
100
AcDbLine
 62
5
  6
ACAD_ISO04W100
 10
532.0528740915
 20
280.7900253295
 11
530.9152422573
 21
278.350365988
  0
LINE
  5
485
100
AcDbEntity
  8
______
100
AcDbLine
 62
5
  6
ACAD_ISO04W100
 10
531.0236103313
 20
278.3461419144
 11
520.0355355261
 21
254.7821394514
  0
LINE
  5
486
100
AcDbEntity
  8
______
100
AcDbLine
 62
5
  6
ACAD_ISO04W100
 10
532.8819774003
 20
276.2698696587
 11
522.8205876762
 21
254.6931497653
  0
LINE
  5
487
100
AcDbEntity
  8
______
100
AcDbLine
 62
5
  6
ACAD_ISO04W100
 10
532.8614150649
 20
275.8985826094
 11
523.0917928426
 21
254.9475601431
  0
LINE
  5
488
100
AcDbEntity
  8
______
100
AcDbLine
 62
5
  6
ACAD_ISO04W100
 10
538.8984764857
 20
288.135242131
 11
539.0252619642
 21
288.4071344671
  0
LINE
  5
489
100
AcDbEntity
  8
______
100
AcDbLine
 62
5
  6
ACAD_ISO04W100
 10
531.9774297701
 20
270.4535676526
 11
526.6947014984
 21
259.1247203146
  0
LINE
  5
48A
100
AcDbEntity
  8
______
100
AcDbLine
 62
5
  6
ACAD_ISO04W100
 10
566.1960580826
 20
337.2102884461
 11
566.9510431624
 21
338.8293591748
  0
LINE
  5
48B
100
AcDbEntity
  8
0
100
AcDbLine
 62
1
  6
CONTINUOUS
 10
436.7651456606
 20
170.7781199996
 11
437.7651456606
 21
171.7781199996
  0
LINE
  5
48C
100
AcDbEntity
  8
0
100
AcDbLine
 62
1
  6
CONTINUOUS
 10
434.7651456606
 20
156.3238580239
 11
435.3651456606
 21
156.9238580239
  0
LINE
  5
48D
100
AcDbEntity
  8
0
100
AcDbLine
 62
1
  6
CONTINUOUS
 10
458.8651456606
 20
181.8238580239
 11
458.1153856317
 21
181.1947346602
  0
LINE
  5
48E
100
AcDbEntity
  8
0
100
AcDbLine
 62
1
  6
CONTINUOUS
 10
460.3651456606
 20
182.6793511034
 11
459.1433749243
 21
181.8238580239
  0
LINE
  5
48F
100
AcDbEntity
  8
0
100
AcDbLine
 62
1
  6
CONTINUOUS
 10
448.0286039563
 20
192.8238580239
 11
464.4226838398
 21
199.3238580239
  0
LINE
  5
490
100
AcDbEntity
  8
0
100
AcDbLine
 62
1
  6
CONTINUOUS
 10
466.9278651925
 20
199.3238580239
 11
450.533785309
 21
192.8238580239
  0
LINE
  5
491
100
AcDbEntity
  8
0
100
AcDbLine
 62
1
  6
CONTINUOUS
 10
420.2453305109
 20
395.226889339
 11
440.4849608102
 21
395.226889339
  0
LINE
  5
492
100
AcDbEntity
  8
0
100
AcDbLine
 62
1
  6
CONTINUOUS
 10
419.6920357446
 20
398.0249549369
 11
441.0382555765
 21
398.0249549369
  0
LINE
  5
493
100
AcDbEntity
  8
0
100
AcDbLine
 62
1
  6
CONTINUOUS
 10
418.1151456606
 20
400.9492750717
 11
442.6151456606
 21
400.9492750717
  0
LINE
  5
494
100
AcDbEntity
  8
0
100
AcDbLine
 62
1
  6
CONTINUOUS
 10
418.1151456606
 20
411.9741833635
 11
442.6151456606
 21
411.9741833635
  0
LINE
  5
495
100
AcDbEntity
  8
0
100
AcDbLine
 62
1
  6
CONTINUOUS
 10
418.446110446
 20
414.5256061077
 11
442.2841808751
 21
414.5256061077
  0
LINE
  5
496
100
AcDbEntity
  8
______
100
AcDbLine
 62
5
  6
ACAD_ISO04W100
 10
543.5383634067
 20
347.7757449897
 11
566.1960580826
 21
337.2102884461
  0
LINE
  5
497
100
AcDbEntity
  8
______
100
AcDbLine
 62
5
  6
ACAD_ISO04W100
 10
544.2933484865
 20
349.3948157183
 11
566.9510431624
 21
338.8293591748
  0
LINE
  5
498
100
AcDbEntity
  8
______
100
AcDbLine
 62
5
  6
ACAD_ISO04W100
 10
555.5607222561
 20
354.0366136821
 11
563.2643384459
 21
350.4443584573
  0
LINE
  5
499
100
AcDbEntity
  8
______
100
AcDbLine
 62
5
  6
ACAD_ISO04W100
 10
553.9879134579
 20
354.8045671003
 11
564.8636069024
 21
349.7331479594
  0
LINE
  5
49A
100
AcDbEntity
  8
______
100
AcDbLine
 62
5
  6
ACAD_ISO04W100
 10
555.8896956358
 20
358.882952142
 11
566.7653890802
 21
353.8115330011
  0
LINE
  5
49B
100
AcDbEntity
  8
0
100
AcDbLine
 62
1
  6
CONTINUOUS
 10
199.3768895483
 20
421.8783930211
 11
220.5471757523
 21
421.8783930211
  0
LINE
  5
49C
100
AcDbEntity
  8
0
100
AcDbLine
 62
1
  6
CONTINUOUS
 10
655.9646807632
 20
421.8783930211
 11
677.1349669672
 21
421.8783930211
  0
LINE
  5
49D
100
AcDbEntity
  8
0
100
AcDbLine
 62
1
  6
CONTINUOUS
 10
655.7683576853
 20
422.0402190892
 11
677.3312900451
 21
422.0402190892
  0
LINE
  5
49E
100
AcDbEntity
  8
0
100
AcDbLine
 62
1
  6
CONTINUOUS
 10
679.0206497342
 20
430.7283546333
 11
654.0789979961
 21
430.7283546333
  0
LINE
  5
49F
100
AcDbEntity
  8
0
100
AcDbLine
 62
1
  6
CONTINUOUS
 10
679.1579040385
 20
430.9864731943
 11
653.9417436919
 21
430.9864731943
  0
LINE
  5
4A0
100
AcDbEntity
  8
0
100
AcDbLine
 62
1
  6
CONTINUOUS
 10
653.342717084
 20
431.5854998022
 11
679.7569306464
 21
431.5854998022
  0
LINE
  5
4A1
100
AcDbEntity
  8
0
100
AcDbLine
 62
1
  6
CONTINUOUS
 10
653.0498238652
 20
432.2926065834
 11
680.0498238652
 21
432.2926065834
  0
LINE
  5
4A2
100
AcDbEntity
  8
0
100
AcDbLine
 62
1
  6
CONTINUOUS
 10
680.0498238652
 20
435.6783930211
 11
653.0498238652
 21
435.6783930211
  0
LINE
  5
4A3
100
AcDbEntity
  8
0
100
AcDbLine
 62
1
  6
CONTINUOUS
 10
194.4620326503
 20
435.8783930211
 11
225.4620326503
 21
435.8783930211
  0
LINE
  5
4A4
100
AcDbEntity
  8
0
100
AcDbLine
 62
1
  6
CONTINUOUS
 10
651.0498238652
 20
435.8783930211
 11
682.0498238652
 21
435.8783930211
  0
LINE
  5
4A5
100
AcDbEntity
  8
0
100
AcDbLine
 62
1
  6
CONTINUOUS
 10
194.4620326503
 20
439.8783930211
 11
225.4620326503
 21
439.8783930211
  0
LINE
  5
4A6
100
AcDbEntity
  8
0
100
AcDbLine
 62
1
  6
CONTINUOUS
 10
651.0498238652
 20
439.8783930211
 11
682.0498238652
 21
439.8783930211
  0
LINE
  5
4A7
100
AcDbEntity
  8
0
100
AcDbLine
 62
1
  6
CONTINUOUS
 10
680.0498238652
 20
440.0783930211
 11
653.0498238652
 21
440.0783930211
  0
LINE
  5
4A8
100
AcDbEntity
  8
0
100
AcDbLine
 62
1
  6
CONTINUOUS
 10
653.0498238652
 20
443.6783930211
 11
680.0498238652
 21
443.6783930211
  0
LINE
  5
4A9
100
AcDbEntity
  8
0
100
AcDbLine
 62
1
  6
CONTINUOUS
 10
196.6621887283
 20
443.8783930211
 11
223.2618765724
 21
443.8783930211
  0
LINE
  5
4AA
100
AcDbEntity
  8
0
100
AcDbLine
 62
1
  6
CONTINUOUS
 10
653.2498238652
 20
443.8783930211
 11
679.8498238652
 21
443.8783930211
  0
LINE
  5
4AB
100
AcDbEntity
  8
0
100
AcDbLine
 62
1
  6
CONTINUOUS
 10
418.2328751519
 20
444.9078059662
 11
442.4974161692
 21
444.9078059662
  0
LINE
  5
4AC
100
AcDbEntity
  8
0
100
AcDbLine
 62
1
  6
CONTINUOUS
 10
653.5498238652
 20
446.3783930211
 11
679.5498238652
 21
446.3783930211
  0
LINE
  5
4AD
100
AcDbEntity
  8
0
100
AcDbLine
 62
1
  6
CONTINUOUS
 10
197.4621791333
 20
446.8783930211
 11
222.4618861673
 21
446.8783930211
  0
LINE
  5
4AE
100
AcDbEntity
  8
0
100
AcDbLine
 62
1
  6
CONTINUOUS
 10
654.0498238652
 20
446.8783930211
 11
679.0498238652
 21
446.8783930211
  0
LINE
  5
4AF
100
AcDbEntity
  8
0
100
AcDbLine
 62
1
  6
CONTINUOUS
 10
417.8651456606
 20
447.5946935425
 11
442.8651456606
 21
447.5946935425
  0
LINE
  5
4B0
100
AcDbEntity
  8
0
100
AcDbLine
 62
1
  6
CONTINUOUS
 10
655.9802435856
 20
447.8755859383
 11
677.1194041447
 21
447.8755859383
  0
LINE
  5
4B1
100
AcDbEntity
  8
0
100
AcDbLine
 62
1
  6
CONTINUOUS
 10
199.4620326503
 20
447.9651160947
 11
220.4620326503
 21
447.9651160947
  0
LINE
  5
4B2
100
AcDbEntity
  8
0
100
AcDbLine
 62
1
  6
CONTINUOUS
 10
656.0498238652
 20
447.9651160947
 11
677.0498238652
 21
447.9651160947
  0
LINE
  5
4B3
100
AcDbEntity
  8
0
100
AcDbLine
 62
1
  6
CONTINUOUS
 10
403.0065115704
 20
458.1836716615
 11
400.1698552558
 21
459.6019998188
  0
LINE
  5
4B4
100
AcDbEntity
  8
0
100
AcDbLine
 62
1
  6
CONTINUOUS
 10
575.929057159
 20
472.3783930211
 11
575.929057159
 21
454.3783930211
  0
LINE
  5
4B5
100
AcDbEntity
  8
0
100
AcDbLine
 62
1
  6
CONTINUOUS
 10
516.6228806875
 20
120.353314926
 11
516.9981583624
 21
121.003314926
  0
LINE
  5
4B6
100
AcDbEntity
  8
0
100
AcDbLine
 62
1
  6
CONTINUOUS
 10
403.0065115704
 20
113.5480362855
 11
400.1698552558
 21
112.1297081282
  0
LINE
  5
4B7
100
AcDbEntity
  8
0
100
AcDbLine
 62
1
  6
CONTINUOUS
 10
442.9651456606
 20
451.3238580239
 11
417.7651456606
 21
451.3238580239
  0
LINE
  5
4B8
100
AcDbEntity
  8
0
100
AcDbLine
 62
1
  6
CONTINUOUS
 10
222.5620326503
 20
451.3238580239
 11
219.0819353569
 21
451.3238580239
  0
LINE
  5
4B9
100
AcDbEntity
  8
0
100
AcDbLine
 62
1
  6
CONTINUOUS
 10
200.8421299437
 20
451.3238580239
 11
197.3620326503
 21
451.3238580239
  0
LINE
  5
4BA
100
AcDbEntity
  8
0
100
AcDbLine
 62
1
  6
CONTINUOUS
 10
417.6194809207
 20
451.3868113765
 11
443.1108104004
 21
451.3868113765
  0
LINE
  5
4BB
100
AcDbEntity
  8
0
100
AcDbLine
 62
1
  6
CONTINUOUS
 10
675.5498238652
 20
452.3956649854
 11
657.5498238652
 21
452.3956649854
  0
LINE
  5
4BC
100
AcDbEntity
  8
0
100
AcDbLine
 62
1
  6
CONTINUOUS
 10
461.3651456606
 20
452.8783930211
 11
459.9293041698
 21
452.8783930211
  0
LINE
  5
4BD
100
AcDbEntity
  8
0
100
AcDbLine
 62
1
  6
CONTINUOUS
 10
447.1651456606
 20
452.8783930211
 11
444.4647910462
 21
452.8783930211
  0
LINE
  5
4BE
100
AcDbEntity
  8
0
100
AcDbLine
 62
1
  6
CONTINUOUS
 10
449.279475515
 20
453.8783930211
 11
447.5651456606
 21
453.8783930211
  0
LINE
  5
4BF
100
AcDbEntity
  8
0
100
AcDbLine
 62
1
  6
CONTINUOUS
 10
462.3651456606
 20
454.3783930211
 11
575.929057159
 21
454.3783930211
  0
LINE
  5
4C0
100
AcDbEntity
  8
0
100
AcDbLine
 62
1
  6
CONTINUOUS
 10
413.9822277275
 20
456.8783930211
 11
412.8170688513
 21
456.8783930211
  0
LINE
  5
4C1
100
AcDbEntity
  8
0
100
AcDbLine
 62
1
  6
CONTINUOUS
 10
412.4170688513
 20
457.3783930211
 11
411.2330615685
 21
457.3783930211
  0
LINE
  5
4C2
100
AcDbEntity
  8
0
100
AcDbLine
 62
1
  6
CONTINUOUS
 10
404.0010761341
 20
457.3783930211
 11
403.3170688513
 21
457.3783930211
  0
LINE
  5
4C3
100
AcDbEntity
  8
0
100
AcDbLine
 62
1
  6
CONTINUOUS
 10
412.4170688513
 20
469.3783930211
 11
411.2330615685
 21
469.3783930211
  0
LINE
  5
4C4
100
AcDbEntity
  8
0
100
AcDbLine
 62
1
  6
CONTINUOUS
 10
404.0010761341
 20
469.3783930211
 11
403.3170688513
 21
469.3783930211
  0
LINE
  5
4C5
100
AcDbEntity
  8
0
100
AcDbLine
 62
1
  6
CONTINUOUS
 10
413.9822277275
 20
469.8783930211
 11
412.8170688513
 21
469.8783930211
  0
LINE
  5
4C6
100
AcDbEntity
  8
0
100
AcDbLine
 62
1
  6
CONTINUOUS
 10
462.3651456606
 20
472.3783930211
 11
575.929057159
 21
472.3783930211
  0
LINE
  5
4C7
100
AcDbEntity
  8
0
100
AcDbLine
 62
1
  6
CONTINUOUS
 10
449.279475515
 20
472.8783930211
 11
447.5651456606
 21
472.8783930211
  0
LINE
  5
4C8
100
AcDbEntity
  8
0
100
AcDbLine
 62
1
  6
CONTINUOUS
 10
461.3651456606
 20
473.8783930211
 11
459.9293041698
 21
473.8783930211
  0
LINE
  5
4C9
100
AcDbEntity
  8
0
100
AcDbLine
 62
1
  6
CONTINUOUS
 10
447.1651456606
 20
473.8783930211
 11
444.4647910462
 21
473.8783930211
  0
LINE
  5
4CA
100
AcDbEntity
  8
0
100
AcDbLine
 62
1
  6
CONTINUOUS
 10
437.8891073829
 20
479.1783930211
 11
422.8411839382
 21
479.1783930211
  0
LINE
  5
4CB
100
AcDbEntity
  8
0
100
AcDbLine
 62
1
  6
CONTINUOUS
 10
423.1151456606
 20
480.5783930211
 11
437.6151456606
 21
480.5783930211
  0
LINE
  5
4CC
100
AcDbEntity
  8
0
100
AcDbLine
 62
1
  6
CONTINUOUS
 10
424.9151456606
 20
482.3783930211
 11
435.8151456606
 21
482.3783930211
  0
LINE
  5
4CD
100
AcDbEntity
  8
0
100
AcDbLine
 62
1
  6
CONTINUOUS
 10
435.3651456606
 20
482.6783930211
 11
425.3651456606
 21
482.6783930211
  0
LINE
  5
4CE
100
AcDbEntity
  8
0
100
AcDbLine
 62
1
  6
CONTINUOUS
 10
435.3651456606
 20
483.0233959537
 11
425.3651456606
 21
483.0233959537
  0
LINE
  5
4CF
100
AcDbEntity
  8
0
100
AcDbLine
 62
1
  6
CONTINUOUS
 10
435.4894550528
 20
483.2665683418
 11
425.2408362683
 21
483.2665683418
  0
LINE
  5
4D0
100
AcDbEntity
  8
0
100
AcDbLine
 62
1
  6
CONTINUOUS
 10
434.6219024173
 20
498.0038672162
 11
426.1083889038
 21
498.0038672162
  0
LINE
  5
4D1
100
AcDbEntity
  8
0
100
AcDbLine
 62
1
  6
CONTINUOUS
 10
434.3651456606
 20
498.4407112669
 11
426.3651456606
 21
498.4407112669
  0
LINE
  5
4D2
100
AcDbEntity
  8
0
100
AcDbLine
 62
1
  6
CONTINUOUS
 10
434.3651456606
 20
499.3489377552
 11
426.3651456606
 21
499.3489377552
  0
LINE
  5
4D3
100
AcDbEntity
  8
0
100
AcDbLine
 62
1
  6
CONTINUOUS
 10
434.4738413127
 20
499.6601947349
 11
426.2564500084
 21
499.6601947349
  0
LINE
  5
4D4
100
AcDbEntity
  8
0
100
AcDbLine
 62
1
  6
CONTINUOUS
 10
653.0498238652
 20
432.2926065834
 11
653.0498238652
 21
435.6783930211
  0
LINE
  5
4D5
100
AcDbEntity
  8
0
100
AcDbLine
 62
1
  6
CONTINUOUS
 10
653.0498238652
 20
440.0783930211
 11
653.0498238652
 21
443.6783930211
  0
LINE
  5
4D6
100
AcDbEntity
  8
0
100
AcDbLine
 62
1
  6
CONTINUOUS
 10
653.5498238652
 20
443.8783930211
 11
653.5498238652
 21
446.3783930211
  0
LINE
  5
4D7
100
AcDbEntity
  8
0
100
AcDbLine
 62
1
  6
CONTINUOUS
 10
656.0498238652
 20
446.8783930211
 11
656.0498238652
 21
447.9651160947
  0
LINE
  5
4D8
100
AcDbEntity
  8
0
100
AcDbLine
 62
1
  6
CONTINUOUS
 10
677.3312900451
 20
422.0402190892
 11
679.0206497342
 21
430.7283546333
  0
LINE
  5
4D9
100
AcDbEntity
  8
0
100
AcDbLine
 62
1
  6
CONTINUOUS
 10
589.7069580291
 20
476.329142521
 11
599.2455047853
 21
461.0642767902
  0
LINE
  5
4DA
100
AcDbEntity
  8
______
100
AcDbLine
 62
6
  6
CENTER
 10
666.5498238652
 20
451.8783930211
 11
666.5498238652
 21
416.8783930211
  0
LINE
  5
4DB
100
AcDbEntity
  8
0
100
AcDbLine
 62
1
  6
CONTINUOUS
 10
677.0498238652
 20
446.8783930211
 11
677.0498238652
 21
447.9651160947
  0
LINE
  5
4DC
100
AcDbEntity
  8
0
100
AcDbLine
 62
1
  6
CONTINUOUS
 10
679.5498238652
 20
443.8783930211
 11
679.5498238652
 21
446.3783930211
  0
LINE
  5
4DD
100
AcDbEntity
  8
0
100
AcDbLine
 62
1
  6
CONTINUOUS
 10
680.0498238652
 20
432.2926065834
 11
680.0498238652
 21
435.6783930211
  0
LINE
  5
4DE
100
AcDbEntity
  8
0
100
AcDbLine
 62
1
  6
CONTINUOUS
 10
680.0498238652
 20
440.0783930211
 11
680.0498238652
 21
443.6783930211
  0
LINE
  5
4DF
100
AcDbEntity
  8
________
100
AcDbLine
 62
7
  6
CONTINUOUS
 10
146.2026091321
 20
547.7051846266
 11
0.0
 21
547.7051846266
  0
LINE
  5
4E0
100
AcDbEntity
  8
0
100
AcDbLine
 62
1
  6
CONTINUOUS
 10
653.9417436919
 20
430.9864731943
 11
653.342717084
 21
431.5854998022
  0
LINE
  5
4E1
100
AcDbEntity
  8
0
100
AcDbLine
 62
1
  6
CONTINUOUS
 10
609.7632955032
 20
488.8617331201
 11
619.3018422594
 21
473.5968673893
  0
LINE
  5
4E2
100
AcDbEntity
  8
0
100
AcDbLine
 62
1
  6
CONTINUOUS
 10
655.7683576853
 20
422.0402190892
 11
654.0789979961
 21
430.7283546333
  0
LINE
  5
4E3
100
AcDbEntity
  8
0
100
AcDbLine
 62
7
  6
CONTINUOUS
 10
0.0
 20
598.5
 11
846.45
 21
598.5
  0
LINE
  5
4E4
100
AcDbEntity
  8
________
100
AcDbLine
 62
7
  6
CONTINUOUS
 10
0.0
 20
598.5
 11
846.45
 21
598.5
  0
LINE
  5
4E5
100
AcDbEntity
  8
0
100
AcDbLine
 62
7
  6
CONTINUOUS
 10
846.45
 20
0.0
 11
846.45
 21
598.5
  0
LINE
  5
4E6
100
AcDbEntity
  8
________
100
AcDbLine
 62
7
  6
CONTINUOUS
 10
846.45
 20
0.0
 11
846.45
 21
598.5
  0
ARC
  5
4E7
100
AcDbEntity
  8
______
100
AcDbCircle
 62
5
  6
ACAD_ISO04W100
 10
12.1908400697
 20
49.0736998178
 40
300.0
100
AcDbArc
 50
55.0
 51
63.2131019577
  0
ARC
  5
4E8
100
AcDbEntity
  8
______
100
AcDbCircle
 62
5
  6
ACAD_ISO04W100
 10
291.5786001993
 20
-11.4607808132
 40
300.0
100
AcDbArc
 50
110.0
 51
118.2131019577
  0
ARC
  5
4E9
100
AcDbEntity
  8
______
100
AcDbCircle
 62
5
  6
ACAD_ISO04W100
 10
99.0491259431
 20
270.2538032972
 40
90.0
100
AcDbArc
 50
46.7868980423
 51
55.0
  0
ARC
  5
4EA
100
AcDbEntity
  8
______
100
AcDbCircle
 62
5
  6
ACAD_ISO04W100
 10
160.2183323569
 20
186.5530571689
 40
90.0
100
AcDbArc
 50
101.7868980423
 51
110.0
  0
ARC
  5
4EB
100
AcDbEntity
  8
______
100
AcDbCircle
 62
5
  6
ACAD_ISO04W100
 10
130.8359897864
 20
262.0571586308
 40
9.0
100
AcDbArc
 50
110.0
 51
195.2198081528
  0
ARC
  5
4EC
100
AcDbEntity
  8
______
100
AcDbCircle
 62
5
  6
ACAD_ISO04W100
 10
133.2301307897
 20
255.4793102853
 40
9.0
100
AcDbArc
 50
204.7801918473
 51
290.0
  0
ARC
  5
4ED
100
AcDbEntity
  8
______
100
AcDbCircle
 62
5
  6
ACAD_ISO04W100
 10
187.8179803858
 20
274.4963204728
 40
4.2
100
AcDbArc
 50
290.0
 51
20.0
  0
ARC
  5
4EE
100
AcDbEntity
  8
0
100
AcDbCircle
 62
1
  6
CONTINUOUS
 10
231.2350738911
 20
184.0462600386
 40
3.7224020147
100
AcDbArc
 50
270.0
 51
309.9999999999
  0
ARC
  5
4EF
100
AcDbEntity
  8
______
100
AcDbCircle
 62
5
  6
ACAD_ISO04W100
 10
123.5136391642
 20
249.2823521209
 40
2.25
100
AcDbArc
 50
200.0
 51
20.0
  0
ARC
  5
4F0
100
AcDbEntity
  8
______
100
AcDbCircle
 62
5
  6
ACAD_ISO04W100
 10
119.4093974442
 20
260.5586635703
 40
2.25
100
AcDbArc
 50
20.0
 51
200.0
  0
ARC
  5
4F1
100
AcDbEntity
  8
______
100
AcDbCircle
 62
5
  6
ACAD_ISO04W100
 10
194.6157051142
 20
274.6012785455
 40
2.2236695405
100
AcDbArc
 50
200.0
 51
360.0
  0
ARC
  5
4F2
100
AcDbEntity
  8
0
100
AcDbCircle
 62
1
  6
CONTINUOUS
 10
184.9620326503
 20
239.3238580239
 40
1.5
100
AcDbArc
 50
90.0
 51
180.0
  0
ARC
  5
4F3
100
AcDbEntity
  8
0
100
AcDbCircle
 62
1
  6
CONTINUOUS
 10
234.9620326503
 20
239.3238580239
 40
1.5
100
AcDbArc
 50
0.0
 51
90.0
  0
ARC
  5
4F4
100
AcDbEntity
  8
______
100
AcDbCircle
 62
5
  6
ACAD_ISO04W100
 10
197.3393746547
 20
276.2591401395
 40
0.5
100
AcDbArc
 50
110.0
 51
180.0
  0
ARC
  5
4F5
100
AcDbEntity
  8
0
100
AcDbCircle
 62
1
  6
CONTINUOUS
 10
190.0120326503
 20
241.1238580239
 40
0.3
100
AcDbArc
 50
180.0
 51
270.0
  0
ARC
  5
4F6
100
AcDbEntity
  8
0
100
AcDbCircle
 62
1
  6
CONTINUOUS
 10
229.9120326503
 20
241.1238580239
 40
0.3
100
AcDbArc
 50
270.0
 51
360.0
  0
ARC
  5
4F7
100
AcDbEntity
  8
0
100
AcDbCircle
 62
1
  6
CONTINUOUS
 10
183.6620326503
 20
235.0238580239
 40
0.2
100
AcDbArc
 50
180.0
 51
270.0
  0
ARC
  5
4F8
100
AcDbEntity
  8
0
100
AcDbCircle
 62
1
  6
CONTINUOUS
 10
236.2620326503
 20
235.0238580239
 40
0.2
100
AcDbArc
 50
270.0
 51
360.0
  0
ARC
  5
4F9
100
AcDbEntity
  8
0
100
AcDbCircle
 62
1
  6
CONTINUOUS
 10
226.2620326503
 20
231.0238580239
 40
0.2
100
AcDbArc
 50
270.0
 51
360.0
  0
ARC
  5
4FA
100
AcDbEntity
  8
0
100
AcDbCircle
 62
1
  6
CONTINUOUS
 10
193.6620326503
 20
231.0238580239
 40
0.2
100
AcDbArc
 50
180.0
 51
270.0
  0
ARC
  5
4FB
100
AcDbEntity
  8
________
100
AcDbCircle
 62
6
  6
PHANTOM
 10
122.6693007665
 20
258.7654735833
 40
0.2
100
AcDbArc
 50
200.0000000051
 51
230.8453765088
  0
ARC
  5
4FC
100
AcDbEntity
  8
________
100
AcDbCircle
 62
6
  6
PHANTOM
 10
124.8582296839
 20
252.7514408102
 40
0.2
100
AcDbArc
 50
169.1546234913
 51
199.9999999949
  0
ARC
  5
4FD
100
AcDbEntity
  8
0
100
AcDbCircle
 62
1
  6
CONTINUOUS
 10
-98.4724521866
 20
312.655906354
 40
300.0
100
AcDbArc
 50
0.0
 51
8.2131019578
  0
ARC
  5
4FE
100
AcDbEntity
  8
______
100
AcDbCircle
 62
5
  6
ACAD_ISO04W100
 10
107.2052101415
 20
332.2054133907
 40
90.0
100
AcDbArc
 50
290.0
 51
298.2131019577
  0
ARC
  5
4FF
100
AcDbEntity
  8
0
100
AcDbCircle
 62
1
  6
CONTINUOUS
 10
132.5275478134
 20
368.3694594628
 40
90.0
100
AcDbArc
 50
351.7868980424
 51
360.0
  0
ARC
  5
500
100
AcDbEntity
  8
______
100
AcDbCircle
 62
5
  6
ACAD_ISO04W100
 10
129.381009021
 20
336.3005732144
 40
2.25
100
AcDbArc
 50
145.0
 51
325.0
  0
ARC
  5
501
100
AcDbEntity
  8
______
100
AcDbCircle
 62
5
  6
ACAD_ISO04W100
 10
132.9939455513
 20
337.1889366693
 40
0.2
100
AcDbArc
 50
114.1546234913
 51
144.9999999949
  0
ARC
  5
502
100
AcDbEntity
  8
______
100
AcDbCircle
 62
5
  6
ACAD_ISO04W100
 10
80.5521717673
 20
568.3295662116
 40
300.0
100
AcDbArc
 50
281.7868980423
 51
290.0
  0
ARC
  5
503
100
AcDbEntity
  8
0
100
AcDbCircle
 62
1
  6
CONTINUOUS
 10
161.2608323957
 20
350.3238580239
 40
38.7
100
AcDbArc
 50
342.5202966328
 51
17.4797033672
  0
ARC
  5
504
100
AcDbEntity
  8
0
100
AcDbCircle
 62
1
  6
CONTINUOUS
 10
210.0275478133
 20
287.155906354
 40
26.5
100
AcDbArc
 50
163.7074078017
 51
71.2941337943
  0
ARC
  5
505
100
AcDbEntity
  8
0
100
AcDbCircle
 62
1
  6
CONTINUOUS
 10
210.0275478133
 20
287.155906354
 40
26.5
100
AcDbArc
 50
108.7058662053
 51
126.2925921981
  0
CIRCLE
  5
506
100
AcDbEntity
  8
0
100
AcDbCircle
 62
1
  6
CONTINUOUS
 10
210.0275478133
 20
287.155906354
 40
13.0
  0
ARC
  5
507
100
AcDbEntity
  8
0
100
AcDbCircle
 62
1
  6
CONTINUOUS
 10
207.7120326503
 20
335.6959396857
 40
10.0
100
AcDbArc
 50
162.5202966328
 51
180.0
  0
CIRCLE
  5
508
100
AcDbEntity
  8
0
100
AcDbCircle
 62
1
  6
CONTINUOUS
 10
210.0275478133
 20
287.155906354
 40
9.5
  0
ARC
  5
509
100
AcDbEntity
  8
______
100
AcDbCircle
 62
5
  6
ACAD_ISO04W100
 10
144.0454456646
 20
337.6297827262
 40
9.0
100
AcDbArc
 50
55.0
 51
140.2198081528
  0
ARC
  5
50A
100
AcDbEntity
  8
______
100
AcDbCircle
 62
5
  6
ACAD_ISO04W100
 10
140.0304106101
 20
331.8957184162
 40
9.0
100
AcDbArc
 50
149.7801918472
 51
235.0
  0
CIRCLE
  5
50B
100
AcDbEntity
  8
0
100
AcDbCircle
 62
1
  6
CONTINUOUS
 10
210.0275478133
 20
287.155906354
 40
8.25
  0
ARC
  5
50C
100
AcDbEntity
  8
______
100
AcDbCircle
 62
5
  6
ACAD_ISO04W100
 10
186.9185376209
 20
298.0876787596
 40
4.2
100
AcDbArc
 50
235.0
 51
325.0
  0
ARC
  5
50D
100
AcDbEntity
  8
______
100
AcDbCircle
 62
5
  6
ACAD_ISO04W100
 10
191.8512949735
 20
305.1323863405
 40
4.2
100
AcDbArc
 50
325.0
 51
55.0
  0
ARC
  5
50E
100
AcDbEntity
  8
______
100
AcDbCircle
 62
5
  6
ACAD_ISO04W100
 10
184.8766071532
 20
282.5776770116
 40
4.2
100
AcDbArc
 50
20.0
 51
110.0
  0
ARC
  5
50F
100
AcDbEntity
  8
0
100
AcDbCircle
 62
1
  6
CONTINUOUS
 10
205.7275478134
 20
312.3559063542
 40
4.2
100
AcDbArc
 50
180.0
 51
270.0
  0
ARC
  5
510
100
AcDbEntity
  8
______
100
AcDbCircle
 62
5
  6
ACAD_ISO04W100
 10
136.2639262572
 20
346.1303977459
 40
2.25
100
AcDbArc
 50
325.0
 51
145.0
  0
ARC
  5
511
100
AcDbEntity
  8
______
100
AcDbCircle
 62
5
  6
ACAD_ISO04W100
 10
190.9035289657
 20
292.5795101291
 40
2.2236695405
100
AcDbArc
 50
145.0
 51
305.0
  0
ARC
  5
512
100
AcDbEntity
  8
______
100
AcDbCircle
 62
5
  6
ACAD_ISO04W100
 10
198.3902277006
 20
303.2716240044
 40
2.2236695405
100
AcDbArc
 50
345.0
 51
145.0
  0
ARC
  5
513
100
AcDbEntity
  8
______
100
AcDbCircle
 62
5
  6
ACAD_ISO04W100
 10
190.1514321559
 20
286.8667676928
 40
2.2236695405
100
AcDbArc
 50
40.0000000001
 51
200.0
  0
ARC
  5
514
100
AcDbEntity
  8
0
100
AcDbCircle
 62
1
  6
CONTINUOUS
 10
203.5012173538
 20
305.9322368137
 40
2.2236695405
100
AcDbArc
 50
90.0
 51
250.0
  0
ARC
  5
515
100
AcDbEntity
  8
______
100
AcDbCircle
 62
5
  6
ACAD_ISO04W100
 10
200.5920042973
 20
300.9653151247
 40
0.5
100
AcDbArc
 50
165.0
 51
235.0
  0
ARC
  5
516
100
AcDbEntity
  8
______
100
AcDbCircle
 62
5
  6
ACAD_ISO04W100
 10
193.8238023484
 20
291.2993210021
 40
0.5
100
AcDbArc
 50
55.0
 51
125.0
  0
ARC
  5
517
100
AcDbEntity
  8
______
100
AcDbCircle
 62
5
  6
ACAD_ISO04W100
 10
193.3035369634
 20
287.3475130647
 40
0.5
100
AcDbArc
 50
220.0000000001
 51
290.0
  0
ARC
  5
518
100
AcDbEntity
  8
0
100
AcDbCircle
 62
1
  6
CONTINUOUS
 10
204.1275478134
 20
302.8058025851
 40
0.5
100
AcDbArc
 50
0.0
 51
70.0
  0
ARC
  5
519
100
AcDbEntity
  8
0
100
AcDbCircle
 62
1
  6
CONTINUOUS
 10
196.7620326503
 20
323.5238580239
 40
0.3
100
AcDbArc
 50
90.0
 51
180.0
  0
ARC
  5
51A
100
AcDbEntity
  8
______
100
AcDbCircle
 62
5
  6
ACAD_ISO04W100
 10
136.6648347439
 20
342.4315097528
 40
0.2
100
AcDbArc
 50
145.0000000051
 51
175.8453765087
  0
ARC
  5
51B
100
AcDbEntity
  8
______
100
AcDbCircle
 62
5
  6
ACAD_ISO04W100
 10
187.9534735775
 20
397.2223701619
 40
90.0
100
AcDbArc
 50
235.0
 51
243.2131019577
  0
ARC
  5
51C
100
AcDbEntity
  8
0
100
AcDbCircle
 62
1
  6
CONTINUOUS
 10
209.9620326503
 20
388.3238580239
 40
12.25
100
AcDbArc
 50
325.7009216482
 51
34.2990783518
  0
ARC
  5
51D
100
AcDbEntity
  8
0
100
AcDbCircle
 62
1
  6
CONTINUOUS
 10
209.9620326503
 20
388.3238580239
 40
12.25
100
AcDbArc
 50
145.7009216482
 51
214.2990783518
  0
ARC
  5
51E
100
AcDbEntity
  8
0
100
AcDbCircle
 62
1
  6
CONTINUOUS
 10
207.7120326503
 20
364.9517763621
 40
10.0
100
AcDbArc
 50
180.0
 51
197.4797033672
  0
ARC
  5
51F
100
AcDbEntity
  8
0
100
AcDbCircle
 62
1
  6
CONTINUOUS
 10
207.7120326503
 20
411.9741833635
 40
10.0
100
AcDbArc
 50
165.2179842608
 51
180.0
  0
ARC
  5
520
100
AcDbEntity
  8
0
100
AcDbCircle
 62
1
  6
CONTINUOUS
 10
206.5275478133
 20
370.1559063541
 40
9.0
100
AcDbArc
 50
94.7801918472
 51
180.0
  0
ARC
  5
521
100
AcDbEntity
  8
0
100
AcDbCircle
 62
1
  6
CONTINUOUS
 10
201.2120326503
 20
375.698440976
 40
3.5
100
AcDbArc
 50
123.329972951
 51
180.0
  0
ARC
  5
522
100
AcDbEntity
  8
0
100
AcDbCircle
 62
1
  6
CONTINUOUS
 10
201.2120326503
 20
400.9492750717
 40
3.5
100
AcDbArc
 50
180.0
 51
236.670027049
  0
ARC
  5
523
100
AcDbEntity
  8
0
100
AcDbCircle
 62
1
  6
CONTINUOUS
 10
204.0275478133
 20
381.4059063542
 40
2.25
100
AcDbArc
 50
90.0
 51
270.0
  0
ARC
  5
524
100
AcDbEntity
  8
0
100
AcDbCircle
 62
1
  6
CONTINUOUS
 10
198.1900027824
 20
380.293801188
 40
2.0
100
AcDbArc
 50
303.329972951
 51
34.2990783518
  0
ARC
  5
525
100
AcDbEntity
  8
0
100
AcDbCircle
 62
1
  6
CONTINUOUS
 10
198.1900027824
 20
396.3539148598
 40
2.0
100
AcDbArc
 50
325.7009216482
 51
56.670027049
  0
ARC
  5
526
100
AcDbEntity
  8
0
100
AcDbCircle
 62
1
  6
CONTINUOUS
 10
199.3768895483
 20
422.0783930211
 40
0.2
100
AcDbArc
 50
191.0035408517
 51
270.0
  0
ARC
  5
527
100
AcDbEntity
  8
0
100
AcDbCircle
 62
1
  6
CONTINUOUS
 10
206.8275478133
 20
378.9559063542
 40
0.2
100
AcDbArc
 50
59.1546234914
 51
89.9999999949
  0
ARC
  5
528
100
AcDbEntity
  8
0
100
AcDbCircle
 62
1
  6
CONTINUOUS
 10
216.1651456606
 20
312.6738580239
 40
300.0
100
AcDbArc
 50
0.0
 51
8.2131019578
  0
ARC
  5
529
100
AcDbEntity
  8
0
100
AcDbCircle
 62
1
  6
CONTINUOUS
 10
258.6632329049
 20
350.3238580239
 40
38.7
100
AcDbArc
 50
162.5202966328
 51
197.4797033672
  0
ARC
  5
52A
100
AcDbEntity
  8
0
100
AcDbCircle
 62
1
  6
CONTINUOUS
 10
212.2120326503
 20
335.6959396857
 40
10.0
100
AcDbArc
 50
0.0
 51
17.4797033672
  0
ARC
  5
52B
100
AcDbEntity
  8
0
100
AcDbCircle
 62
1
  6
CONTINUOUS
 10
214.3275478134
 20
312.3559063542
 40
4.2
100
AcDbArc
 50
270.0
 51
360.0
  0
ARC
  5
52C
100
AcDbEntity
  8
0
100
AcDbCircle
 62
1
  6
CONTINUOUS
 10
216.5538782729
 20
305.9322368137
 40
2.2236695405
100
AcDbArc
 50
290.0
 51
90.0
  0
ARC
  5
52D
100
AcDbEntity
  8
0
100
AcDbCircle
 62
1
  6
CONTINUOUS
 10
215.9275478134
 20
302.805802585
 40
0.5
100
AcDbArc
 50
110.0
 51
180.0
  0
ARC
  5
52E
100
AcDbEntity
  8
0
100
AcDbCircle
 62
1
  6
CONTINUOUS
 10
223.1620326503
 20
323.5238580239
 40
0.3
100
AcDbArc
 50
0.0
 51
90.0
  0
ARC
  5
52F
100
AcDbEntity
  8
______
100
AcDbCircle
 62
5
  6
ACAD_ISO04W100
 10
251.7256934736
 20
422.3771234389
 40
300.0
100
AcDbArc
 50
335.0
 51
343.2131019577
  0
ARC
  5
530
100
AcDbEntity
  8
0
100
AcDbCircle
 62
1
  6
CONTINUOUS
 10
287.5275478133
 20
368.369459463
 40
90.0
100
AcDbArc
 50
180.0
 51
188.2131019578
  0
ARC
  5
531
100
AcDbEntity
  8
0
100
AcDbCircle
 62
1
  6
CONTINUOUS
 10
212.2120326503
 20
364.9517763621
 40
10.0
100
AcDbArc
 50
342.5202966328
 51
360.0
  0
ARC
  5
532
100
AcDbEntity
  8
0
100
AcDbCircle
 62
1
  6
CONTINUOUS
 10
212.2120326503
 20
411.9741833635
 40
10.0
100
AcDbArc
 50
0.0
 51
14.7820157392
  0
ARC
  5
533
100
AcDbEntity
  8
0
100
AcDbCircle
 62
1
  6
CONTINUOUS
 10
213.5275478133
 20
370.1559063542
 40
9.0
100
AcDbArc
 50
0.0
 51
85.2198081529
  0
ARC
  5
534
100
AcDbEntity
  8
0
100
AcDbCircle
 62
1
  6
CONTINUOUS
 10
218.7120326503
 20
400.9492750717
 40
3.5
100
AcDbArc
 50
303.329972951
 51
360.0
  0
ARC
  5
535
100
AcDbEntity
  8
0
100
AcDbCircle
 62
1
  6
CONTINUOUS
 10
218.7120326503
 20
375.698440976
 40
3.5
100
AcDbArc
 50
0.0
 51
56.670027049
  0
ARC
  5
536
100
AcDbEntity
  8
0
100
AcDbCircle
 62
1
  6
CONTINUOUS
 10
216.0275478133
 20
381.4059063541
 40
2.25
100
AcDbArc
 50
270.0
 51
90.0
  0
ARC
  5
537
100
AcDbEntity
  8
0
100
AcDbCircle
 62
1
  6
CONTINUOUS
 10
221.7340625182
 20
396.3539148598
 40
2.0
100
AcDbArc
 50
123.329972951
 51
214.2990783518
  0
ARC
  5
538
100
AcDbEntity
  8
0
100
AcDbCircle
 62
1
  6
CONTINUOUS
 10
221.7340625182
 20
380.293801188
 40
2.0
100
AcDbArc
 50
145.7009216482
 51
236.670027049
  0
ARC
  5
539
100
AcDbEntity
  8
0
100
AcDbCircle
 62
1
  6
CONTINUOUS
 10
220.5471757523
 20
422.0783930211
 40
0.2
100
AcDbArc
 50
270.0
 51
348.9964591483
  0
ARC
  5
53A
100
AcDbEntity
  8
0
100
AcDbCircle
 62
1
  6
CONTINUOUS
 10
213.2275478133
 20
378.9559063541
 40
0.2
100
AcDbArc
 50
90.0000000051
 51
120.8453765088
  0
ARC
  5
53B
100
AcDbEntity
  8
0
100
AcDbCircle
 62
1
  6
CONTINUOUS
 10
141.9625931912
 20
429.3238580239
 40
58.0
100
AcDbArc
 50
345.2179842608
 51
352.6137005925
  0
ARC
  5
53C
100
AcDbEntity
  8
0
100
AcDbCircle
 62
1
  6
CONTINUOUS
 10
209.9620326503
 20
463.3783930211
 40
17.5
100
AcDbArc
 50
316.7460473354
 51
58.9574931597
  0
ARC
  5
53D
100
AcDbEntity
  8
0
100
AcDbCircle
 62
1
  6
CONTINUOUS
 10
209.9620326503
 20
463.3783930211
 40
17.5
100
AcDbArc
 50
121.0425068403
 51
223.2539526646
  0
ARC
  5
53E
100
AcDbEntity
  8
0
100
AcDbCircle
 62
1
  6
CONTINUOUS
 10
209.9620326503
 20
463.3783930211
 40
12.0114927485
100
AcDbArc
 50
318.6346425141
 51
41.3653574859
  0
ARC
  5
53F
100
AcDbEntity
  8
0
100
AcDbCircle
 62
1
  6
CONTINUOUS
 10
209.9620326503
 20
463.3783930211
 40
12.0114927485
100
AcDbArc
 50
138.6346425141
 51
221.3653574859
  0
ARC
  5
540
100
AcDbEntity
  8
0
100
AcDbCircle
 62
1
  6
CONTINUOUS
 10
209.9620326503
 20
463.3783930211
 40
10.5
100
AcDbArc
 50
149.111574074
 51
210.8884240982
  0
ARC
  5
541
100
AcDbEntity
  8
0
100
AcDbCircle
 62
1
  6
CONTINUOUS
 10
209.9620326503
 20
463.3783930211
 40
10.5
100
AcDbArc
 50
329.111574074
 51
30.8884218576
  0
ARC
  5
542
100
AcDbEntity
  8
0
100
AcDbCircle
 62
1
  6
CONTINUOUS
 10
207.4620326503
 20
447.5946935425
 40
10.0
100
AcDbArc
 50
180.0
 51
184.0978275508
  0
ARC
  5
543
100
AcDbEntity
  8
0
100
AcDbCircle
 62
1
  6
CONTINUOUS
 10
212.4620326503
 20
447.5946935425
 40
10.0
100
AcDbArc
 50
355.9022295273
 51
360.0
  0
ARC
  5
544
100
AcDbEntity
  8
0
100
AcDbCircle
 62
1
  6
CONTINUOUS
 10
209.9620326503
 20
463.3783930211
 40
9.25
100
AcDbArc
 50
167.3814413833
 51
192.6185668321
  0
ARC
  5
545
100
AcDbEntity
  8
0
100
AcDbCircle
 62
1
  6
CONTINUOUS
 10
209.9620326503
 20
463.3783930211
 40
9.25
100
AcDbArc
 50
347.3814413833
 51
12.6185668321
  0
ARC
  5
546
100
AcDbEntity
  8
0
100
AcDbCircle
 62
1
  6
CONTINUOUS
 10
209.9620326503
 20
463.3783930211
 40
9.05
100
AcDbArc
 50
176.3634157773
 51
183.6365973373
  0
ARC
  5
547
100
AcDbEntity
  8
0
100
AcDbCircle
 62
1
  6
CONTINUOUS
 10
209.9620326503
 20
463.3783930211
 40
9.05
100
AcDbArc
 50
356.3634157773
 51
3.6365973373
  0
ARC
  5
548
100
AcDbEntity
  8
0
100
AcDbCircle
 62
1
  6
CONTINUOUS
 10
209.9620326503
 20
486.3956649854
 40
9.0
100
AcDbArc
 50
0.0
 51
180.0
  0
ARC
  5
549
100
AcDbEntity
  8
0
100
AcDbCircle
 62
1
  6
CONTINUOUS
 10
209.9620326503
 20
490.3590963292
 40
8.75
100
AcDbArc
 50
119.1099089399
 51
189.9569699341
  0
ARC
  5
54A
100
AcDbEntity
  8
0
100
AcDbCircle
 62
1
  6
CONTINUOUS
 10
209.9620326503
 20
490.3590963292
 40
8.75
100
AcDbArc
 50
350.0430300659
 51
60.8900910601
  0
ARC
  5
54B
100
AcDbEntity
  8
0
100
AcDbCircle
 62
1
  6
CONTINUOUS
 10
193.6687781593
 20
452.3956649854
 40
7.293254491
100
AcDbArc
 50
321.7012729227
 51
360.0
  0
ARC
  5
54C
100
AcDbEntity
  8
0
100
AcDbCircle
 62
1
  6
CONTINUOUS
 10
226.2552871413
 20
452.3956649854
 40
7.293254491
100
AcDbArc
 50
180.0
 51
218.2987270773
  0
ARC
  5
54D
100
AcDbEntity
  8
0
100
AcDbCircle
 62
1
  6
CONTINUOUS
 10
194.4620326503
 20
437.8783930211
 40
2.0
100
AcDbArc
 50
90.0
 51
270.0
  0
ARC
  5
54E
100
AcDbEntity
  8
0
100
AcDbCircle
 62
1
  6
CONTINUOUS
 10
200.9620326503
 20
446.6360627453
 40
2.0
100
AcDbArc
 50
141.7012729227
 51
173.1224919161
  0
ARC
  5
54F
100
AcDbEntity
  8
0
100
AcDbCircle
 62
1
  6
CONTINUOUS
 10
225.4620326503
 20
437.8783930211
 40
2.0
100
AcDbArc
 50
270.0
 51
90.0
  0
ARC
  5
550
100
AcDbEntity
  8
0
100
AcDbCircle
 62
1
  6
CONTINUOUS
 10
218.9620326503
 20
446.6360627453
 40
2.0
100
AcDbArc
 50
6.8775080839
 51
38.2987270773
  0
ARC
  5
551
100
AcDbEntity
  8
0
100
AcDbCircle
 62
1
  6
CONTINUOUS
 10
197.4620326503
 20
432.2926065834
 40
1.0
100
AcDbArc
 50
180.0
 51
225.0
  0
ARC
  5
552
100
AcDbEntity
  8
0
100
AcDbCircle
 62
1
  6
CONTINUOUS
 10
222.4620326503
 20
432.2926065834
 40
1.0
100
AcDbArc
 50
315.0
 51
360.0
  0
ARC
  5
553
100
AcDbEntity
  8
0
100
AcDbCircle
 62
1
  6
CONTINUOUS
 10
197.4620326503
 20
446.3783930211
 40
0.5
100
AcDbArc
 50
90.0
 51
180.0
  0
ARC
  5
554
100
AcDbEntity
  8
0
100
AcDbCircle
 62
1
  6
CONTINUOUS
 10
197.0003990864
 20
430.6329198038
 40
0.5
100
AcDbArc
 50
11.0035408517
 51
45.0
  0
ARC
  5
555
100
AcDbEntity
  8
0
100
AcDbCircle
 62
1
  6
CONTINUOUS
 10
222.4620326503
 20
446.3783930211
 40
0.5
100
AcDbArc
 50
0.0
 51
90.0
  0
ARC
  5
556
100
AcDbEntity
  8
0
100
AcDbCircle
 62
1
  6
CONTINUOUS
 10
222.9236662142
 20
430.6329198038
 40
0.5
100
AcDbArc
 50
135.0
 51
168.9964591483
  0
ARC
  5
557
100
AcDbEntity
  8
0
100
AcDbCircle
 62
1
  6
CONTINUOUS
 10
196.6620326503
 20
443.6783930211
 40
0.2
100
AcDbArc
 50
90.0
 51
180.0
  0
ARC
  5
558
100
AcDbEntity
  8
0
100
AcDbCircle
 62
1
  6
CONTINUOUS
 10
196.2620326503
 20
435.6783930211
 40
0.2
100
AcDbArc
 50
0.0
 51
90.0
  0
ARC
  5
559
100
AcDbEntity
  8
0
100
AcDbCircle
 62
1
  6
CONTINUOUS
 10
196.2620326503
 20
440.0783930211
 40
0.2
100
AcDbArc
 50
270.0
 51
360.0
  0
ARC
  5
55A
100
AcDbEntity
  8
0
100
AcDbCircle
 62
1
  6
CONTINUOUS
 10
197.3620326503
 20
451.5238580239
 40
0.2
100
AcDbArc
 50
223.2539526646
 51
270.0
  0
ARC
  5
55B
100
AcDbEntity
  8
0
100
AcDbCircle
 62
1
  6
CONTINUOUS
 10
223.2620326503
 20
443.6783930211
 40
0.2
100
AcDbArc
 50
0.0
 51
90.0
  0
ARC
  5
55C
100
AcDbEntity
  8
0
100
AcDbCircle
 62
1
  6
CONTINUOUS
 10
223.6620326503
 20
435.6783930211
 40
0.2
100
AcDbArc
 50
90.0
 51
180.0
  0
ARC
  5
55D
100
AcDbEntity
  8
0
100
AcDbCircle
 62
1
  6
CONTINUOUS
 10
223.6620326503
 20
440.0783930211
 40
0.2
100
AcDbArc
 50
180.0
 51
270.0
  0
ARC
  5
55E
100
AcDbEntity
  8
0
100
AcDbCircle
 62
1
  6
CONTINUOUS
 10
222.5620326503
 20
451.5238580239
 40
0.2
100
AcDbArc
 50
270.0
 51
316.7460473354
  0
ARC
  5
55F
100
AcDbEntity
  8
0
100
AcDbCircle
 62
1
  6
CONTINUOUS
 10
209.9620326503
 20
502.9283930211
 40
5.25
100
AcDbArc
 50
321.5000495907
 51
218.4999504093
  0
ARC
  5
560
100
AcDbEntity
  8
0
100
AcDbCircle
 62
1
  6
CONTINUOUS
 10
214.4620326503
 20
498.4407112669
 40
0.5
100
AcDbArc
 50
180.0
 51
240.8900910601
  0
ARC
  5
561
100
AcDbEntity
  8
0
100
AcDbCircle
 62
1
  6
CONTINUOUS
 10
205.4620326503
 20
498.4407112669
 40
0.5
100
AcDbArc
 50
299.1099089399
 51
360.0
  0
ARC
  5
562
100
AcDbEntity
  8
0
100
AcDbCircle
 62
1
  6
CONTINUOUS
 10
214.4620326503
 20
499.3489377552
 40
0.5
100
AcDbArc
 50
141.5000495907
 51
180.0
  0
ARC
  5
563
100
AcDbEntity
  8
0
100
AcDbCircle
 62
1
  6
CONTINUOUS
 10
205.4620326503
 20
499.3489377552
 40
0.5
100
AcDbArc
 50
0.0
 51
38.4999504093
  0
ARC
  5
564
100
AcDbEntity
  8
0
100
AcDbCircle
 62
1
  6
CONTINUOUS
 10
362.3657062015
 20
429.3238580239
 40
58.0
100
AcDbArc
 50
345.2179842608
 51
15.5862551855
  0
ARC
  5
565
100
AcDbEntity
  8
0
100
AcDbCircle
 62
1
  6
CONTINUOUS
 10
277.9614721094
 20
429.3238580239
 40
58.0
100
AcDbArc
 50
187.3862994075
 51
194.7820157392
  0
ARC
  5
566
100
AcDbEntity
  8
______
100
AcDbCircle
 62
5
  6
ACAD_ISO04W100
 10
366.0875012982
 20
554.4905111441
 40
300.0
100
AcDbArc
 50
226.7868980423
 51
235.0
  0
ARC
  5
567
100
AcDbEntity
  8
0
100
AcDbCircle
 62
1
  6
CONTINUOUS
 10
377.1043782773
 20
88.0244692227
 40
17.5
100
AcDbArc
 50
0.7708000366
 51
30.8031749855
  0
ARC
  5
568
100
AcDbEntity
  8
0
100
AcDbCircle
 62
1
  6
CONTINUOUS
 10
392.3651456606
 20
86.353314926
 40
7.0
100
AcDbArc
 50
150.1371656432
 51
270.0
  0
ARC
  5
569
100
AcDbEntity
  8
0
100
AcDbCircle
 62
1
  6
CONTINUOUS
 10
405.7628203935
 20
86.2393633237
 40
3.8860483977
100
AcDbArc
 50
211.1552222522
 51
312.0407116723
  0
ARC
  5
56A
100
AcDbEntity
  8
0
100
AcDbCircle
 62
1
  6
CONTINUOUS
 10
399.1651456606
 20
88.0038704815
 40
3.4005555556
100
AcDbArc
 50
199.7759776312
 51
340.2240223688
  0
ARC
  5
56B
100
AcDbEntity
  8
0
100
AcDbCircle
 62
1
  6
CONTINUOUS
 10
392.3651456606
 20
86.353314926
 40
2.0
100
AcDbArc
 50
150.1371656438
 51
270.0
  0
ARC
  5
56C
100
AcDbEntity
  8
0
100
AcDbCircle
 62
1
  6
CONTINUOUS
 10
402.8651456606
 20
84.4875628517
 40
0.5
100
AcDbArc
 50
180.0
 51
211.1552222522
  0
ARC
  5
56D
100
AcDbEntity
  8
0
100
AcDbCircle
 62
1
  6
CONTINUOUS
 10
392.5651456606
 20
97.2420975467
 40
0.5
100
AcDbArc
 50
180.0
 51
210.8031749855
  0
ARC
  5
56E
100
AcDbEntity
  8
0
100
AcDbCircle
 62
1
  6
CONTINUOUS
 10
395.0918614784
 20
87.353314926
 40
0.5
100
AcDbArc
 50
180.0
 51
270.0
  0
ARC
  5
56F
100
AcDbEntity
  8
0
100
AcDbCircle
 62
1
  6
CONTINUOUS
 10
407.6170688513
 20
104.2898065991
 40
4.0
100
AcDbArc
 50
210.5765103844
 51
329.4234896156
  0
ARC
  5
570
100
AcDbEntity
  8
0
100
AcDbCircle
 62
1
  6
CONTINUOUS
 10
407.6170688513
 20
112.4168232529
 40
4.0
100
AcDbArc
 50
30.5765103844
 51
149.4234896156
  0
ARC
  5
571
100
AcDbEntity
  8
0
100
AcDbCircle
 62
1
  6
CONTINUOUS
 10
389.8151456606
 20
102.353314926
 40
2.25
100
AcDbArc
 50
180.0
 51
360.0
  0
ARC
  5
572
100
AcDbEntity
  8
0
100
AcDbCircle
 62
1
  6
CONTINUOUS
 10
389.8151456606
 20
114.353314926
 40
2.25
100
AcDbArc
 50
0.0
 51
180.0
  0
ARC
  5
573
100
AcDbEntity
  8
0
100
AcDbCircle
 62
1
  6
CONTINUOUS
 10
400.6170688513
 20
105.4713489147
 40
1.0
100
AcDbArc
 50
180.0
 51
243.434948823
  0
ARC
  5
574
100
AcDbEntity
  8
0
100
AcDbCircle
 62
1
  6
CONTINUOUS
 10
400.6170688513
 20
111.2352809372
 40
1.0
100
AcDbArc
 50
116.565051177
 51
180.0
  0
ARC
  5
575
100
AcDbEntity
  8
0
100
AcDbCircle
 62
1
  6
CONTINUOUS
 10
392.5651456606
 20
119.4645323052
 40
0.5
100
AcDbArc
 50
149.1968250145
 51
180.0
  0
ARC
  5
576
100
AcDbEntity
  8
0
100
AcDbCircle
 62
1
  6
CONTINUOUS
 10
403.3170688513
 20
102.553314926
 40
0.2
100
AcDbArc
 50
180.0
 51
270.0
  0
ARC
  5
577
100
AcDbEntity
  8
0
100
AcDbCircle
 62
1
  6
CONTINUOUS
 10
412.8170688513
 20
102.053314926
 40
0.2
100
AcDbArc
 50
180.0
 51
270.0
  0
ARC
  5
578
100
AcDbEntity
  8
0
100
AcDbCircle
 62
1
  6
CONTINUOUS
 10
402.9170688513
 20
102.9797081282
 40
0.2
100
AcDbArc
 50
0.0
 51
63.434948823
  0
ARC
  5
579
100
AcDbEntity
  8
0
100
AcDbCircle
 62
1
  6
CONTINUOUS
 10
404.0010761341
 20
102.153314926
 40
0.2
100
AcDbArc
 50
30.5765103843
 51
90.0
  0
ARC
  5
57A
100
AcDbEntity
  8
0
100
AcDbCircle
 62
1
  6
CONTINUOUS
 10
411.2330615685
 20
102.153314926
 40
0.2
100
AcDbArc
 50
90.0
 51
149.4234896156
  0
ARC
  5
57B
100
AcDbEntity
  8
0
100
AcDbCircle
 62
1
  6
CONTINUOUS
 10
412.4170688513
 20
102.153314926
 40
0.2
100
AcDbArc
 50
0.0
 51
90.0
  0
ARC
  5
57C
100
AcDbEntity
  8
0
100
AcDbCircle
 62
1
  6
CONTINUOUS
 10
403.3170688513
 20
114.153314926
 40
0.2
100
AcDbArc
 50
90.0
 51
180.0
  0
ARC
  5
57D
100
AcDbEntity
  8
0
100
AcDbCircle
 62
1
  6
CONTINUOUS
 10
412.8170688513
 20
114.653314926
 40
0.2
100
AcDbArc
 50
90.0
 51
180.0
  0
ARC
  5
57E
100
AcDbEntity
  8
0
100
AcDbCircle
 62
1
  6
CONTINUOUS
 10
402.9170688513
 20
113.7269217237
 40
0.2
100
AcDbArc
 50
296.565051177
 51
360.0
  0
ARC
  5
57F
100
AcDbEntity
  8
0
100
AcDbCircle
 62
1
  6
CONTINUOUS
 10
404.0010761341
 20
114.553314926
 40
0.2
100
AcDbArc
 50
270.0
 51
329.4234896156
  0
ARC
  5
580
100
AcDbEntity
  8
0
100
AcDbCircle
 62
1
  6
CONTINUOUS
 10
411.2330615685
 20
114.553314926
 40
0.2
100
AcDbArc
 50
210.5765103844
 51
270.0
  0
ARC
  5
581
100
AcDbEntity
  8
0
100
AcDbCircle
 62
1
  6
CONTINUOUS
 10
412.4170688513
 20
114.553314926
 40
0.2
100
AcDbArc
 50
270.0
 51
360.0
  0
ARC
  5
582
100
AcDbEntity
  8
0
100
AcDbCircle
 62
1
  6
CONTINUOUS
 10
447.1651456606
 20
98.053314926
 40
0.2
100
AcDbArc
 50
270.0
 51
360.0
  0
ARC
  5
583
100
AcDbEntity
  8
0
100
AcDbCircle
 62
1
  6
CONTINUOUS
 10
413.9822277275
 20
101.653314926
 40
0.2
100
AcDbArc
 50
22.2427236089
 51
90.0
  0
ARC
  5
584
100
AcDbEntity
  8
0
100
AcDbCircle
 62
1
  6
CONTINUOUS
 10
444.4647910462
 20
97.653314926
 40
0.2
100
AcDbArc
 50
90.0
 51
142.8057069094
  0
ARC
  5
585
100
AcDbEntity
  8
0
100
AcDbCircle
 62
1
  6
CONTINUOUS
 10
447.5651456606
 20
98.653314926
 40
0.2
100
AcDbArc
 50
90.0
 51
180.0
  0
ARC
  5
586
100
AcDbEntity
  8
0
100
AcDbCircle
 62
1
  6
CONTINUOUS
 10
449.279475515
 20
98.653314926
 40
0.2
100
AcDbArc
 50
43.9253368581
 51
90.0
  0
ARC
  5
587
100
AcDbEntity
  8
0
100
AcDbCircle
 62
1
  6
CONTINUOUS
 10
430.3651456606
 20
108.3533149259
 40
29.0
100
AcDbArc
 50
57.8740041109
 51
122.1254972214
  0
ARC
  5
588
100
AcDbEntity
  8
0
100
AcDbCircle
 62
1
  6
CONTINUOUS
 10
430.3651456606
 20
108.353314926
 40
26.5
100
AcDbArc
 50
67.8825943131
 51
112.1174056893
  0
ARC
  5
589
100
AcDbEntity
  8
0
100
AcDbCircle
 62
1
  6
CONTINUOUS
 10
430.3651456606
 20
108.353314926
 40
26.5
100
AcDbArc
 50
247.8825943131
 51
292.1174056893
  0
ARC
  5
58A
100
AcDbEntity
  8
0
100
AcDbCircle
 62
1
  6
CONTINUOUS
 10
430.3651456606
 20
108.353314926
 40
17.5
100
AcDbArc
 50
202.2427236089
 51
322.8057069094
  0
ARC
  5
58B
100
AcDbEntity
  8
0
100
AcDbCircle
 62
1
  6
CONTINUOUS
 10
430.3651456606
 20
108.353314926
 40
17.5
100
AcDbArc
 50
37.1942930906
 51
157.7572763911
  0
CIRCLE
  5
58C
100
AcDbEntity
  8
0
100
AcDbCircle
 62
1
  6
CONTINUOUS
 10
430.3651456606
 20
108.353314926
 40
8.75
  0
CIRCLE
  5
58D
100
AcDbEntity
  8
0
100
AcDbCircle
 62
1
  6
CONTINUOUS
 10
430.3651456606
 20
108.353314926
 40
5.25
  0
ARC
  5
58E
100
AcDbEntity
  8
0
100
AcDbCircle
 62
1
  6
CONTINUOUS
 10
447.1651456606
 20
118.653314926
 40
0.2
100
AcDbArc
 50
0.0
 51
90.0
  0
ARC
  5
58F
100
AcDbEntity
  8
0
100
AcDbCircle
 62
1
  6
CONTINUOUS
 10
413.9822277275
 20
115.053314926
 40
0.2
100
AcDbArc
 50
270.0
 51
337.7572763911
  0
ARC
  5
590
100
AcDbEntity
  8
0
100
AcDbCircle
 62
1
  6
CONTINUOUS
 10
444.4647910462
 20
119.053314926
 40
0.2
100
AcDbArc
 50
217.1942930906
 51
270.0
  0
ARC
  5
591
100
AcDbEntity
  8
0
100
AcDbCircle
 62
1
  6
CONTINUOUS
 10
447.5651456606
 20
118.053314926
 40
0.2
100
AcDbArc
 50
180.0
 51
270.0
  0
ARC
  5
592
100
AcDbEntity
  8
0
100
AcDbCircle
 62
1
  6
CONTINUOUS
 10
449.279475515
 20
118.053314926
 40
0.2
100
AcDbArc
 50
270.0
 51
316.0746631419
  0
ARC
  5
593
100
AcDbEntity
  8
0
100
AcDbCircle
 62
1
  6
CONTINUOUS
 10
397.4279778566
 20
162.7602158091
 40
22.1645165104
100
AcDbArc
 50
59.3275166212
 51
63.9870287836
  0
ARC
  5
594
100
AcDbEntity
  8
0
100
AcDbCircle
 62
1
  6
CONTINUOUS
 10
396.7849773052
 20
165.2169529415
 40
20.649112567
100
AcDbArc
 50
50.6941656212
 51
53.537214809
  0
ARC
  5
595
100
AcDbEntity
  8
0
100
AcDbCircle
 62
1
  6
CONTINUOUS
 10
377.1043782773
 20
128.6821606292
 40
17.5
100
AcDbArc
 50
329.1968250145
 51
359.2291999634
  0
ARC
  5
596
100
AcDbEntity
  8
0
100
AcDbCircle
 62
1
  6
CONTINUOUS
 10
405.7628203935
 20
130.4672665282
 40
3.8860483977
100
AcDbArc
 50
47.9592883277
 51
148.8447777478
  0
ARC
  5
597
100
AcDbEntity
  8
0
100
AcDbCircle
 62
1
  6
CONTINUOUS
 10
399.1651456606
 20
128.7027593704
 40
3.4005555556
100
AcDbArc
 50
19.7759776312
 51
160.2240223688
  0
ARC
  5
598
100
AcDbEntity
  8
0
100
AcDbCircle
 62
1
  6
CONTINUOUS
 10
402.8651456606
 20
132.2190670003
 40
0.5
100
AcDbArc
 50
148.8447777478
 51
180.0
  0
ARC
  5
599
100
AcDbEntity
  8
0
100
AcDbCircle
 62
1
  6
CONTINUOUS
 10
395.0918614784
 20
129.353314926
 40
0.5
100
AcDbArc
 50
90.0
 51
180.0
  0
ARC
  5
59A
100
AcDbEntity
  8
0
100
AcDbCircle
 62
1
  6
CONTINUOUS
 10
485.0639552406
 20
97.853314926
 40
14.0
100
AcDbArc
 50
270.0
 51
294.4938521771
  0
ARC
  5
59B
100
AcDbEntity
  8
0
100
AcDbCircle
 62
1
  6
CONTINUOUS
 10
485.0639552406
 20
118.853314926
 40
14.0
100
AcDbArc
 50
65.5061478229
 51
90.0
  0
ARC
  5
59C
100
AcDbEntity
  8
0
100
AcDbCircle
 62
1
  6
CONTINUOUS
 10
502.8874534029
 20
95.4012178746
 40
13.0
100
AcDbArc
 50
273.0
 51
342.2728823337
  0
ARC
  5
59D
100
AcDbEntity
  8
0
100
AcDbCircle
 62
1
  6
CONTINUOUS
 10
502.8874534029
 20
121.1054119773
 40
13.0
100
AcDbArc
 50
17.7271176663
 51
87.0
  0
ARC
  5
59E
100
AcDbEntity
  8
0
100
AcDbCircle
 62
1
  6
CONTINUOUS
 10
524.6651456606
 20
108.253314926
 40
12.5
100
AcDbArc
 50
46.9134008995
 51
133.0865991005
  0
ARC
  5
59F
100
AcDbEntity
  8
0
100
AcDbCircle
 62
1
  6
CONTINUOUS
 10
524.6651456606
 20
108.253314926
 40
12.5
100
AcDbArc
 50
225.615298429
 51
314.384701571
  0
ARC
  5
5A0
100
AcDbEntity
  8
0
100
AcDbCircle
 62
1
  6
CONTINUOUS
 10
455.1854796845
 20
104.3418221774
 40
8.0
100
AcDbArc
 50
223.9253368581
 51
305.3461760162
  0
ARC
  5
5A1
100
AcDbEntity
  8
0
100
AcDbCircle
 62
1
  6
CONTINUOUS
 10
455.1854796845
 20
112.3648076745
 40
8.0
100
AcDbArc
 50
54.6538239838
 51
136.0746631419
  0
ARC
  5
5A2
100
AcDbEntity
  8
0
100
AcDbCircle
 62
1
  6
CONTINUOUS
 10
468.3651456605
 20
86.353314926
 40
7.0
100
AcDbArc
 50
270.0
 51
333.1627490194
  0
ARC
  5
5A3
100
AcDbEntity
  8
0
100
AcDbCircle
 62
1
  6
CONTINUOUS
 10
477.1130268643
 20
86.6287404809
 40
4.275425555
100
AcDbArc
 50
230.0054118912
 51
316.7989361359
  0
ARC
  5
5A4
100
AcDbEntity
  8
0
100
AcDbCircle
 62
1
  6
CONTINUOUS
 10
530.1651456606
 20
98.794314926
 40
3.541
100
AcDbArc
 50
270.0
 51
316.3397458951
  0
ARC
  5
5A5
100
AcDbEntity
  8
0
100
AcDbCircle
 62
1
  6
CONTINUOUS
 10
530.1651456606
 20
117.712314926
 40
3.541
100
AcDbArc
 50
43.6602541049
 51
90.0
  0
ARC
  5
5A6
100
AcDbEntity
  8
0
100
AcDbCircle
 62
1
  6
CONTINUOUS
 10
513.3651456606
 20
92.0518948156
 40
2.0
100
AcDbArc
 50
342.2728823337
 51
360.0
  0
ARC
  5
5A7
100
AcDbEntity
  8
0
100
AcDbCircle
 62
1
  6
CONTINUOUS
 10
513.3651456606
 20
124.4547350363
 40
2.0
100
AcDbArc
 50
0.0
 51
17.7271176663
  0
ARC
  5
5A8
100
AcDbEntity
  8
0
100
AcDbCircle
 62
1
  6
CONTINUOUS
 10
461.3651456606
 20
98.853314926
 40
1.0
100
AcDbArc
 50
270.0
 51
360.0
  0
ARC
  5
5A9
100
AcDbEntity
  8
0
100
AcDbCircle
 62
1
  6
CONTINUOUS
 10
461.3651456606
 20
117.853314926
 40
1.0
100
AcDbArc
 50
0.0
 51
90.0
  0
ARC
  5
5AA
100
AcDbEntity
  8
0
100
AcDbCircle
 62
1
  6
CONTINUOUS
 10
479.8651456606
 20
84.044232742
 40
0.5
100
AcDbArc
 50
316.7989361359
 51
345.5996453786
  0
ARC
  5
5AB
100
AcDbEntity
  8
0
100
AcDbCircle
 62
1
  6
CONTINUOUS
 10
517.4311710643
 20
95.753314926
 40
0.5
100
AcDbArc
 50
210.0
 51
270.0
  0
ARC
  5
5AC
100
AcDbEntity
  8
0
100
AcDbCircle
 62
1
  6
CONTINUOUS
 10
517.4311710643
 20
120.753314926
 40
0.5
100
AcDbArc
 50
90.0
 51
150.0
  0
ARC
  5
5AD
100
AcDbEntity
  8
0
100
AcDbCircle
 62
1
  6
CONTINUOUS
 10
532.3651456606
 20
96.6948671414
 40
0.5
100
AcDbArc
 50
316.3397458951
 51
360.0
  0
ARC
  5
5AE
100
AcDbEntity
  8
0
100
AcDbCircle
 62
1
  6
CONTINUOUS
 10
532.3651456606
 20
119.8117627105
 40
0.5
100
AcDbArc
 50
0.0
 51
43.6602541049
  0
ARC
  5
5AF
100
AcDbEntity
  8
0
100
AcDbCircle
 62
1
  6
CONTINUOUS
 10
516.4496756067
 20
96.053314926
 40
0.2
100
AcDbArc
 50
30.0
 51
90.0
  0
ARC
  5
5B0
100
AcDbEntity
  8
0
100
AcDbCircle
 62
1
  6
CONTINUOUS
 10
515.5651456606
 20
96.053314926
 40
0.2
100
AcDbArc
 50
90.0
 51
180.0
  0
ARC
  5
5B1
100
AcDbEntity
  8
0
100
AcDbCircle
 62
1
  6
CONTINUOUS
 10
459.9293041698
 20
97.653314926
 40
0.2
100
AcDbArc
 50
90.0
 51
125.3461760162
  0
ARC
  5
5B2
100
AcDbEntity
  8
0
100
AcDbCircle
 62
1
  6
CONTINUOUS
 10
516.4496756067
 20
120.453314926
 40
0.2
100
AcDbArc
 50
270.0
 51
330.0
  0
ARC
  5
5B3
100
AcDbEntity
  8
0
100
AcDbCircle
 62
1
  6
CONTINUOUS
 10
515.5651456606
 20
120.453314926
 40
0.2
100
AcDbArc
 50
180.0
 51
270.0
  0
ARC
  5
5B4
100
AcDbEntity
  8
0
100
AcDbCircle
 62
1
  6
CONTINUOUS
 10
459.9293041698
 20
119.053314926
 40
0.2
100
AcDbArc
 50
234.6538239838
 51
270.0
  0
ARC
  5
5B5
100
AcDbEntity
  8
0
100
AcDbCircle
 62
1
  6
CONTINUOUS
 10
463.3023173891
 20
162.7602085334
 40
22.1645247703
100
AcDbArc
 50
116.0129720852
 51
120.6724825101
  0
ARC
  5
5B6
100
AcDbEntity
  8
0
100
AcDbCircle
 62
1
  6
CONTINUOUS
 10
464.0513510562
 20
165.0806653857
 40
20.8217391962
100
AcDbArc
 50
126.4745730025
 51
129.2940465672
  0
ARC
  5
5B7
100
AcDbEntity
  8
0
100
AcDbCircle
 62
1
  6
CONTINUOUS
 10
477.1130268643
 20
130.077889371
 40
4.275425555
100
AcDbArc
 50
43.2010638641
 51
129.9945881088
  0
ARC
  5
5B8
100
AcDbEntity
  8
0
100
AcDbCircle
 62
1
  6
CONTINUOUS
 10
479.8651456606
 20
132.6623971099
 40
0.5
100
AcDbArc
 50
14.4003546214
 51
43.2010638641
  0
ARC
  5
5B9
100
AcDbEntity
  8
0
100
AcDbCircle
 62
1
  6
CONTINUOUS
 10
377.1043782773
 20
266.9950123207
 40
17.5
100
AcDbArc
 50
0.7708000366
 51
30.8031749855
  0
ARC
  5
5BA
100
AcDbEntity
  8
0
100
AcDbCircle
 62
1
  6
CONTINUOUS
 10
485.0639552406
 20
276.8238580239
 40
14.0
100
AcDbArc
 50
270.0
 51
294.5301038678
  0
ARC
  5
5BB
100
AcDbEntity
  8
0
100
AcDbCircle
 62
1
  6
CONTINUOUS
 10
502.8874534029
 20
274.3217609725
 40
13.0
100
AcDbArc
 50
273.0
 51
342.2728823337
  0
ARC
  5
5BC
100
AcDbEntity
  8
______
100
AcDbCircle
 62
5
  6
ACAD_ISO04W100
 10
495.3760571076
 20
266.4442359317
 40
13.0
100
AcDbArc
 50
248.0
 51
317.2728823336
  0
ARC
  5
5BD
100
AcDbEntity
  8
0
100
AcDbCircle
 62
1
  6
CONTINUOUS
 10
477.1130268643
 20
265.5992835789
 40
4.275425555
100
AcDbArc
 50
230.0054118912
 51
316.7989361359
  0
ARC
  5
5BE
100
AcDbEntity
  8
0
100
AcDbCircle
 62
1
  6
CONTINUOUS
 10
405.7628203935
 20
265.2099064217
 40
3.8860483977
100
AcDbArc
 50
211.1552222522
 51
312.0407116723
  0
ARC
  5
5BF
100
AcDbEntity
  8
0
100
AcDbCircle
 62
1
  6
CONTINUOUS
 10
405.0076195828
 20
184.0462600386
 40
3.7224020147
100
AcDbArc
 50
230.0000000001
 51
270.0
  0
ARC
  5
5C0
100
AcDbEntity
  8
0
100
AcDbCircle
 62
1
  6
CONTINUOUS
 10
455.7226717383
 20
184.0462600386
 40
3.7224020147
100
AcDbArc
 50
270.0
 51
309.9999999999
  0
ARC
  5
5C1
100
AcDbEntity
  8
0
100
AcDbCircle
 62
1
  6
CONTINUOUS
 10
530.1651456606
 20
277.7148580239
 40
3.541
100
AcDbArc
 50
270.0
 51
316.3397458951
  0
ARC
  5
5C2
100
AcDbEntity
  8
______
100
AcDbCircle
 62
5
  6
ACAD_ISO04W100
 10
529.5271190665
 20
275.1369060405
 40
3.541
100
AcDbArc
 50
18.6602541049
 51
65.0
  0
ARC
  5
5C3
100
AcDbEntity
  8
______
100
AcDbCircle
 62
5
  6
ACAD_ISO04W100
 10
521.5320267909
 20
257.9913753253
 40
3.541
100
AcDbArc
 50
245.0
 51
291.3397458951
  0
ARC
  5
5C4
100
AcDbEntity
  8
0
100
AcDbCircle
 62
1
  6
CONTINUOUS
 10
399.1651456606
 20
266.9744135795
 40
3.4005555556
100
AcDbArc
 50
199.7759776312
 51
340.2240223688
  0
ARC
  5
5C5
100
AcDbEntity
  8
0
100
AcDbCircle
 62
1
  6
CONTINUOUS
 10
513.3651456606
 20
270.9724379136
 40
2.0
100
AcDbArc
 50
342.2728823337
 51
360.0
  0
ARC
  5
5C6
100
AcDbEntity
  8
______
100
AcDbCircle
 62
5
  6
ACAD_ISO04W100
 10
503.4565861017
 20
258.9806542731
 40
2.0
100
AcDbArc
 50
317.2728823336
 51
335.0
  0
ARC
  5
5C7
100
AcDbEntity
  8
______
100
AcDbCircle
 62
5
  6
ACAD_ISO04W100
 10
524.8820859243
 20
259.9699568381
 40
2.0
100
AcDbArc
 50
259.5347111103
 51
335.0
  0
ARC
  5
5C8
100
AcDbEntity
  8
______
100
AcDbCircle
 62
5
  6
ACAD_ISO04W100
 10
530.1648141961
 20
271.2988041761
 40
2.0
100
AcDbArc
 50
335.0
 51
50.4652888897
  0
ARC
  5
5C9
100
AcDbEntity
  8
0
100
AcDbCircle
 62
1
  6
CONTINUOUS
 10
408.115154598
 20
260.823866233
 40
1.9999991966
100
AcDbArc
 50
359.9997648254
 51
82.4472563669
  0
ARC
  5
5CA
100
AcDbEntity
  8
0
100
AcDbCircle
 62
1
  6
CONTINUOUS
 10
452.6151354956
 20
260.8238673876
 40
1.9999990863
100
AcDbArc
 50
89.9997087952
 51
180.0002682518
  0
ARC
  5
5CB
100
AcDbEntity
  8
0
100
AcDbCircle
 62
1
  6
CONTINUOUS
 10
405.3651456606
 20
239.3238580239
 40
1.5
100
AcDbArc
 50
90.0
 51
180.0
  0
ARC
  5
5CC
100
AcDbEntity
  8
0
100
AcDbCircle
 62
1
  6
CONTINUOUS
 10
455.3651456606
 20
239.3238580239
 40
1.5
100
AcDbArc
 50
0.0
 51
90.0
  0
ARC
  5
5CD
100
AcDbEntity
  8
0
100
AcDbCircle
 62
1
  6
CONTINUOUS
 10
402.8651456606
 20
263.4581059496
 40
0.5
100
AcDbArc
 50
180.0
 51
211.1552222521
  0
ARC
  5
5CE
100
AcDbEntity
  8
0
100
AcDbCircle
 62
1
  6
CONTINUOUS
 10
395.0918614784
 20
266.3238580239
 40
0.5
100
AcDbArc
 50
180.0
 51
270.0
  0
ARC
  5
5CF
100
AcDbEntity
  8
0
100
AcDbCircle
 62
1
  6
CONTINUOUS
 10
392.5651456606
 20
276.2126406447
 40
0.5
100
AcDbArc
 50
180.0
 51
210.8031749846
  0
ARC
  5
5D0
100
AcDbEntity
  8
0
100
AcDbCircle
 62
1
  6
CONTINUOUS
 10
479.8651456606
 20
263.01477584
 40
0.5
100
AcDbArc
 50
316.7989361359
 51
345.5996514126
  0
ARC
  5
5D1
100
AcDbEntity
  8
0
100
AcDbCircle
 62
1
  6
CONTINUOUS
 10
517.4311710643
 20
274.6738580239
 40
0.5
100
AcDbArc
 50
209.9999999961
 51
269.9999999999
  0
ARC
  5
5D2
100
AcDbEntity
  8
0
100
AcDbCircle
 62
1
  6
CONTINUOUS
 10
532.3651456606
 20
275.6154102394
 40
0.5
100
AcDbArc
 50
316.3397458955
 51
360.0
  0
ARC
  5
5D3
100
AcDbEntity
  8
______
100
AcDbCircle
 62
5
  6
ACAD_ISO04W100
 10
508.7059443204
 20
260.6169035539
 40
0.5
100
AcDbArc
 50
184.9999999962
 51
244.9999999999
  0
ARC
  5
5D4
100
AcDbEntity
  8
______
100
AcDbCircle
 62
5
  6
ACAD_ISO04W100
 10
532.4082611713
 20
276.1098917403
 40
0.5
100
AcDbArc
 50
335.0
 51
18.6602541043
  0
ARC
  5
5D5
100
AcDbEntity
  8
______
100
AcDbCircle
 62
5
  6
ACAD_ISO04W100
 10
522.6386389491
 20
255.1588692739
 40
0.5
100
AcDbArc
 50
291.3397458956
 51
335.0
  0
ARC
  5
5D6
100
AcDbEntity
  8
0
100
AcDbCircle
 62
1
  6
CONTINUOUS
 10
410.4151456606
 20
241.1238580239
 40
0.3
100
AcDbArc
 50
180.0
 51
270.0
  0
ARC
  5
5D7
100
AcDbEntity
  8
0
100
AcDbCircle
 62
1
  6
CONTINUOUS
 10
450.3151456606
 20
241.1238580239
 40
0.3
100
AcDbArc
 50
270.0
 51
360.0
  0
ARC
  5
5D8
100
AcDbEntity
  8
0
100
AcDbCircle
 62
1
  6
CONTINUOUS
 10
404.0651456606
 20
235.0238580239
 40
0.2
100
AcDbArc
 50
180.0
 51
270.0
  0
ARC
  5
5D9
100
AcDbEntity
  8
0
100
AcDbCircle
 62
1
  6
CONTINUOUS
 10
446.6651456606
 20
231.0238580239
 40
0.2
100
AcDbArc
 50
270.0
 51
360.0
  0
ARC
  5
5DA
100
AcDbEntity
  8
0
100
AcDbCircle
 62
1
  6
CONTINUOUS
 10
414.0651456606
 20
231.0238580239
 40
0.2
100
AcDbArc
 50
180.0
 51
270.0
  0
ARC
  5
5DB
100
AcDbEntity
  8
0
100
AcDbCircle
 62
1
  6
CONTINUOUS
 10
456.6651456606
 20
235.0238580239
 40
0.2
100
AcDbArc
 50
270.0
 51
360.0
  0
ARC
  5
5DC
100
AcDbEntity
  8
0
100
AcDbCircle
 62
1
  6
CONTINUOUS
 10
516.4496756067
 20
274.9738580239
 40
0.2
100
AcDbArc
 50
29.9999999799
 51
90.0
  0
ARC
  5
5DD
100
AcDbEntity
  8
0
100
AcDbCircle
 62
1
  6
CONTINUOUS
 10
515.5651456606
 20
274.9738580239
 40
0.2
100
AcDbArc
 50
90.0
 51
179.9999999998
  0
ARC
  5
5DE
100
AcDbEntity
  8
______
100
AcDbCircle
 62
5
  6
ACAD_ISO04W100
 10
507.9431928228
 20
261.3035937942
 40
0.2
100
AcDbArc
 50
4.9999999799
 51
65.0
  0
ARC
  5
5DF
100
AcDbEntity
  8
______
100
AcDbCircle
 62
5
  6
ACAD_ISO04W100
 10
507.1415364447
 20
261.6774123025
 40
0.2
100
AcDbArc
 50
64.9999999999
 51
154.9999999998
  0
ARC
  5
5E0
100
AcDbEntity
  8
______
100
AcDbCircle
 62
5
  6
ACAD_ISO04W100
 10
810.9175980752
 20
161.6216559449
 40
300.0
100
AcDbArc
 50
146.7868980423
 51
155.0
  0
ARC
  5
5E1
100
AcDbEntity
  8
0
100
AcDbCircle
 62
1
  6
CONTINUOUS
 10
666.5498238652
 20
108.353314926
 40
17.5
100
AcDbArc
 50
210.9621834835
 51
149.0378165165
  0
ARC
  5
5E2
100
AcDbEntity
  8
0
100
AcDbCircle
 62
1
  6
CONTINUOUS
 10
666.5498238652
 20
108.353314926
 40
13.5
100
AcDbArc
 50
221.8664395667
 51
138.1335604505
  0
ARC
  5
5E3
100
AcDbEntity
  8
0
100
AcDbCircle
 62
1
  6
CONTINUOUS
 10
666.5498238652
 20
108.353314926
 40
13.0
100
AcDbArc
 50
223.8803098659
 51
136.1196903032
  0
ARC
  5
5E4
100
AcDbEntity
  8
0
100
AcDbCircle
 62
1
  6
CONTINUOUS
 10
666.5498238652
 20
108.353314926
 40
11.0
100
AcDbArc
 50
235.0031911592
 51
125.0892917485
  0
ARC
  5
5E5
100
AcDbEntity
  8
0
100
AcDbCircle
 62
1
  6
CONTINUOUS
 10
666.5498238652
 20
108.353314926
 40
10.5
100
AcDbArc
 50
255.0
 51
120.9825156482
  0
ARC
  5
5E6
100
AcDbEntity
  8
0
100
AcDbCircle
 62
1
  6
CONTINUOUS
 10
666.5498238652
 20
108.353314926
 40
9.0
100
AcDbArc
 50
270.0
 51
90.0
  0
ARC
  5
5E7
100
AcDbEntity
  8
0
100
AcDbCircle
 62
1
  6
CONTINUOUS
 10
377.1043782773
 20
307.6527037272
 40
17.5
100
AcDbArc
 50
329.1968250145
 51
359.2291999634
  0
ARC
  5
5E8
100
AcDbEntity
  8
0
100
AcDbCircle
 62
1
  6
CONTINUOUS
 10
485.0639552406
 20
297.8238580239
 40
14.0
100
AcDbArc
 50
65.4698961322
 51
90.0
  0
ARC
  5
5E9
100
AcDbEntity
  8
0
100
AcDbCircle
 62
1
  6
CONTINUOUS
 10
477.1130268643
 20
309.0484324689
 40
4.275425555
100
AcDbArc
 50
43.2010638641
 51
129.9945881088
  0
ARC
  5
5EA
100
AcDbEntity
  8
0
100
AcDbCircle
 62
1
  6
CONTINUOUS
 10
405.7628203935
 20
309.4378096262
 40
3.8860483977
100
AcDbArc
 50
47.9592883277
 51
148.8447777478
  0
ARC
  5
5EB
100
AcDbEntity
  8
0
100
AcDbCircle
 62
1
  6
CONTINUOUS
 10
399.1651456606
 20
307.6733024684
 40
3.4005555556
100
AcDbArc
 50
19.7759776312
 51
160.2240223688
  0
ARC
  5
5EC
100
AcDbEntity
  8
0
100
AcDbCircle
 62
1
  6
CONTINUOUS
 10
389.8151456606
 20
281.3238580239
 40
2.25
100
AcDbArc
 50
180.0
 51
360.0
  0
ARC
  5
5ED
100
AcDbEntity
  8
0
100
AcDbCircle
 62
1
  6
CONTINUOUS
 10
389.8151456606
 20
293.3238580239
 40
2.25
100
AcDbArc
 50
0.0
 51
180.0
  0
ARC
  5
5EE
100
AcDbEntity
  8
0
100
AcDbCircle
 62
1
  6
CONTINUOUS
 10
414.8651589351
 20
313.8238479806
 40
1.9999982872
100
AcDbArc
 50
269.9996197109
 51
0.0002877227
  0
ARC
  5
5EF
100
AcDbEntity
  8
0
100
AcDbCircle
 62
1
  6
CONTINUOUS
 10
445.8651311768
 20
313.8238469513
 40
1.9999981311
100
AcDbArc
 50
179.9996827903
 51
270.0004149301
  0
ARC
  5
5F0
100
AcDbEntity
  8
0
100
AcDbCircle
 62
1
  6
CONTINUOUS
 10
402.8651456606
 20
311.1896100982
 40
0.5
100
AcDbArc
 50
148.8447777479
 51
180.0
  0
ARC
  5
5F1
100
AcDbEntity
  8
0
100
AcDbCircle
 62
1
  6
CONTINUOUS
 10
395.0918614784
 20
308.3238580239
 40
0.5
100
AcDbArc
 50
90.0
 51
180.0
  0
ARC
  5
5F2
100
AcDbEntity
  8
0
100
AcDbCircle
 62
1
  6
CONTINUOUS
 10
392.5651456606
 20
298.4350754031
 40
0.5
100
AcDbArc
 50
149.1968250154
 51
180.0
  0
ARC
  5
5F3
100
AcDbEntity
  8
0
100
AcDbCircle
 62
1
  6
CONTINUOUS
 10
479.8651456606
 20
311.6329402079
 40
0.5
100
AcDbArc
 50
14.4003485874
 51
43.2010638641
  0
ARC
  5
5F4
100
AcDbEntity
  8
0
100
AcDbCircle
 62
1
  6
CONTINUOUS
 10
417.1651456606
 20
323.5238580239
 40
0.3
100
AcDbArc
 50
90.0
 51
180.0
  0
ARC
  5
5F5
100
AcDbEntity
  8
0
100
AcDbCircle
 62
1
  6
CONTINUOUS
 10
443.5651456606
 20
323.5238580239
 40
0.3
100
AcDbArc
 50
0.0
 51
90.0
  0
ARC
  5
5F6
100
AcDbEntity
  8
0
100
AcDbCircle
 62
1
  6
CONTINUOUS
 10
447.1651456606
 20
368.3874111327
 40
90.0
100
AcDbArc
 50
351.7868980422
 51
360.0
  0
ARC
  5
5F7
100
AcDbEntity
  8
______
100
AcDbCircle
 62
5
  6
ACAD_ISO04W100
 10
484.6283572493
 20
375.2459320028
 40
90.0
100
AcDbArc
 50
326.7868980423
 51
335.0
  0
ARC
  5
5F8
100
AcDbEntity
  8
0
100
AcDbCircle
 62
1
  6
CONTINUOUS
 10
381.663945406
 20
350.3238580239
 40
38.7
100
AcDbArc
 50
342.5202966328
 51
17.4797033672
  0
ARC
  5
5F9
100
AcDbEntity
  8
0
100
AcDbCircle
 62
1
  6
CONTINUOUS
 10
479.0663459151
 20
350.3238580239
 40
38.7
100
AcDbArc
 50
162.5202966328
 51
197.4797033672
  0
ARC
  5
5FA
100
AcDbEntity
  8
0
100
AcDbCircle
 62
1
  6
CONTINUOUS
 10
430.3651456606
 20
388.3238580239
 40
12.25
100
AcDbArc
 50
145.7009216482
 51
214.2990783518
  0
ARC
  5
5FB
100
AcDbEntity
  8
0
100
AcDbCircle
 62
1
  6
CONTINUOUS
 10
430.3651456606
 20
388.3238580239
 40
12.25
100
AcDbArc
 50
325.7009216482
 51
34.2990783518
  0
ARC
  5
5FC
100
AcDbEntity
  8
0
100
AcDbCircle
 62
1
  6
CONTINUOUS
 10
428.1151456606
 20
335.6959396857
 40
10.0
100
AcDbArc
 50
162.5202966328
 51
180.0
  0
ARC
  5
5FD
100
AcDbEntity
  8
0
100
AcDbCircle
 62
1
  6
CONTINUOUS
 10
432.6151456606
 20
335.6959396857
 40
10.0
100
AcDbArc
 50
0.0
 51
17.4797033672
  0
ARC
  5
5FE
100
AcDbEntity
  8
0
100
AcDbCircle
 62
1
  6
CONTINUOUS
 10
428.1151456606
 20
364.9517763621
 40
10.0
100
AcDbArc
 50
180.0
 51
197.4797033672
  0
ARC
  5
5FF
100
AcDbEntity
  8
0
100
AcDbCircle
 62
1
  6
CONTINUOUS
 10
432.6151456606
 20
364.9517763621
 40
10.0
100
AcDbArc
 50
342.5202966328
 51
360.0
  0
ARC
  5
600
100
AcDbEntity
  8
0
100
AcDbCircle
 62
1
  6
CONTINUOUS
 10
421.6151456606
 20
375.698440976
 40
3.5
100
AcDbArc
 50
123.329972951
 51
180.0
  0
ARC
  5
601
100
AcDbEntity
  8
0
100
AcDbCircle
 62
1
  6
CONTINUOUS
 10
439.1151456606
 20
375.698440976
 40
3.5
100
AcDbArc
 50
0.0
 51
56.670027049
  0
ARC
  5
602
100
AcDbEntity
  8
0
100
AcDbCircle
 62
1
  6
CONTINUOUS
 10
418.5931157926
 20
380.293801188
 40
2.0
100
AcDbArc
 50
303.329972951
 51
34.2990783518
  0
ARC
  5
603
100
AcDbEntity
  8
0
100
AcDbCircle
 62
1
  6
CONTINUOUS
 10
442.1371755285
 20
380.293801188
 40
2.0
100
AcDbArc
 50
145.7009216482
 51
236.670027049
  0
ARC
  5
604
100
AcDbEntity
  8
0
100
AcDbCircle
 62
1
  6
CONTINUOUS
 10
518.5275478134
 20
312.6559063543
 40
300.0
100
AcDbArc
 50
171.7868980424
 51
180.0
  0
ARC
  5
605
100
AcDbEntity
  8
0
100
AcDbCircle
 62
1
  6
CONTINUOUS
 10
502.8874534029
 20
300.0259550753
 40
13.0
100
AcDbArc
 50
17.7271176663
 51
87.0
  0
ARC
  5
606
100
AcDbEntity
  8
______
100
AcDbCircle
 62
5
  6
ACAD_ISO04W100
 10
506.2391189387
 20
289.7401472066
 40
13.0
100
AcDbArc
 50
352.7271176663
 51
62.0000000001
  0
ARC
  5
607
100
AcDbEntity
  8
0
100
AcDbCircle
 62
1
  6
CONTINUOUS
 10
520.3651456606
 20
312.3738580239
 40
4.2
100
AcDbArc
 50
180.0
 51
270.0
  0
ARC
  5
608
100
AcDbEntity
  8
0
100
AcDbCircle
 62
1
  6
CONTINUOUS
 10
528.9651456606
 20
312.3738580239
 40
4.2
100
AcDbArc
 50
270.0
 51
360.0
  0
ARC
  5
609
100
AcDbEntity
  8
______
100
AcDbCircle
 62
5
  6
ACAD_ISO04W100
 10
527.2977368116
 20
293.5447558813
 40
4.2
100
AcDbArc
 50
155.0
 51
245.0
  0
ARC
  5
60A
100
AcDbEntity
  8
______
100
AcDbCircle
 62
5
  6
ACAD_ISO04W100
 10
535.0919837801
 20
289.9102388303
 40
4.2
100
AcDbArc
 50
245.0
 51
335.0
  0
ARC
  5
60B
100
AcDbEntity
  8
0
100
AcDbCircle
 62
1
  6
CONTINUOUS
 10
530.1651456606
 20
296.6328580239
 40
3.541
100
AcDbArc
 50
43.6602541049
 51
90.0
  0
ARC
  5
60C
100
AcDbEntity
  8
0
100
AcDbCircle
 62
1
  6
CONTINUOUS
 10
518.138815201
 20
305.9501884834
 40
2.2236695405
100
AcDbArc
 50
90.0
 51
250.0
  0
ARC
  5
60D
100
AcDbEntity
  8
0
100
AcDbCircle
 62
1
  6
CONTINUOUS
 10
531.1914761201
 20
305.9501884834
 40
2.2236695405
100
AcDbArc
 50
290.0
 51
90.0
  0
ARC
  5
60E
100
AcDbEntity
  8
______
100
AcDbCircle
 62
5
  6
ACAD_ISO04W100
 10
522.5652361244
 20
288.6638220643
 40
2.2236695405
100
AcDbArc
 50
65.0
 51
225.0
  0
ARC
  5
60F
100
AcDbEntity
  8
______
100
AcDbCircle
 62
5
  6
ACAD_ISO04W100
 10
534.3949643569
 20
283.1475291956
 40
2.2236695405
100
AcDbArc
 50
265.0
 51
65.0
  0
ARC
  5
610
100
AcDbEntity
  8
0
100
AcDbCircle
 62
1
  6
CONTINUOUS
 10
513.3651456606
 20
303.3752781343
 40
2.0
100
AcDbArc
 50
0.0
 51
17.7271176663
  0
ARC
  5
611
100
AcDbEntity
  8
0
100
AcDbCircle
 62
1
  6
CONTINUOUS
 10
532.3651456606
 20
280.9238580239
 40
2.0
100
AcDbArc
 50
284.5347111103
 51
360.0
  0
ARC
  5
612
100
AcDbEntity
  8
0
100
AcDbCircle
 62
1
  6
CONTINUOUS
 10
532.3651456606
 20
293.4238580239
 40
2.0
100
AcDbArc
 50
0.0
 51
75.4652888897
  0
ARC
  5
613
100
AcDbEntity
  8
______
100
AcDbCircle
 62
5
  6
ACAD_ISO04W100
 10
517.1506181113
 20
288.3476006873
 40
2.0
100
AcDbArc
 50
335.0
 51
352.7271176663
  0
ARC
  5
614
100
AcDbEntity
  8
0
100
AcDbCircle
 62
1
  6
CONTINUOUS
 10
518.7651456606
 20
302.8237542548
 40
0.5
100
AcDbArc
 50
0.0
 51
70.0
  0
ARC
  5
615
100
AcDbEntity
  8
0
100
AcDbCircle
 62
1
  6
CONTINUOUS
 10
517.4311710643
 20
299.6738580239
 40
0.5
100
AcDbArc
 50
90.0000000001
 51
150.0000000039
  0
ARC
  5
616
100
AcDbEntity
  8
0
100
AcDbCircle
 62
1
  6
CONTINUOUS
 10
530.5651456606
 20
302.8237542548
 40
0.5
100
AcDbArc
 50
110.0
 51
180.0
  0
ARC
  5
617
100
AcDbEntity
  8
0
100
AcDbCircle
 62
1
  6
CONTINUOUS
 10
532.3651456606
 20
298.7323058085
 40
0.5
100
AcDbArc
 50
0.0
 51
43.6602541043
  0
ARC
  5
618
100
AcDbEntity
  8
______
100
AcDbCircle
 62
5
  6
ACAD_ISO04W100
 10
521.811596098
 20
285.5656116871
 40
0.5
100
AcDbArc
 50
335.0
 51
45.0
  0
ARC
  5
619
100
AcDbEntity
  8
______
100
AcDbCircle
 62
5
  6
ACAD_ISO04W100
 10
519.2714008639
 20
283.2745982298
 40
0.5
100
AcDbArc
 50
65.0000000001
 51
125.0000000037
  0
ARC
  5
61A
100
AcDbEntity
  8
______
100
AcDbCircle
 62
5
  6
ACAD_ISO04W100
 10
532.506027985
 20
280.5787161986
 40
0.5
100
AcDbArc
 50
85.0
 51
155.0
  0
ARC
  5
61B
100
AcDbEntity
  8
0
100
AcDbCircle
 62
1
  6
CONTINUOUS
 10
516.4496756067
 20
299.3738580239
 40
0.2
100
AcDbArc
 50
270.0
 51
330.0000000201
  0
ARC
  5
61C
100
AcDbEntity
  8
0
100
AcDbCircle
 62
1
  6
CONTINUOUS
 10
515.5651456606
 20
299.3738580239
 40
0.2
100
AcDbArc
 50
180.0000000002
 51
270.0
  0
ARC
  5
61D
100
AcDbEntity
  8
______
100
AcDbCircle
 62
5
  6
ACAD_ISO04W100
 10
518.2550784092
 20
283.4175037979
 40
0.2
100
AcDbArc
 50
244.9999999999
 51
305.0000000202
  0
ARC
  5
61E
100
AcDbEntity
  8
______
100
AcDbCircle
 62
5
  6
ACAD_ISO04W100
 10
517.4534220312
 20
283.7913223062
 40
0.2
100
AcDbArc
 50
155.0000000001
 51
245.0
  0
ARC
  5
61F
100
AcDbEntity
  8
0
100
AcDbCircle
 62
1
  6
CONTINUOUS
 10
602.1651456606
 20
368.3874111327
 40
90.0
100
AcDbArc
 50
180.0
 51
188.2131019578
  0
ARC
  5
620
100
AcDbEntity
  8
0
100
AcDbCircle
 62
1
  6
CONTINUOUS
 10
521.1651456606
 20
370.1738580239
 40
9.0
100
AcDbArc
 50
94.7801918472
 51
180.0
  0
ARC
  5
621
100
AcDbEntity
  8
0
100
AcDbCircle
 62
1
  6
CONTINUOUS
 10
528.1651456606
 20
370.1738580239
 40
9.0
100
AcDbArc
 50
0.0
 51
85.2198081528
  0
ARC
  5
622
100
AcDbEntity
  8
______
100
AcDbCircle
 62
5
  6
ACAD_ISO04W100
 10
552.4501185699
 20
345.5912513626
 40
9.0
100
AcDbArc
 50
69.7801918472
 51
155.0
  0
ARC
  5
623
100
AcDbEntity
  8
______
100
AcDbCircle
 62
5
  6
ACAD_ISO04W100
 10
558.7942730791
 20
342.6329235304
 40
9.0
100
AcDbArc
 50
335.0
 51
60.2198081528
  0
ARC
  5
624
100
AcDbEntity
  8
0
100
AcDbCircle
 62
1
  6
CONTINUOUS
 10
518.6651456606
 20
381.4238580239
 40
2.25
100
AcDbArc
 50
90.0
 51
270.0
  0
ARC
  5
625
100
AcDbEntity
  8
0
100
AcDbCircle
 62
1
  6
CONTINUOUS
 10
530.6651456606
 20
381.4238580239
 40
2.25
100
AcDbArc
 50
270.0
 51
90.0
  0
ARC
  5
626
100
AcDbEntity
  8
______
100
AcDbCircle
 62
5
  6
ACAD_ISO04W100
 10
554.9388045468
 20
356.8437596211
 40
2.25
100
AcDbArc
 50
65.0
 51
245.0
  0
ARC
  5
627
100
AcDbEntity
  8
______
100
AcDbCircle
 62
5
  6
ACAD_ISO04W100
 10
565.8144979913
 20
351.7723404802
 40
2.25
100
AcDbArc
 50
245.0
 51
65.0
  0
ARC
  5
628
100
AcDbEntity
  8
0
100
AcDbCircle
 62
1
  6
CONTINUOUS
 10
521.4651456606
 20
378.9738580239
 40
0.2
100
AcDbArc
 50
59.1546234912
 51
89.9999999949
  0
ARC
  5
629
100
AcDbEntity
  8
0
100
AcDbCircle
 62
1
  6
CONTINUOUS
 10
527.8651456606
 20
378.9738580239
 40
0.2
100
AcDbArc
 50
90.0000000051
 51
120.8453765088
  0
ARC
  5
62A
100
AcDbEntity
  8
______
100
AcDbCircle
 62
5
  6
ACAD_ISO04W100
 10
556.4410516093
 20
353.43997441
 40
0.2
100
AcDbArc
 50
34.1546234912
 51
64.9999999949
  0
ARC
  5
62B
100
AcDbEntity
  8
______
100
AcDbCircle
 62
5
  6
ACAD_ISO04W100
 10
562.2414214463
 20
350.7352175349
 40
0.2
100
AcDbArc
 50
65.0000000051
 51
95.8453765088
  0
ARC
  5
62C
100
AcDbEntity
  8
0
100
AcDbCircle
 62
1
  6
CONTINUOUS
 10
428.1151456606
 20
411.9741833635
 40
10.0
100
AcDbArc
 50
165.2179842608
 51
180.0
  0
ARC
  5
62D
100
AcDbEntity
  8
0
100
AcDbCircle
 62
1
  6
CONTINUOUS
 10
427.8651456606
 20
447.5946935425
 40
10.0
100
AcDbArc
 50
180.0
 51
195.5862551855
  0
ARC
  5
62E
100
AcDbEntity
  8
0
100
AcDbCircle
 62
1
  6
CONTINUOUS
 10
432.6151456606
 20
411.9741833635
 40
10.0
100
AcDbArc
 50
0.0
 51
14.7820157392
  0
ARC
  5
62F
100
AcDbEntity
  8
0
100
AcDbCircle
 62
1
  6
CONTINUOUS
 10
432.8651456606
 20
447.5946935425
 40
10.0
100
AcDbArc
 50
344.4137448145
 51
360.0
  0
ARC
  5
630
100
AcDbEntity
  8
0
100
AcDbCircle
 62
1
  6
CONTINUOUS
 10
421.6151456606
 20
400.9492750717
 40
3.5
100
AcDbArc
 50
180.0
 51
236.670027049
  0
ARC
  5
631
100
AcDbEntity
  8
0
100
AcDbCircle
 62
1
  6
CONTINUOUS
 10
439.1151456606
 20
400.9492750717
 40
3.5
100
AcDbArc
 50
303.329972951
 51
360.0
  0
ARC
  5
632
100
AcDbEntity
  8
0
100
AcDbCircle
 62
1
  6
CONTINUOUS
 10
418.5931157926
 20
396.3539148598
 40
2.0
100
AcDbArc
 50
325.7009216482
 51
56.670027049
  0
ARC
  5
633
100
AcDbEntity
  8
0
100
AcDbCircle
 62
1
  6
CONTINUOUS
 10
442.1371755285
 20
396.3539148598
 40
2.0
100
AcDbArc
 50
123.329972951
 51
214.2990783518
  0
ARC
  5
634
100
AcDbEntity
  8
0
100
AcDbCircle
 62
1
  6
CONTINUOUS
 10
430.3651456606
 20
463.3783930211
 40
17.5
100
AcDbArc
 50
37.1942930906
 51
64.5362050383
  0
ARC
  5
635
100
AcDbEntity
  8
0
100
AcDbCircle
 62
1
  6
CONTINUOUS
 10
430.3651456606
 20
463.3783930211
 40
17.5
100
AcDbArc
 50
115.4637949617
 51
157.7572763911
  0
ARC
  5
636
100
AcDbEntity
  8
0
100
AcDbCircle
 62
1
  6
CONTINUOUS
 10
430.3651456606
 20
463.3783930211
 40
17.5
100
AcDbArc
 50
202.2427236089
 51
223.2539526646
  0
ARC
  5
637
100
AcDbEntity
  8
0
100
AcDbCircle
 62
1
  6
CONTINUOUS
 10
430.3651456606
 20
463.3783930211
 40
17.5
100
AcDbArc
 50
316.7460473354
 51
322.8057069094
  0
ARC
  5
638
100
AcDbEntity
  8
0
100
AcDbCircle
 62
1
  6
CONTINUOUS
 10
407.6170688513
 20
467.441901348
 40
4.0
100
AcDbArc
 50
30.5765103844
 51
149.4234896156
  0
ARC
  5
639
100
AcDbEntity
  8
0
100
AcDbCircle
 62
1
  6
CONTINUOUS
 10
407.6170688513
 20
459.3148846942
 40
4.0
100
AcDbArc
 50
210.5765103844
 51
329.4234896156
  0
ARC
  5
63A
100
AcDbEntity
  8
0
100
AcDbCircle
 62
1
  6
CONTINUOUS
 10
400.6170688513
 20
466.2603590323
 40
1.0
100
AcDbArc
 50
116.5650511803
 51
180.0
  0
ARC
  5
63B
100
AcDbEntity
  8
0
100
AcDbCircle
 62
1
  6
CONTINUOUS
 10
400.6170688513
 20
460.4964270098
 40
1.0
100
AcDbArc
 50
180.0
 51
243.4349488197
  0
ARC
  5
63C
100
AcDbEntity
  8
0
100
AcDbCircle
 62
1
  6
CONTINUOUS
 10
417.7651456606
 20
451.5238580239
 40
0.2
100
AcDbArc
 50
223.2539526646
 51
270.0
  0
ARC
  5
63D
100
AcDbEntity
  8
0
100
AcDbCircle
 62
1
  6
CONTINUOUS
 10
403.3170688513
 20
469.1783930211
 40
0.2
100
AcDbArc
 50
90.0
 51
180.0
  0
ARC
  5
63E
100
AcDbEntity
  8
0
100
AcDbCircle
 62
1
  6
CONTINUOUS
 10
403.3170688513
 20
457.5783930211
 40
0.2
100
AcDbArc
 50
180.0
 51
270.0
  0
ARC
  5
63F
100
AcDbEntity
  8
0
100
AcDbCircle
 62
1
  6
CONTINUOUS
 10
412.8170688513
 20
469.6783930211
 40
0.2
100
AcDbArc
 50
90.0
 51
180.0
  0
ARC
  5
640
100
AcDbEntity
  8
0
100
AcDbCircle
 62
1
  6
CONTINUOUS
 10
412.8170688513
 20
457.0783930211
 40
0.2
100
AcDbArc
 50
180.0
 51
270.0
  0
ARC
  5
641
100
AcDbEntity
  8
0
100
AcDbCircle
 62
1
  6
CONTINUOUS
 10
402.9170688513
 20
458.0047862233
 40
0.2
100
AcDbArc
 50
0.0000000123
 51
63.4349487149
  0
ARC
  5
642
100
AcDbEntity
  8
0
100
AcDbCircle
 62
1
  6
CONTINUOUS
 10
402.9170688513
 20
468.7519998188
 40
0.2
100
AcDbArc
 50
296.5650512852
 51
359.9999999877
  0
ARC
  5
643
100
AcDbEntity
  8
0
100
AcDbCircle
 62
1
  6
CONTINUOUS
 10
404.0010761341
 20
457.1783930211
 40
0.2
100
AcDbArc
 50
30.5765103841
 51
90.0
  0
ARC
  5
644
100
AcDbEntity
  8
0
100
AcDbCircle
 62
1
  6
CONTINUOUS
 10
404.0010761341
 20
469.5783930211
 40
0.2
100
AcDbArc
 50
270.0
 51
329.4234896159
  0
ARC
  5
645
100
AcDbEntity
  8
0
100
AcDbCircle
 62
1
  6
CONTINUOUS
 10
411.2330615685
 20
457.1783930211
 40
0.2
100
AcDbArc
 50
90.0
 51
149.4234896159
  0
ARC
  5
646
100
AcDbEntity
  8
0
100
AcDbCircle
 62
1
  6
CONTINUOUS
 10
411.2330615685
 20
469.5783930211
 40
0.2
100
AcDbArc
 50
210.5765103841
 51
270.0
  0
ARC
  5
647
100
AcDbEntity
  8
0
100
AcDbCircle
 62
1
  6
CONTINUOUS
 10
412.4170688513
 20
457.1783930211
 40
0.2
100
AcDbArc
 50
0.0000000072
 51
90.0
  0
ARC
  5
648
100
AcDbEntity
  8
0
100
AcDbCircle
 62
1
  6
CONTINUOUS
 10
412.4170688513
 20
469.5783930211
 40
0.2
100
AcDbArc
 50
270.0
 51
359.9999999928
  0
ARC
  5
649
100
AcDbEntity
  8
0
100
AcDbCircle
 62
1
  6
CONTINUOUS
 10
413.9822277275
 20
456.6783930211
 40
0.2
100
AcDbArc
 50
22.2427236089
 51
90.0
  0
ARC
  5
64A
100
AcDbEntity
  8
0
100
AcDbCircle
 62
1
  6
CONTINUOUS
 10
413.9822277275
 20
470.0783930211
 40
0.2
100
AcDbArc
 50
270.0
 51
337.7572763911
  0
ARC
  5
64B
100
AcDbEntity
  8
0
100
AcDbCircle
 62
1
  6
CONTINUOUS
 10
430.3651456606
 20
490.3590963292
 40
8.75
100
AcDbArc
 50
119.1099089399
 51
234.1521120898
  0
ARC
  5
64C
100
AcDbEntity
  8
0
100
AcDbCircle
 62
1
  6
CONTINUOUS
 10
430.3651456606
 20
490.3590963292
 40
8.75
100
AcDbArc
 50
305.8478879102
 51
60.8900910601
  0
ARC
  5
64D
100
AcDbEntity
  8
0
100
AcDbCircle
 62
1
  6
CONTINUOUS
 10
430.3651456606
 20
502.9283930211
 40
5.25
100
AcDbArc
 50
321.5000495907
 51
218.4999504093
  0
ARC
  5
64E
100
AcDbEntity
  8
0
100
AcDbCircle
 62
1
  6
CONTINUOUS
 10
424.9151456606
 20
480.5783930211
 40
1.8
100
AcDbArc
 50
90.0
 51
180.0
  0
ARC
  5
64F
100
AcDbEntity
  8
0
100
AcDbCircle
 62
1
  6
CONTINUOUS
 10
425.8651456606
 20
498.4407112669
 40
0.5
100
AcDbArc
 50
299.1099089399
 51
360.0
  0
ARC
  5
650
100
AcDbEntity
  8
0
100
AcDbCircle
 62
1
  6
CONTINUOUS
 10
425.8651456606
 20
499.3489377552
 40
0.5
100
AcDbArc
 50
0.0
 51
38.4999504108
  0
ARC
  5
651
100
AcDbEntity
  8
0
100
AcDbCircle
 62
1
  6
CONTINUOUS
 10
425.0651456606
 20
482.6783930211
 40
0.3
100
AcDbArc
 50
270.0
 51
360.0
  0
ARC
  5
652
100
AcDbEntity
  8
0
100
AcDbCircle
 62
1
  6
CONTINUOUS
 10
425.0651456606
 20
483.0233959537
 40
0.3
100
AcDbArc
 50
0.0
 51
54.1521120907
  0
ARC
  5
653
100
AcDbEntity
  8
0
100
AcDbCircle
 62
1
  6
CONTINUOUS
 10
455.1854796845
 20
467.3898857696
 40
8.0
100
AcDbArc
 50
54.6538239838
 51
136.0746631419
  0
ARC
  5
654
100
AcDbEntity
  8
0
100
AcDbCircle
 62
1
  6
CONTINUOUS
 10
455.1854796845
 20
459.3669002725
 40
8.0
100
AcDbArc
 50
223.9253368581
 51
305.3461760162
  0
ARC
  5
655
100
AcDbEntity
  8
0
100
AcDbCircle
 62
1
  6
CONTINUOUS
 10
461.3651456606
 20
472.8783930211
 40
1.0
100
AcDbArc
 50
0.0
 51
90.0
  0
ARC
  5
656
100
AcDbEntity
  8
0
100
AcDbCircle
 62
1
  6
CONTINUOUS
 10
461.3651456606
 20
453.8783930211
 40
1.0
100
AcDbArc
 50
270.0
 51
360.0
  0
ARC
  5
657
100
AcDbEntity
  8
0
100
AcDbCircle
 62
1
  6
CONTINUOUS
 10
442.9651456606
 20
451.5238580239
 40
0.2
100
AcDbArc
 50
270.0
 51
316.7460473354
  0
ARC
  5
658
100
AcDbEntity
  8
0
100
AcDbCircle
 62
1
  6
CONTINUOUS
 10
447.1651456606
 20
473.6783930211
 40
0.2
100
AcDbArc
 50
0.0
 51
90.0
  0
ARC
  5
659
100
AcDbEntity
  8
0
100
AcDbCircle
 62
1
  6
CONTINUOUS
 10
447.1651456606
 20
453.0783930211
 40
0.2
100
AcDbArc
 50
270.0
 51
360.0
  0
ARC
  5
65A
100
AcDbEntity
  8
0
100
AcDbCircle
 62
1
  6
CONTINUOUS
 10
444.4647910462
 20
452.6783930211
 40
0.2
100
AcDbArc
 50
90.0
 51
142.8057069094
  0
ARC
  5
65B
100
AcDbEntity
  8
0
100
AcDbCircle
 62
1
  6
CONTINUOUS
 10
444.4647910462
 20
474.0783930211
 40
0.2
100
AcDbArc
 50
217.1942930906
 51
270.0
  0
ARC
  5
65C
100
AcDbEntity
  8
0
100
AcDbCircle
 62
1
  6
CONTINUOUS
 10
447.5651456606
 20
453.6783930211
 40
0.2
100
AcDbArc
 50
90.0
 51
179.9999999993
  0
ARC
  5
65D
100
AcDbEntity
  8
0
100
AcDbCircle
 62
1
  6
CONTINUOUS
 10
447.5651456606
 20
473.0783930211
 40
0.2
100
AcDbArc
 50
180.0000000006
 51
270.0
  0
ARC
  5
65E
100
AcDbEntity
  8
0
100
AcDbCircle
 62
1
  6
CONTINUOUS
 10
449.279475515
 20
453.6783930211
 40
0.2
100
AcDbArc
 50
43.9253368281
 51
90.0
  0
ARC
  5
65F
100
AcDbEntity
  8
0
100
AcDbCircle
 62
1
  6
CONTINUOUS
 10
449.279475515
 20
473.0783930211
 40
0.2
100
AcDbArc
 50
270.0
 51
316.0746631719
  0
ARC
  5
660
100
AcDbEntity
  8
0
100
AcDbCircle
 62
1
  6
CONTINUOUS
 10
459.9293041698
 20
452.6783930211
 40
0.2
100
AcDbArc
 50
90.0
 51
125.3461760351
  0
ARC
  5
661
100
AcDbEntity
  8
0
100
AcDbCircle
 62
1
  6
CONTINUOUS
 10
459.9293041698
 20
474.0783930211
 40
0.2
100
AcDbArc
 50
234.6538239649
 51
270.0
  0
ARC
  5
662
100
AcDbEntity
  8
0
100
AcDbCircle
 62
1
  6
CONTINUOUS
 10
435.8151456606
 20
480.5783930211
 40
1.8
100
AcDbArc
 50
0.0
 51
90.0
  0
ARC
  5
663
100
AcDbEntity
  8
0
100
AcDbCircle
 62
1
  6
CONTINUOUS
 10
434.8651456606
 20
498.4407112669
 40
0.5
100
AcDbArc
 50
180.0
 51
240.8900910601
  0
ARC
  5
664
100
AcDbEntity
  8
0
100
AcDbCircle
 62
1
  6
CONTINUOUS
 10
434.8651456606
 20
499.3489377552
 40
0.5
100
AcDbArc
 50
141.5000495892
 51
180.0
  0
ARC
  5
665
100
AcDbEntity
  8
0
100
AcDbCircle
 62
1
  6
CONTINUOUS
 10
435.6651456606
 20
482.6783930211
 40
0.3
100
AcDbArc
 50
180.0
 51
270.0
  0
ARC
  5
666
100
AcDbEntity
  8
0
100
AcDbCircle
 62
1
  6
CONTINUOUS
 10
435.6651456606
 20
483.0233959537
 40
0.3
100
AcDbArc
 50
125.8478879093
 51
180.0
  0
ARC
  5
667
100
AcDbEntity
  8
0
100
AcDbCircle
 62
1
  6
CONTINUOUS
 10
498.3645851196
 20
429.3238580239
 40
58.0
100
AcDbArc
 50
164.4137448145
 51
194.7820157392
  0
ARC
  5
668
100
AcDbEntity
  8
0
100
AcDbCircle
 62
1
  6
CONTINUOUS
 10
575.929057159
 20
498.3783930211
 40
44.0
100
AcDbArc
 50
270.0
 51
301.9999999999
  0
ARC
  5
669
100
AcDbEntity
  8
0
100
AcDbCircle
 62
1
  6
CONTINUOUS
 10
575.929057159
 20
498.3783930211
 40
26.0
100
AcDbArc
 50
270.0
 51
301.9999999999
  0
ARC
  5
66A
100
AcDbEntity
  8
0
100
AcDbCircle
 62
1
  6
CONTINUOUS
 10
833.1651456606
 20
312.6738580239
 40
300.0
100
AcDbArc
 50
171.7868980422
 51
180.0
  0
ARC
  5
66B
100
AcDbEntity
  8
______
100
AcDbCircle
 62
5
  6
ACAD_ISO04W100
 10
625.10606424
 20
309.740101433
 40
90.0
100
AcDbArc
 50
155.0
 51
163.2131019577
  0
ARC
  5
66C
100
AcDbEntity
  8
0
100
AcDbCircle
 62
1
  6
CONTINUOUS
 10
632.5498238652
 20
452.3956649854
 40
43.0
100
AcDbArc
 50
0.0
 51
121.9999999999
  0
ARC
  5
66D
100
AcDbEntity
  8
0
100
AcDbCircle
 62
1
  6
CONTINUOUS
 10
632.5498238652
 20
452.3956649854
 40
25.0
100
AcDbArc
 50
0.0
 51
121.9999999999
  0
ARC
  5
66E
100
AcDbEntity
  8
0
100
AcDbCircle
 62
1
  6
CONTINUOUS
 10
682.8430783562
 20
452.3956649854
 40
7.293254491
100
AcDbArc
 50
180.0
 51
218.2987270773
  0
ARC
  5
66F
100
AcDbEntity
  8
0
100
AcDbCircle
 62
1
  6
CONTINUOUS
 10
650.2565693742
 20
452.3956649854
 40
7.293254491
100
AcDbArc
 50
321.7012729227
 51
360.0
  0
ARC
  5
670
100
AcDbEntity
  8
0
100
AcDbCircle
 62
1
  6
CONTINUOUS
 10
651.0498238652
 20
437.8783930211
 40
2.0
100
AcDbArc
 50
90.0
 51
270.0
  0
ARC
  5
671
100
AcDbEntity
  8
0
100
AcDbCircle
 62
1
  6
CONTINUOUS
 10
682.0498238652
 20
437.8783930211
 40
2.0
100
AcDbArc
 50
270.0
 51
90.0
  0
ARC
  5
672
100
AcDbEntity
  8
0
100
AcDbCircle
 62
1
  6
CONTINUOUS
 10
657.5498238652
 20
446.6360627453
 40
2.0
100
AcDbArc
 50
141.7012729084
 51
172.9999693059
  0
ARC
  5
673
100
AcDbEntity
  8
0
100
AcDbCircle
 62
1
  6
CONTINUOUS
 10
675.5498238652
 20
446.6360627453
 40
2.0
100
AcDbArc
 50
7.0000306941
 51
38.2987270916
  0
ARC
  5
674
100
AcDbEntity
  8
0
100
AcDbCircle
 62
1
  6
CONTINUOUS
 10
679.0498238652
 20
432.2926065834
 40
1.0
100
AcDbArc
 50
315.0
 51
360.0
  0
ARC
  5
675
100
AcDbEntity
  8
0
100
AcDbCircle
 62
1
  6
CONTINUOUS
 10
654.0498238652
 20
432.2926065834
 40
1.0
100
AcDbArc
 50
180.0
 51
225.0
  0
ARC
  5
676
100
AcDbEntity
  8
0
100
AcDbCircle
 62
1
  6
CONTINUOUS
 10
679.0498238652
 20
446.3783930211
 40
0.5
100
AcDbArc
 50
0.0
 51
90.0
  0
ARC
  5
677
100
AcDbEntity
  8
0
100
AcDbCircle
 62
1
  6
CONTINUOUS
 10
654.0498238652
 20
446.3783930211
 40
0.5
100
AcDbArc
 50
90.0
 51
180.0
  0
ARC
  5
678
100
AcDbEntity
  8
0
100
AcDbCircle
 62
1
  6
CONTINUOUS
 10
653.5881903013
 20
430.6329198038
 40
0.5
100
AcDbArc
 50
11.003540852
 51
45.0000000006
  0
ARC
  5
679
100
AcDbEntity
  8
0
100
AcDbCircle
 62
1
  6
CONTINUOUS
 10
679.5114574291
 20
430.6329198038
 40
0.5
100
AcDbArc
 50
134.9999999994
 51
168.996459148
  0
ARC
  5
67A
100
AcDbEntity
  8
0
100
AcDbCircle
 62
1
  6
CONTINUOUS
 10
653.2498238652
 20
443.6783930211
 40
0.2
100
AcDbArc
 50
90.0
 51
180.0
  0
ARC
  5
67B
100
AcDbEntity
  8
0
100
AcDbCircle
 62
1
  6
CONTINUOUS
 10
679.8498238652
 20
443.6783930211
 40
0.2
100
AcDbArc
 50
0.0
 51
90.0
  0
ARC
  5
67C
100
AcDbEntity
  8
0
100
AcDbCircle
 62
1
  6
CONTINUOUS
 10
677.1349669672
 20
422.0783930211
 40
0.2
100
AcDbArc
 50
270.0
 51
348.996459148
  0
ARC
  5
67D
100
AcDbEntity
  8
0
100
AcDbCircle
 62
1
  6
CONTINUOUS
 10
655.9646807632
 20
422.0783930211
 40
0.2
100
AcDbArc
 50
191.003540852
 51
270.0
  0
ARC
  5
67E
100
AcDbEntity
  8
0
100
AcDbCircle
 62
1
  6
CONTINUOUS
 10
680.2498238652
 20
435.6783930211
 40
0.2
100
AcDbArc
 50
90.0000000003
 51
180.0
  0
ARC
  5
67F
100
AcDbEntity
  8
0
100
AcDbCircle
 62
1
  6
CONTINUOUS
 10
652.8498238652
 20
435.6783930211
 40
0.2
100
AcDbArc
 50
0.0
 51
89.9999999997
  0
ARC
  5
680
100
AcDbEntity
  8
0
100
AcDbCircle
 62
1
  6
CONTINUOUS
 10
680.2498238652
 20
440.0783930211
 40
0.2
100
AcDbArc
 50
180.0
 51
269.9999999999
  0
ARC
  5
681
100
AcDbEntity
  8
0
100
AcDbCircle
 62
1
  6
CONTINUOUS
 10
652.8498238652
 20
440.0783930211
 40
0.2
100
AcDbArc
 50
270.0000000001
 51
360.0
  0
ARC
  5
682
100
AcDbEntity
  8
0
100
AcDbCircle
 62
1
  6
CONTINUOUS
 10
2930.2880218982
 20
4194.1264815021
 40
4845.7985886651
100
AcDbArc
 50
235.532075843
 51
235.6621812204
  0
SPLINE
  5
683
100
AcDbEntity
  8
0
100
AcDbSpline
 62
1
  6
CONTINUOUS
 70
0
 71
3
 72
51
 73
47
 74
0
 42
0.0000001
 43
0.0000001
 44
0.0000000001
 40
0.0
 40
0.0
 40
0.0
 40
0.0
 40
0.0002040512
 40
0.000812419
 40
0.0018220366
 40
0.0032298371
 40
0.0050327342
 40
0.0072257858
 40
0.0127487506
 40
0.0197297425
 40
0.028093862
 40
0.0377526696
 40
0.0486157934
 40
0.0735968236
 40
0.1023400279
 40
0.1342256606
 40
0.1687249646
 40
0.2054008905
 40
0.2438992747
 40
0.3252535128
 40
0.3677216537
 40
0.411151672
 40
0.4553517484
 40
0.5000000618
 40
0.5446483177
 40
0.5888481605
 40
0.6322779748
 40
0.6747461756
 40
0.7561003865
 40
0.7945987673
 40
0.831274761
 40
0.865774178
 40
0.8976599094
 40
0.9264031639
 40
0.9513842147
 40
0.962247343
 40
0.9719061535
 40
0.9802702743
 40
0.9872512613
 40
0.9927742184
 40
0.9949672713
 40
0.996770174
 40
0.9981779785
 40
0.9991875967
 40
0.99979596
 40
1.0
 40
1.0
 40
1.0
 40
1.0
 10
450.6151456606
 20
260.8238580239
 30
0.0
 10
450.6137653541
 20
260.8268283128
 30
0.0
 10
450.601712493
 20
260.8338782973
 30
0.0
 10
450.5825936648
 20
260.8554375953
 30
0.0
 10
450.5455309378
 20
260.8873724928
 30
0.0
 10
450.4962948283
 20
260.9336961501
 30
0.0
 10
450.4322458435
 20
260.9922713238
 30
0.0
 10
450.319890954
 20
261.0957807921
 30
0.0
 10
450.1460116333
 20
261.2552412914
 30
0.0
 10
449.8988586449
 20
261.4813217733
 30
0.0
 10
449.6021112314
 20
261.7515566749
 30
0.0
 10
449.2584616353
 20
262.0628304571
 30
0.0
 10
448.7156095804
 20
262.5514907111
 30
0.0
 10
447.9410925349
 20
263.2406614233
 30
0.0
 10
446.9056625026
 20
264.1441588875
 30
0.0
 10
445.7424850631
 20
265.1334968032
 30
0.0
 10
444.4649079661
 20
266.1845446505
 30
0.0
 10
443.0817997998
 20
267.2740733909
 30
0.0
 10
441.0653212698
 20
268.7728014742
 30
0.0
 10
438.8869747967
 20
270.2124132924
 30
0.0
 10
436.5079364184
 20
271.4623206961
 30
0.0
 10
434.57112855
 20
272.2545975922
 30
0.0
 10
432.5105236816
 20
272.7983757082
 30
0.0
 10
430.3651436371
 20
272.99557379
 30
0.0
 10
428.2197668643
 20
272.7983779052
 30
0.0
 10
426.1591705936
 20
272.2545984733
 30
0.0
 10
424.2223679339
 20
271.4623253924
 30
0.0
 10
421.8433306431
 20
270.212421697
 30
0.0
 10
419.6649830142
 20
268.7728107172
 30
0.0
 10
417.6485034815
 20
267.2740829802
 30
0.0
 10
416.2653929218
 20
266.1845526721
 30
0.0
 10
414.9878122351
 20
265.1335021253
 30
0.0
 10
413.8246316754
 20
264.1441613889
 30
0.0
 10
412.7891996191
 20
263.2406621065
 30
0.0
 10
412.0146815274
 20
262.5514907521
 30
0.0
 10
411.4718292118
 20
262.0628301146
 30
0.0
 10
411.1281795949
 20
261.7515561485
 30
0.0
 10
410.8314322658
 20
261.4813211776
 30
0.0
 10
410.5842793484
 20
261.2552408728
 30
0.0
 10
410.4104001059
 20
261.0957805908
 30
0.0
 10
410.2980451546
 20
260.9922711541
 30
0.0
 10
410.2339962647
 20
260.9336957312
 30
0.0
 10
410.1847597134
 20
260.8873720179
 30
0.0
 10
410.1476979633
 20
260.8554367275
 30
0.0
 10
410.1285776643
 20
260.833878194
 30
0.0
 10
410.1165267152
 20
260.8268277673
 30
0.0
 10
410.1151456606
 20
260.8238580239
 30
0.0
  0
SPLINE
  5
684
100
AcDbEntity
  8
0
100
AcDbSpline
 62
1
  6
CONTINUOUS
 70
0
 71
3
 72
47
 73
43
 74
0
 42
0.0000001
 43
0.0000001
 44
0.0000000001
 40
0.0
 40
0.0
 40
0.0
 40
0.0
 40
0.0001810047
 40
0.0007203062
 40
0.0016156487
 40
0.0028647766
 40
0.004465435
 40
0.0064153695
 40
0.0113488458
 40
0.0176207028
 40
0.0251810844
 40
0.033977786
 40
0.0439504536
 40
0.0671759235
 40
0.0943625141
 40
0.1250380283
 40
0.1587750635
 40
0.1951962321
 40
0.2339734273
 40
0.3174421109
 40
0.4070159736
 40
0.5000615997
 40
0.5931047513
 40
0.6826718164
 40
0.7661309066
 40
0.8049020533
 40
0.8413163948
 40
0.8750458985
 40
0.9057128622
 40
0.9328895046
 40
0.9561027327
 40
0.9660676218
 40
0.9748562035
 40
0.9824088375
 40
0.9886715689
 40
0.9935966927
 40
0.9955443977
 40
0.9971438753
 40
0.9983916389
 40
0.9992844934
 40
0.9998209209
 40
1.0
 40
1.0
 40
1.0
 40
1.0
 10
416.8651456606
 20
313.8238580239
 30
0.0
 10
416.8659526801
 20
313.8222908241
 30
0.0
 10
416.8733428811
 20
313.8197598393
 30
0.0
 10
416.8848879015
 20
313.809644159
 30
0.0
 10
416.9074535997
 20
313.7958447156
 30
0.0
 10
416.9373859827
 20
313.7752230557
 30
0.0
 10
416.9763999851
 20
313.7493856302
 30
0.0
 10
417.0450735578
 20
313.7034837952
 30
0.0
 10
417.1518146387
 20
313.6326007804
 30
0.0
 10
417.3043346561
 20
313.5319260546
 30
0.0
 10
417.4887755816
 20
313.4113012276
 30
0.0
 10
417.7040227832
 20
313.2719416915
 30
0.0
 10
418.0486177636
 20
313.0516632661
 30
0.0
 10
418.5473663081
 20
312.7400327269
 30
0.0
 10
419.2240874701
 20
312.3329098351
 30
0.0
 10
419.9980493983
 20
311.8891518802
 30
0.0
 10
420.8623358122
 20
311.4226881415
 30
0.0
 10
421.8113380886
 20
310.9479171882
 30
0.0
 10
423.2182667161
 20
310.3082675673
 30
0.0
 10
425.1532291676
 20
309.5821486774
 30
0.0
 10
427.6794178232
 20
308.968606216
 30
0.0
 10
430.3669315264
 20
308.7412129452
 30
0.0
 10
433.0543270704
 20
308.969182741
 30
0.0
 10
435.5802175035
 20
309.5831482757
 30
0.0
 10
437.514874194
 20
310.3094486988
 30
0.0
 10
438.9215355104
 20
310.9491569429
 30
0.0
 10
439.8703179438
 20
311.4239225051
 30
0.0
 10
440.7343740265
 20
311.8903429271
 30
0.0
 10
441.5080892791
 20
312.3340212956
 30
0.0
 10
442.1845324742
 20
312.7410252902
 30
0.0
 10
442.683023094
 20
313.0525177805
 30
0.0
 10
443.0273785362
 20
313.2726621008
 30
0.0
 10
443.2424377018
 20
313.411888152
 30
0.0
 10
443.4266628734
 20
313.5323988751
 30
0.0
 10
443.5789774859
 20
313.6329368709
 30
0.0
 10
443.6855716635
 20
313.7036984963
 30
0.0
 10
443.7541335624
 20
313.749554753
 30
0.0
 10
443.7931134281
 20
313.7753734528
 30
0.0
 10
443.822956912
 20
313.7960040651
 30
0.0
 10
443.8455564718
 20
313.8097151132
 30
0.0
 10
443.8568992924
 20
313.8198676642
 30
0.0
 10
443.8644070764
 20
313.8222781104
 30
0.0
 10
443.8651456606
 20
313.8238580239
 30
0.0
  0
SPLINE
  5
685
100
AcDbEntity
  8
0
100
AcDbSpline
 62
1
  6
CONTINUOUS
 70
0
 71
3
 72
37
 73
33
 74
0
 42
0.0000001
 43
0.0000001
 44
0.0000000001
 40
0.0
 40
0.0
 40
0.0
 40
0.0
 40
0.000191822
 40
0.0007637721
 40
0.0017130093
 40
0.0030366929
 40
0.0047319769
 40
0.0067946128
 40
0.0119912732
 40
0.0185629786
 40
0.0264415645
 40
0.0355459556
 40
0.0457925361
 40
0.0693806088
 40
0.0965569311
 40
0.126739815
 40
0.1594284411
 40
0.1942052068
 40
0.2307281418
 40
0.3079292273
 40
0.3482039949
 40
0.3893570747
 40
0.4312269974
 40
0.4736037836
 40
0.5162022184
 40
0.5586983348
 40
0.642124465
 40
0.7223577468
 40
0.797934948
 40
0.8669261539
 40
0.9264849833
 40
1.0
 40
1.0
 40
1.0
 40
1.0
 10
452.6151456606
 20
262.8238580239
 30
0.0
 10
452.6120497225
 20
262.824741292
 30
0.0
 10
452.6032534102
 20
262.8352337314
 30
0.0
 10
452.5792633963
 20
262.8503320551
 30
0.0
 10
452.5422645772
 20
262.8810370565
 30
0.0
 10
452.4893109157
 20
262.9212134479
 30
0.0
 10
452.4220112542
 20
262.9736889568
 30
0.0
 10
452.303103117
 20
263.0655625356
 30
0.0
 10
452.1194203172
 20
263.2075288118
 30
0.0
 10
451.8581007997
 20
263.4086286622
 30
0.0
 10
451.5443733335
 20
263.6491813219
 30
0.0
 10
451.1809960379
 20
263.9263382243
 30
0.0
 10
450.6067235068
 20
264.3617494568
 30
0.0
 10
449.7874664653
 20
264.9760686408
 30
0.0
 10
448.6932979263
 20
265.7814393139
 30
0.0
 10
447.4658909947
 20
266.663329147
 30
0.0
 10
446.1209796305
 20
267.6000159335
 30
0.0
 10
444.6702459828
 20
268.5706355365
 30
0.0
 10
442.5658888704
 20
269.9061706921
 30
0.0
 10
440.3182963502
 20
271.18963823
 30
0.0
 10
437.9087700671
 20
272.3257344273
 30
0.0
 10
435.977171021
 20
273.0744709512
 30
0.0
 10
433.9493546417
 20
273.6520177629
 30
0.0
 10
431.8423632158
 20
273.994651543
 30
0.0
 10
429.6966836471
 20
274.0512533671
 30
0.0
 10
426.8777407239
 20
273.7349214566
 30
0.0
 10
423.5434064275
 20
272.7129300884
 30
0.0
 10
419.9274814353
 20
270.9509640309
 30
0.0
 10
416.6909854435
 20
269.0060383133
 30
0.0
 10
413.8496144851
 20
267.0903701372
 30
0.0
 10
411.0987754332
 20
265.1062818852
 30
0.0
 10
409.3193194522
 20
263.7561164582
 30
0.0
 10
408.3435820059
 20
263.0009203032
 30
0.0
  0
SPLINE
  5
686
100
AcDbEntity
  8
0
100
AcDbSpline
 62
1
  6
CONTINUOUS
 70
0
 71
3
 72
45
 73
41
 74
0
 42
0.0000001
 43
0.0000001
 44
0.0000000001
 40
0.0
 40
0.0
 40
0.0
 40
0.0
 40
0.0001865033
 40
0.0007419529
 40
0.0016639184
 40
0.0029499707
 40
0.0066046179
 40
0.011679057
 40
0.0181234172
 40
0.0258834106
 40
0.0349007545
 40
0.0451089847
 40
0.0688283372
 40
0.0965027364
 40
0.1276218548
 40
0.1617239623
 40
0.1983996837
 40
0.2372902288
 40
0.3204490598
 40
0.4088611994
 40
0.5000609289
 40
0.5912586708
 40
0.6796650916
 40
0.7628154627
 40
0.801700392
 40
0.8383695943
 40
0.8724642925
 40
0.9035748891
 40
0.931239419
 40
0.9549463734
 40
0.9651468811
 40
0.9741556638
 40
0.9819076375
 40
0.9883425199
 40
0.9934079935
 40
0.9970587504
 40
0.9983435128
 40
0.999263046
 40
0.9998155436
 40
1.0
 40
1.0
 40
1.0
 40
1.0
 10
414.8651456606
 20
311.8238580239
 30
0.0
 10
414.8671395591
 20
311.8234662823
 30
0.0
 10
414.8737525799
 20
311.8182328216
 30
0.0
 10
414.8901738209
 20
311.8109364235
 30
0.0
 10
414.9163962789
 20
311.7958767057
 30
0.0
 10
414.972782602
 20
311.766015374
 30
0.0
 10
415.0687794416
 20
311.714024059
 30
0.0
 10
415.2146110065
 20
311.6362059695
 30
0.0
 10
415.4001305745
 20
311.5376808784
 30
0.0
 10
415.6240778886
 20
311.4199545491
 30
0.0
 10
415.8849203018
 20
311.2842763888
 30
0.0
 10
416.3012098434
 20
311.0706540966
 30
0.0
 10
416.90133074
 20
310.7700512608
 30
0.0
 10
417.7114637484
 20
310.3802074375
 30
0.0
 10
418.631968796
 20
309.9592121208
 30
0.0
 10
419.652323482
 20
309.5213925854
 30
0.0
 10
420.7633819011
 20
309.0812034879
 30
0.0
 10
422.3915626482
 20
308.4976073897
 30
0.0
 10
424.5949172221
 20
307.8513678636
 30
0.0
 10
427.4146270387
 20
307.3225584243
 30
0.0
 10
430.3671219465
 20
307.1313931827
 30
0.0
 10
433.3195200916
 20
307.3230597385
 30
0.0
 10
436.1389747643
 20
307.852253522
 30
0.0
 10
438.3420460265
 20
308.4986836725
 30
0.0
 10
439.9699602474
 20
309.0823576616
 30
0.0
 10
441.0807852562
 20
309.5225572067
 30
0.0
 10
442.1008850123
 20
309.960350148
 30
0.0
 10
443.0211107499
 20
310.3812802093
 30
0.0
 10
443.8309211459
 20
310.7710204203
 30
0.0
 10
444.4307429444
 20
311.071490966
 30
0.0
 10
444.8467421758
 20
311.2849943145
 30
0.0
 10
445.1073552252
 20
311.4205398429
 30
0.0
 10
445.3310366573
 20
311.5381612738
 30
0.0
 10
445.5162964163
 20
311.6365623866
 30
0.0
 10
445.6619239861
 20
311.7142416806
 30
0.0
 10
445.7577789694
 20
311.7661804293
 30
0.0
 10
445.814093298
 20
311.7959882773
 30
0.0
 10
445.8402462181
 20
311.8110434536
 30
0.0
 10
445.8566136077
 20
311.818235709
 30
0.0
 10
445.8631692425
 20
311.8234937083
 30
0.0
 10
445.8651456606
 20
311.8238580239
 30
0.0
  0
SPLINE
  5
687
100
AcDbEntity
  8
0
100
AcDbSpline
 62
1
  6
CONTINUOUS
 70
0
 71
3
 72
13
 73
9
 74
0
 42
0.0000001
 43
0.0000001
 44
0.0000000001
 40
0.0
 40
0.0
 40
0.0
 40
0.0
 40
0.0716255224
 40
0.2573004179
 40
0.4429753134
 40
0.6286502089
 40
0.8143251045
 40
1.0
 40
1.0
 40
1.0
 40
1.0
 10
223.4617714723
 20
315.8255617666
 30
0.0
 10
223.4614271994
 20
315.8279058534
 30
0.0
 10
223.458101841
 20
315.8505473983
 30
0.0
 10
223.4394598682
 20
315.9774745676
 30
0.0
 10
223.3986758731
 20
316.294157803
 30
0.0
 10
223.355330432
 20
316.7254493014
 30
0.0
 10
223.3210091176
 20
317.2552171579
 30
0.0
 10
223.3136522991
 20
317.6345461477
 30
0.0
 10
223.3130625731
 20
317.8238580239
 30
0.0
  0
SPLINE
  5
688
100
AcDbEntity
  8
0
100
AcDbSpline
 62
1
  6
CONTINUOUS
 70
0
 71
3
 72
15
 73
11
 74
0
 42
0.0000001
 43
0.0000001
 44
0.0000000001
 40
0.0
 40
0.0
 40
0.0
 40
0.0
 40
0.0046980327
 40
0.0188814066
 40
0.0424797513
 40
0.0752876368
 40
0.1669271687
 40
0.2903343754
 40
0.6146030376
 40
1.0
 40
1.0
 40
1.0
 40
1.0
 10
223.4620326503
 20
315.8238580239
 30
0.0
 10
223.4620326503
 20
315.8207141725
 30
0.0
 10
223.4588500753
 20
315.8484686411
 30
0.0
 10
223.4557365278
 20
315.8617848343
 30
0.0
 10
223.4480598308
 20
315.9168487265
 30
0.0
 10
223.434181177
 20
316.0098963179
 30
0.0
 10
223.4114719602
 20
316.1778213293
 30
0.0
 10
223.3684177291
 20
316.533937406
 30
0.0
 10
223.3206421423
 20
317.0911051858
 30
0.0
 10
223.306180679
 20
317.565652249
 30
0.0
 10
223.3061747383
 20
317.8235539833
 30
0.0
  0
SPLINE
  5
689
100
AcDbEntity
  8
0
100
AcDbSpline
 62
1
  6
CONTINUOUS
 70
0
 71
3
 72
16
 73
12
 74
0
 42
0.0000001
 43
0.0000001
 44
0.0000000001
 40
0.0
 40
0.0
 40
0.0
 40
0.0
 40
0.3853712107
 40
0.5585452401
 40
0.7096439302
 40
0.8331618068
 40
0.9246705541
 40
0.957373221
 40
0.9809499188
 40
0.9951984924
 40
1.0
 40
1.0
 40
1.0
 40
1.0
 10
223.3061747383
 20
317.8235539833
 30
0.0
 10
223.3061687961
 20
318.0815230917
 30
0.0
 10
223.317561185
 20
318.4555460004
 30
0.0
 10
223.3526083557
 20
318.929323879
 30
0.0
 10
223.3822533433
 20
319.2276391708
 30
0.0
 10
223.4114140306
 20
319.470991718
 30
0.0
 10
223.434127996
 20
319.6352821555
 30
0.0
 10
223.4480754715
 20
319.7331987764
 30
0.0
 10
223.4557286695
 20
319.7798371605
 30
0.0
 10
223.4588995456
 20
319.8081324766
 30
0.0
 10
223.4620312888
 20
319.8206438739
 30
0.0
 10
223.4620326503
 20
319.823858023
 30
0.0
  0
SPLINE
  5
68A
100
AcDbEntity
  8
0
100
AcDbSpline
 62
1
  6
CONTINUOUS
 70
0
 71
3
 72
9
 73
5
 74
0
 42
0.0000001
 43
0.0000001
 44
0.0000000001
 40
0.0
 40
0.0
 40
0.0
 40
0.0
 40
0.2826331566
 40
1.0
 40
1.0
 40
1.0
 40
1.0
 10
186.3574526036
 20
184.8238580239
 30
0.0
 10
186.3801105941
 20
184.7361881042
 30
0.0
 10
186.4746029464
 20
184.4320527241
 30
0.0
 10
186.6470435135
 20
184.1367056499
 30
0.0
 10
186.8282805856
 20
183.9953707318
 30
0.0
  0
SPLINE
  5
68B
100
AcDbEntity
  8
0
100
AcDbSpline
 62
1
  6
CONTINUOUS
 70
0
 71
3
 72
9
 73
5
 74
0
 42
0.0000001
 43
0.0000001
 44
0.0000000001
 40
0.0
 40
0.0
 40
0.0
 40
0.0
 40
0.2409942391
 40
1.0
 40
1.0
 40
1.0
 40
1.0
 10
186.8335634151
 20
182.3087985042
 30
0.0
 10
186.8335632912
 20
182.2694698334
 30
0.0
 10
186.8391820774
 20
182.106282972
 30
0.0
 10
186.8662339811
 20
181.9441822303
 30
0.0
 10
186.8956373503
 20
181.8238580239
 30
0.0
  0
SPLINE
  5
68C
100
AcDbEntity
  8
0
100
AcDbSpline
 62
1
  6
CONTINUOUS
 70
0
 71
3
 72
9
 73
5
 74
0
 42
0.0000001
 43
0.0000001
 44
0.0000000001
 40
0.0
 40
0.0
 40
0.0
 40
0.0
 40
0.24821331
 40
1.0
 40
1.0
 40
1.0
 40
1.0
 10
186.833562531
 20
183.8142329325
 30
0.0
 10
186.8335631304
 20
183.8978092948
 30
0.0
 10
186.8361948857
 20
184.2345188215
 30
0.0
 10
186.8488102089
 20
184.5711274599
 30
0.0
 10
186.8631223037
 20
184.8238580239
 30
0.0
  0
SPLINE
  5
68D
100
AcDbEntity
  8
0
100
AcDbSpline
 62
1
  6
CONTINUOUS
 70
0
 71
3
 72
9
 73
5
 74
0
 42
0.0000001
 43
0.0000001
 44
0.0000000001
 40
0.0
 40
0.0
 40
0.0
 40
0.0
 40
0.2416653707
 40
1.0
 40
1.0
 40
1.0
 40
1.0
 10
186.9513085698
 20
181.8238580239
 30
0.0
 10
186.965420781
 20
181.771965216
 30
0.0
 10
187.0281509924
 20
181.5584193423
 30
0.0
 10
187.1070646399
 20
181.3497790091
 30
0.0
 10
187.1736846785
 20
181.1947346602
 30
0.0
  0
SPLINE
  5
68E
100
AcDbEntity
  8
0
100
AcDbSpline
 62
1
  6
CONTINUOUS
 70
0
 71
3
 72
11
 73
7
 74
0
 42
0.0000001
 43
0.0000001
 44
0.0000000001
 40
0.0
 40
0.0
 40
0.0
 40
0.0
 40
0.2573823989
 40
0.4975633366
 40
0.7386617056
 40
1.0
 40
1.0
 40
1.0
 40
1.0
 10
187.1736846785
 20
181.1947346602
 30
0.0
 10
187.2289636003
 20
181.0660844128
 30
0.0
 10
187.3603292649
 20
180.8260131354
 30
0.0
 10
187.6484381967
 20
180.5364175032
 30
0.0
 10
188.0193872741
 20
180.3579265098
 30
0.0
 10
188.2952814694
 20
180.3238715329
 30
0.0
 10
188.4374573261
 20
180.3238641899
 30
0.0
  0
SPLINE
  5
68F
100
AcDbEntity
  8
0
100
AcDbSpline
 62
1
  6
CONTINUOUS
 70
0
 71
3
 72
9
 73
5
 74
0
 42
0.0000001
 43
0.0000001
 44
0.0000000001
 40
0.0
 40
0.0
 40
0.0
 40
0.0
 40
0.2460220287
 40
1.0
 40
1.0
 40
1.0
 40
1.0
 10
186.8775478133
 20
182.6793511034
 30
0.0
 10
186.8701276835
 20
182.6496175635
 30
0.0
 10
186.8439320484
 20
182.5277845423
 30
0.0
 10
186.8335637109
 20
182.4027168058
 30
0.0
 10
186.8335634151
 20
182.3087985042
 30
0.0
  0
SPLINE
  5
690
100
AcDbEntity
  8
0
100
AcDbSpline
 62
1
  6
CONTINUOUS
 70
0
 71
3
 72
9
 73
5
 74
0
 42
0.0000001
 43
0.0000001
 44
0.0000000001
 40
0.0
 40
0.0
 40
0.0
 40
0.0
 40
0.2476055141
 40
1.0
 40
1.0
 40
1.0
 40
1.0
 10
186.8775478133
 20
182.6793511034
 30
0.0
 10
186.8699338165
 20
182.7727944702
 30
0.0
 10
186.8435629444
 20
183.1505355249
 30
0.0
 10
186.833560488
 20
183.5293471795
 30
0.0
 10
186.833562531
 20
183.8142329325
 30
0.0
  0
SPLINE
  5
691
100
AcDbEntity
  8
0
100
AcDbSpline
 62
1
  6
CONTINUOUS
 70
0
 71
3
 72
15
 73
11
 74
0
 42
0.0000001
 43
0.0000001
 44
0.0000000001
 40
0.0
 40
0.0
 40
0.0
 40
0.0
 40
0.126682383
 40
0.252139837
 40
0.3764406816
 40
0.5000000556
 40
0.6235594094
 40
0.7478602173
 40
0.8733176236
 40
1.0
 40
1.0
 40
1.0
 40
1.0
 10
211.7144611348
 20
171.7781199996
 30
0.0
 10
211.9529472312
 20
171.646497732
 30
0.0
 10
212.4378839253
 20
171.4023188572
 30
0.0
 10
213.1952432262
 20
171.1118872601
 30
0.0
 10
213.9781029429
 20
170.9224219137
 30
0.0
 10
214.7775481285
 20
170.856070654
 30
0.0
 10
215.5769932176
 20
170.922422058
 30
0.0
 10
216.3598527033
 20
171.1118873826
 30
0.0
 10
217.1172118187
 20
171.4023189154
 30
0.0
 10
217.6021484077
 20
171.6464977388
 30
0.0
 10
217.8406344918
 20
171.7781199996
 30
0.0
  0
SPLINE
  5
692
100
AcDbEntity
  8
0
100
AcDbSpline
 62
1
  6
CONTINUOUS
 70
0
 71
3
 72
15
 73
11
 74
0
 42
0.0000001
 43
0.0000001
 44
0.0000000001
 40
0.0
 40
0.0
 40
0.0
 40
0.0
 40
0.126682383
 40
0.252139837
 40
0.3764406816
 40
0.5000000556
 40
0.6235594094
 40
0.7478602173
 40
0.8733176236
 40
1.0
 40
1.0
 40
1.0
 40
1.0
 10
218.2144611348
 20
171.7781199996
 30
0.0
 10
218.4529472312
 20
171.646497732
 30
0.0
 10
218.9378839253
 20
171.4023188572
 30
0.0
 10
219.6952432262
 20
171.1118872601
 30
0.0
 10
220.4781029429
 20
170.9224219137
 30
0.0
 10
221.2775481285
 20
170.856070654
 30
0.0
 10
222.0769932176
 20
170.922422058
 30
0.0
 10
222.8598527033
 20
171.1118873826
 30
0.0
 10
223.6172118187
 20
171.4023189154
 30
0.0
 10
224.1021484077
 20
171.6464977388
 30
0.0
 10
224.3406344918
 20
171.7781199996
 30
0.0
  0
SPLINE
  5
693
100
AcDbEntity
  8
0
100
AcDbSpline
 62
1
  6
CONTINUOUS
 70
0
 71
3
 72
9
 73
5
 74
0
 42
0.0000001
 43
0.0000001
 44
0.0000000001
 40
0.0
 40
0.0
 40
0.0
 40
0.0
 40
0.2500733617
 40
1.0
 40
1.0
 40
1.0
 40
1.0
 10
191.7484073474
 20
199.3238580239
 30
0.0
 10
192.5391734681
 20
198.7814363838
 30
0.0
 10
195.7015733428
 20
196.6127710555
 30
0.0
 10
198.8648454937
 20
194.4453709875
 30
0.0
 10
201.2397167537
 20
192.8238580239
 30
0.0
  0
SPLINE
  5
694
100
AcDbEntity
  8
0
100
AcDbSpline
 62
1
  6
CONTINUOUS
 70
0
 71
3
 72
11
 73
7
 74
0
 42
0.0000001
 43
0.0000001
 44
0.0000000001
 40
0.0
 40
0.0
 40
0.0
 40
0.0
 40
0.2354055661
 40
0.4691527532
 40
0.7205278162
 40
1.0
 40
1.0
 40
1.0
 40
1.0
 10
448.8344320104
 20
183.8254091111
 30
0.0
 10
448.7086669742
 20
183.825414942
 30
0.0
 10
448.454183397
 20
183.8683659985
 30
0.0
 10
448.1243031755
 20
184.0848835157
 30
0.0
 10
447.876318056
 20
184.4168695059
 30
0.0
 10
447.7671305909
 20
184.6812757556
 30
0.0
 10
447.7228243547
 20
184.8238580239
 30
0.0
  0
SPLINE
  5
695
100
AcDbEntity
  8
0
100
AcDbSpline
 62
1
  6
CONTINUOUS
 70
0
 71
3
 72
11
 73
7
 74
0
 42
0.0000001
 43
0.0000001
 44
0.0000000001
 40
0.0
 40
0.0
 40
0.0
 40
0.0
 40
0.2794720774
 40
0.5308466434
 40
0.7645951681
 40
1.0
 40
1.0
 40
1.0
 40
1.0
 10
413.0074669664
 20
184.8238580239
 30
0.0
 10
412.9631607554
 20
184.6812758368
 30
0.0
 10
412.8539734707
 20
184.4168699124
 30
0.0
 10
412.6059881956
 20
184.0848836817
 30
0.0
 10
412.2761079833
 20
183.8683661079
 30
0.0
 10
412.0216241888
 20
183.825414758
 30
0.0
 10
411.8958595685
 20
183.8254090036
 30
0.0
  0
SPLINE
  5
696
100
AcDbEntity
  8
0
100
AcDbSpline
 62
1
  6
CONTINUOUS
 70
0
 71
3
 72
11
 73
7
 74
0
 42
0.0000001
 43
0.0000001
 44
0.0000000001
 40
0.0
 40
0.0
 40
0.0
 40
0.0
 40
0.2214175832
 40
0.4643200061
 40
0.7257683459
 40
1.0
 40
1.0
 40
1.0
 40
1.0
 10
411.8958595685
 20
183.8254090036
 30
0.0
 10
411.7596509203
 20
183.8254027713
 30
0.0
 10
411.472658916
 20
183.8772060073
 30
0.0
 10
411.0720998583
 20
184.0858228268
 30
0.0
 10
410.7099154515
 20
184.4052568705
 30
0.0
 10
410.5156909703
 20
184.6758949927
 30
0.0
 10
410.4346601966
 20
184.8238580239
 30
0.0
  0
SPLINE
  5
697
100
AcDbEntity
  8
0
100
AcDbSpline
 62
1
  6
CONTINUOUS
 70
0
 71
3
 72
11
 73
7
 74
0
 42
0.0000001
 43
0.0000001
 44
0.0000000001
 40
0.0
 40
0.0
 40
0.0
 40
0.0
 40
0.2742367882
 40
0.5356817943
 40
0.7785797576
 40
1.0
 40
1.0
 40
1.0
 40
1.0
 10
450.2956311245
 20
184.8238580239
 30
0.0
 10
450.2145988479
 20
184.6758922483
 30
0.0
 10
450.0203716277
 20
184.4052548588
 30
0.0
 10
449.6581900267
 20
184.0858202907
 30
0.0
 10
449.2576328495
 20
183.877207229
 30
0.0
 10
448.9706422707
 20
183.825402796
 30
0.0
 10
448.8344320104
 20
183.8254091111
 30
0.0
  0
SPLINE
  5
698
100
AcDbEntity
  8
0
100
AcDbSpline
 62
1
  6
CONTINUOUS
 70
0
 71
3
 72
14
 73
10
 74
0
 42
0.0000001
 43
0.0000001
 44
0.0000000001
 40
0.0
 40
0.0
 40
0.0
 40
0.0
 40
0.2771090834
 40
0.4066944722
 40
0.5302577394
 40
0.6488716632
 40
0.7647277021
 40
0.880800701
 40
1.0
 40
1.0
 40
1.0
 40
1.0
 10
437.7627847035
 20
180.7781199996
 30
0.0
 10
437.5835125125
 20
180.9494919964
 30
0.0
 10
437.3051798862
 20
181.1873205022
 30
0.0
 10
436.9011840091
 20
181.4380769633
 30
0.0
 10
436.5973054863
 20
181.5763823279
 30
0.0
 10
436.2867965346
 20
181.6617254581
 30
0.0
 10
435.972217769
 20
181.6880591319
 30
0.0
 10
435.6580512791
 20
181.6532112949
 30
0.0
 10
435.4552955805
 20
181.5922324383
 30
0.0
 10
435.3557608025
 20
181.5538456739
 30
0.0
  0
SPLINE
  5
699
100
AcDbEntity
  8
0
100
AcDbSpline
 62
1
  6
CONTINUOUS
 70
0
 71
3
 72
9
 73
5
 74
0
 42
0.0000001
 43
0.0000001
 44
0.0000000001
 40
0.0
 40
0.0
 40
0.0
 40
0.0
 40
0.4777896818
 40
1.0
 40
1.0
 40
1.0
 40
1.0
 10
435.3557608025
 20
181.5538456739
 30
0.0
 10
435.1511414412
 20
181.4749317971
 30
0.0
 10
434.7484283654
 20
181.2434930167
 30
0.0
 10
434.399104092
 20
180.9437516583
 30
0.0
 10
434.2258368668
 20
180.7781199996
 30
0.0
  0
SPLINE
  5
69A
100
AcDbEntity
  8
0
100
AcDbSpline
 62
1
  6
CONTINUOUS
 70
0
 71
3
 72
15
 73
11
 74
0
 42
0.0000001
 43
0.0000001
 44
0.0000000001
 40
0.0
 40
0.0
 40
0.0
 40
0.0
 40
0.1373701829
 40
0.2660101971
 40
0.3859367792
 40
0.5000000516
 40
0.6140633085
 40
0.7339898582
 40
0.8626298242
 40
1.0
 40
1.0
 40
1.0
 40
1.0
 10
434.2258368668
 20
171.7781199996
 30
0.0
 10
434.3602419793
 20
171.649637872
 30
0.0
 10
434.6315333465
 20
171.4117450393
 30
0.0
 10
435.0669404159
 20
171.119524949
 30
0.0
 10
435.5220101928
 20
170.9250483544
 30
0.0
 10
435.9943109746
 20
170.8552788735
 30
0.0
 10
436.466611681
 20
170.925048501
 30
0.0
 10
436.9216813199
 20
171.1195250663
 30
0.0
 10
437.3570882882
 20
171.4117450947
 30
0.0
 10
437.628379598
 20
171.6496378787
 30
0.0
 10
437.7627847035
 20
171.7781199996
 30
0.0
  0
SPLINE
  5
69B
100
AcDbEntity
  8
0
100
AcDbSpline
 62
1
  6
CONTINUOUS
 70
0
 71
3
 72
9
 73
5
 74
0
 42
0.0000001
 43
0.0000001
 44
0.0000000001
 40
0.0
 40
0.0
 40
0.0
 40
0.0
 40
0.5222104989
 40
1.0
 40
1.0
 40
1.0
 40
1.0
 10
426.5044544543
 20
180.7781199996
 30
0.0
 10
426.3311856699
 20
180.9437531489
 30
0.0
 10
425.9818582543
 20
181.2434970221
 30
0.0
 10
425.5791407769
 20
181.4749365221
 30
0.0
 10
425.3745193025
 20
181.5538499631
 30
0.0
  0
SPLINE
  5
69C
100
AcDbEntity
  8
0
100
AcDbSpline
 62
1
  6
CONTINUOUS
 70
0
 71
3
 72
14
 73
10
 74
0
 42
0.0000001
 43
0.0000001
 44
0.0000000001
 40
0.0
 40
0.0
 40
0.0
 40
0.0
 40
0.1191991711
 40
0.2352721267
 40
0.3511281955
 40
0.4697421787
 40
0.5933054926
 40
0.7228909054
 40
1.0
 40
1.0
 40
1.0
 40
1.0
 10
425.3745193025
 20
181.5538499631
 30
0.0
 10
425.2749848703
 20
181.5922359857
 30
0.0
 10
425.0722298166
 20
181.6532131884
 30
0.0
 10
424.7580646968
 20
181.6880592044
 30
0.0
 10
424.4434874199
 20
181.6617241606
 30
0.0
 10
424.1329801051
 20
181.576380117
 30
0.0
 10
423.8291031755
 20
181.4380746244
 30
0.0
 10
423.4251093439
 20
181.1873187682
 30
0.0
 10
423.1467780172
 20
180.9494912399
 30
0.0
 10
422.9675066176
 20
180.7781199996
 30
0.0
  0
SPLINE
  5
69D
100
AcDbEntity
  8
0
100
AcDbSpline
 62
1
  6
CONTINUOUS
 70
0
 71
3
 72
15
 73
11
 74
0
 42
0.0000001
 43
0.0000001
 44
0.0000000001
 40
0.0
 40
0.0
 40
0.0
 40
0.0
 40
0.1373701829
 40
0.2660101971
 40
0.3859367792
 40
0.5000000516
 40
0.6140633085
 40
0.7339898582
 40
0.8626298242
 40
1.0
 40
1.0
 40
1.0
 40
1.0
 10
422.9675066176
 20
171.7781199996
 30
0.0
 10
423.1019117301
 20
171.649637872
 30
0.0
 10
423.3732030973
 20
171.4117450393
 30
0.0
 10
423.8086101668
 20
171.119524949
 30
0.0
 10
424.2636799436
 20
170.9250483544
 30
0.0
 10
424.7359807254
 20
170.8552788735
 30
0.0
 10
425.2082814318
 20
170.925048501
 30
0.0
 10
425.6633510707
 20
171.1195250663
 30
0.0
 10
426.098758039
 20
171.4117450947
 30
0.0
 10
426.3700493488
 20
171.6496378787
 30
0.0
 10
426.5044544543
 20
171.7781199996
 30
0.0
  0
SPLINE
  5
69E
100
AcDbEntity
  8
0
100
AcDbSpline
 62
1
  6
CONTINUOUS
 70
0
 71
3
 72
15
 73
11
 74
0
 42
0.0000001
 43
0.0000001
 44
0.0000000001
 40
0.0
 40
0.0
 40
0.0
 40
0.0
 40
0.1250167242
 40
0.2500237096
 40
0.3750178031
 40
0.5000000561
 40
0.6249822884
 40
0.7499763446
 40
0.8749832823
 40
1.0
 40
1.0
 40
1.0
 40
1.0
 10
426.8281978238
 20
171.7781199996
 30
0.0
 10
427.1048390852
 20
171.6458949035
 30
0.0
 10
427.6677013564
 20
171.4006993798
 30
0.0
 10
428.5422153378
 20
171.110767594
 30
0.0
 10
429.4448124097
 20
170.9220941669
 30
0.0
 10
430.3651460226
 20
170.8561693393
 30
0.0
 10
431.2854795289
 20
170.9220943109
 30
0.0
 10
432.1880763356
 20
171.1107677172
 30
0.0
 10
433.0625901015
 20
171.4006994384
 30
0.0
 10
433.6254522502
 20
171.6458949103
 30
0.0
 10
433.9020934973
 20
171.7781199996
 30
0.0
  0
SPLINE
  5
69F
100
AcDbEntity
  8
0
100
AcDbSpline
 62
1
  6
CONTINUOUS
 70
0
 71
3
 72
15
 73
11
 74
0
 42
0.0000001
 43
0.0000001
 44
0.0000000001
 40
0.0
 40
0.0
 40
0.0
 40
0.0
 40
0.1250167242
 40
0.2500237096
 40
0.3750178031
 40
0.5000000561
 40
0.6249822884
 40
0.7499763446
 40
0.8749832823
 40
1.0
 40
1.0
 40
1.0
 40
1.0
 10
433.9020934973
 20
180.7781199996
 30
0.0
 10
433.6254522359
 20
180.9103450957
 30
0.0
 10
433.0625899648
 20
181.1555406194
 30
0.0
 10
432.1880759833
 20
181.4454724051
 30
0.0
 10
431.2854789114
 20
181.6341458322
 30
0.0
 10
430.3651452985
 20
181.7000706599
 30
0.0
 10
429.4448117922
 20
181.6341456883
 30
0.0
 10
428.5422149855
 20
181.445472282
 30
0.0
 10
427.6677012196
 20
181.1555405607
 30
0.0
 10
427.1048390709
 20
180.9103450888
 30
0.0
 10
426.8281978238
 20
180.7781199996
 30
0.0
  0
SPLINE
  5
6A0
100
AcDbEntity
  8
0
100
AcDbSpline
 62
1
  6
CONTINUOUS
 70
0
 71
3
 72
11
 73
7
 74
0
 42
0.0000001
 43
0.0000001
 44
0.0000000001
 40
0.0
 40
0.0
 40
0.0
 40
0.0
 40
0.2507802504
 40
0.4910960483
 40
0.7358702426
 40
1.0
 40
1.0
 40
1.0
 40
1.0
 10
413.3717483995
 20
181.1947346602
 30
0.0
 10
413.3039361299
 20
181.0650602552
 30
0.0
 10
413.1451739895
 20
180.8227972363
 30
0.0
 10
412.8178293874
 20
180.5354733651
 30
0.0
 10
412.4106453506
 20
180.3584575606
 30
0.0
 10
412.1114625115
 20
180.323854155
 30
0.0
 10
411.9573377402
 20
180.3238630942
 30
0.0
  0
SPLINE
  5
6A1
100
AcDbEntity
  8
0
100
AcDbSpline
 62
1
  6
CONTINUOUS
 70
0
 71
3
 72
9
 73
5
 74
0
 42
0.0000001
 43
0.0000001
 44
0.0000000001
 40
0.0
 40
0.0
 40
0.0
 40
0.0
 40
0.2404223684
 40
1.0
 40
1.0
 40
1.0
 40
1.0
 10
413.63982962
 20
181.7781199996
 30
0.0
 10
413.6210709566
 20
181.7301926205
 30
0.0
 10
413.53990002
 20
181.5320813212
 30
0.0
 10
413.4470998546
 20
181.3388259165
 30
0.0
 10
413.3717483995
 20
181.1947346602
 30
0.0
  0
SPLINE
  5
6A2
100
AcDbEntity
  8
0
100
AcDbSpline
 62
1
  6
CONTINUOUS
 70
0
 71
3
 72
9
 73
5
 74
0
 42
0.0000001
 43
0.0000001
 44
0.0000000001
 40
0.0
 40
0.0
 40
0.0
 40
0.0
 40
0.2594627012
 40
1.0
 40
1.0
 40
1.0
 40
1.0
 10
447.3585429216
 20
181.1947346602
 30
0.0
 10
447.332804258
 20
181.2439535687
 30
0.0
 10
447.2358636068
 20
181.4348085032
 30
0.0
 10
447.148240105
 20
181.6304992761
 30
0.0
 10
447.0904617011
 20
181.7781199996
 30
0.0
  0
SPLINE
  5
6A3
100
AcDbEntity
  8
0
100
AcDbSpline
 62
1
  6
CONTINUOUS
 70
0
 71
3
 72
9
 73
5
 74
0
 42
0.0000001
 43
0.0000001
 44
0.0000000001
 40
0.0
 40
0.0
 40
0.0
 40
0.0
 40
0.4831365083
 40
1.0
 40
1.0
 40
1.0
 40
1.0
 10
411.46214194
 20
182.7238580239
 30
0.0
 10
411.0168833247
 20
183.1102550751
 30
0.0
 10
410.0485304886
 20
183.8567753072
 30
0.0
 10
409.0156502664
 20
184.509708928
 30
0.0
 10
408.4687618829
 20
184.8238580239
 30
0.0
  0
SPLINE
  5
6A4
100
AcDbEntity
  8
0
100
AcDbSpline
 62
1
  6
CONTINUOUS
 70
0
 71
3
 72
9
 73
5
 74
0
 42
0.0000001
 43
0.0000001
 44
0.0000000001
 40
0.0
 40
0.0
 40
0.0
 40
0.0
 40
0.5168616638
 40
1.0
 40
1.0
 40
1.0
 40
1.0
 10
452.2615294382
 20
184.8238580239
 30
0.0
 10
451.7146429874
 20
184.5097100381
 30
0.0
 10
450.6817625608
 20
183.8567767611
 30
0.0
 10
449.7134096822
 20
183.110256538
 30
0.0
 10
449.2681493811
 20
182.7238580239
 30
0.0
  0
SPLINE
  5
6A5
100
AcDbEntity
  8
0
100
AcDbSpline
 62
1
  6
CONTINUOUS
 70
0
 71
3
 72
11
 73
7
 74
0
 42
0.0000001
 43
0.0000001
 44
0.0000000001
 40
0.0
 40
0.0
 40
0.0
 40
0.0
 40
0.2641314486
 40
0.5089065785
 40
0.7492208265
 40
1.0
 40
1.0
 40
1.0
 40
1.0
 10
448.7729548092
 20
180.3238641899
 30
0.0
 10
448.6188290677
 20
180.3238567966
 30
0.0
 10
448.3196448463
 20
180.358459896
 30
0.0
 10
447.9124606545
 20
180.535476898
 30
0.0
 10
447.5851158535
 20
180.8227987671
 30
0.0
 10
447.4263548926
 20
181.0650608262
 30
0.0
 10
447.3585429216
 20
181.1947346602
 30
0.0
  0
SPLINE
  5
6A6
100
AcDbEntity
  8
0
100
AcDbSpline
 62
1
  6
CONTINUOUS
 70
0
 71
3
 72
9
 73
5
 74
0
 42
0.0000001
 43
0.0000001
 44
0.0000000001
 40
0.0
 40
0.0
 40
0.0
 40
0.0
 40
0.4669494962
 40
1.0
 40
1.0
 40
1.0
 40
1.0
 10
413.6047344198
 20
184.8238580239
 30
0.0
 10
413.4573702889
 20
184.4670702311
 30
0.0
 10
413.0610424823
 20
183.7364346212
 30
0.0
 10
412.5735434045
 20
183.066727455
 30
0.0
 10
412.2967241695
 20
182.7238580239
 30
0.0
  0
SPLINE
  5
6A7
100
AcDbEntity
  8
0
100
AcDbSpline
 62
1
  6
CONTINUOUS
 70
0
 71
3
 72
9
 73
5
 74
0
 42
0.0000001
 43
0.0000001
 44
0.0000000001
 40
0.0
 40
0.0
 40
0.0
 40
0.0
 40
0.5330489755
 40
1.0
 40
1.0
 40
1.0
 40
1.0
 10
448.4335671516
 20
182.7238580239
 30
0.0
 10
448.1567487106
 20
183.0667264716
 30
0.0
 10
447.669249562
 20
183.7364335543
 30
0.0
 10
447.2729215144
 20
184.4670690638
 30
0.0
 10
447.1255569013
 20
184.8238580239
 30
0.0
  0
SPLINE
  5
6A8
100
AcDbEntity
  8
0
100
AcDbSpline
 62
1
  6
CONTINUOUS
 70
0
 71
3
 72
8
 73
4
 74
0
 42
0.0000001
 43
0.0000001
 44
0.0000000001
 40
0.0
 40
0.0
 40
0.0
 40
0.0
 40
1.0
 40
1.0
 40
1.0
 40
1.0
 10
408.4687618829
 20
184.8238580239
 30
0.0
 10
408.0539657313
 20
184.0941107116
 30
0.0
 10
407.6156292175
 20
183.3769408433
 30
0.0
 10
407.1487721281
 20
182.6793511034
 30
0.0
  0
SPLINE
  5
6A9
100
AcDbEntity
  8
0
100
AcDbSpline
 62
1
  6
CONTINUOUS
 70
0
 71
3
 72
9
 73
5
 74
0
 42
0.0000001
 43
0.0000001
 44
0.0000000001
 40
0.0
 40
0.0
 40
0.0
 40
0.0
 40
0.5350853583
 40
1.0
 40
1.0
 40
1.0
 40
1.0
 10
450.864934008
 20
181.1947346602
 30
0.0
 10
450.5479605098
 20
180.9351793585
 30
0.0
 10
449.8924547854
 20
180.5227597022
 30
0.0
 10
449.1289133217
 20
180.3238812651
 30
0.0
 10
448.7729548092
 20
180.3238641899
 30
0.0
  0
SPLINE
  5
6AA
100
AcDbEntity
  8
0
100
AcDbSpline
 62
1
  6
CONTINUOUS
 70
0
 71
3
 72
8
 73
4
 74
0
 42
0.0000001
 43
0.0000001
 44
0.0000000001
 40
0.0
 40
0.0
 40
0.0
 40
0.0
 40
1.0
 40
1.0
 40
1.0
 40
1.0
 10
453.581519193
 20
182.6793511034
 30
0.0
 10
453.1146621036
 20
183.3769408433
 30
0.0
 10
452.6763255898
 20
184.0941107116
 30
0.0
 10
452.2615294382
 20
184.8238580239
 30
0.0
  0
SPLINE
  5
6AB
100
AcDbEntity
  8
0
100
AcDbSpline
 62
1
  6
CONTINUOUS
 70
0
 71
3
 72
9
 73
5
 74
0
 42
0.0000001
 43
0.0000001
 44
0.0000000001
 40
0.0
 40
0.0
 40
0.0
 40
0.0
 40
0.4649170246
 40
1.0
 40
1.0
 40
1.0
 40
1.0
 10
411.9573377402
 20
180.3238630942
 30
0.0
 10
411.6013771756
 20
180.3238837399
 30
0.0
 10
410.8378353991
 20
180.5227583762
 30
0.0
 10
410.1823296027
 20
180.9351803482
 30
0.0
 10
409.8653573132
 20
181.1947346602
 30
0.0
  0
SPLINE
  5
6AC
100
AcDbEntity
  8
0
100
AcDbSpline
 62
1
  6
CONTINUOUS
 70
0
 71
3
 72
15
 73
11
 74
0
 42
0.0000001
 43
0.0000001
 44
0.0000000001
 40
0.0
 40
0.0
 40
0.0
 40
0.0
 40
0.0405476316
 40
0.151658835
 40
0.3122783352
 40
0.4999948724
 40
0.6877116752
 40
0.8483350974
 40
0.9594504244
 40
1.0
 40
1.0
 40
1.0
 40
1.0
 10
530.1651456606
 20
300.1738580239
 30
0.0
 10
530.0240418464
 20
300.1141647479
 30
0.0
 10
529.4936806695
 20
299.8968273233
 30
0.0
 10
528.3816721276
 20
299.4990860094
 30
0.0
 10
526.6933051599
 20
299.0746978344
 30
0.0
 10
524.6652031749
 20
298.8875427399
 30
0.0
 10
522.6370836455
 20
299.0746760912
 30
0.0
 10
520.9486839735
 20
299.4990650373
 30
0.0
 10
519.8366386881
 20
299.8968158796
 30
0.0
 10
519.3062562126
 20
300.1141618109
 30
0.0
 10
519.1651456606
 20
300.1738580239
 30
0.0
  0
SPLINE
  5
6AD
100
AcDbEntity
  8
______
100
AcDbSpline
 62
5
  6
ACAD_ISO04W100
 70
0
 71
3
 72
15
 73
11
 74
0
 42
0.0000001
 43
0.0000001
 44
0.0000000001
 40
0.0
 40
0.0
 40
0.0
 40
0.0
 40
0.0405476316
 40
0.151658835
 40
0.3122783352
 40
0.4999948724
 40
0.6877116752
 40
0.8483350974
 40
0.9594504244
 40
1.0
 40
1.0
 40
1.0
 40
1.0
 10
531.0236103313
 20
278.3461419144
 30
0.0
 10
530.8704993772
 20
278.3516744822
 30
0.0
 10
530.297978148
 20
278.3788402005
 30
0.0
 10
529.1220634046
 20
278.4883192675
 30
0.0
 10
527.4125290815
 20
278.8172276729
 30
0.0
 10
525.4953492989
 20
279.5047204889
 30
0.0
 10
523.736334748
 20
280.5314412525
 30
0.0
 10
522.3854794964
 20
281.6296167936
 30
0.0
 10
521.5457209642
 20
282.4600721248
 30
0.0
 10
521.1568855563
 20
282.8812037546
 30
0.0
 10
521.0542246739
 20
282.9949427935
 30
0.0
  0
ENDSEC
  0
SECTION
  2
OBJECTS
  0
DICTIONARY
  5
C
100
AcDbDictionary
280
0
281
1
  3
ACAD_GROUP
350
D
  3
ACAD_MLINESTYLE
350
17
  3
ACAD_LAYOUT
350
1A
  3
ACAD_PLOTSETTINGS
350
19
  3
ACAD_PLOTSTYLENAME
350
E
  0
DICTIONARY
  5
D
102
{ACAD_REACTORS
330
C
102
}
100
AcDbDictionary
280
0
281
1
  0
ACDBDICTIONARYWDFLT
  5
E
102
{ACAD_REACTORS
330
C
102
}
100
AcDbDictionary
281
1
  3
Normal
350
F
100
AcDbDictionaryWithDefault
340
F
  0
DICTIONARY
  5
17
102
{ACAD_REACTORS
330
C
102
}
100
AcDbDictionary
280
0
281
1
  3
Standard
350
18
  0
DICTIONARY
  5
19
102
{ACAD_REACTORS
330
C
102
}
100
AcDbDictionary
281
1
  0
DICTIONARY
  5
1A
102
{ACAD_REACTORS
330
C
102
}
100
AcDbDictionary
281
1
  3
Model
350
6AE
  3
Layout1
350
6AF
  0
ACDBPLACEHOLDER
  5
F
102
{ACAD_REACTORS
330
E
102
}
  0
MLINESTYLE
  5
18
102
{ACAD_REACTORS
330
17
102
}
100
AcDbMlineStyle
  2
STANDARD
 70
0
  3

 62
256
 51
90.0
 52
90.0
 71
2
 49
0.5
 62
256
  6
BYLAYER
 49
-0.5
 62
256
  6
BYLAYER
  0
LAYOUT
  5
6AE
102
{ACAD_REACTORS
330
1A
102
}
100
AcDbPlotSettings
  1

  2
none_device
  4

  6

 40
0.0
 41
0.0
 42
0.0
 43
0.0
 44
846.45
 45
598.5
 46
0.0
 47
0.0
 48
0.0
 49
0.0
140
0.0
141
0.0
142
1.0
143
1.0
 70
1024
 72
1
 73
0
 74
0
  7

 75
0
147
1.0
148
0.0
149
0.0
100
AcDbLayout
  1
Model
 70
0
 71
0
 10
0.0
 20
0.0
 11
846.45
 21
598.5
 12
0.0
 22
0.0
 32
0.0
 14
0.0
 24
0.0
 34
0.0
 15
0.0
 25
0.0
 35
0.0
146
0.0
 13
0.0
 23
0.0
 33
0.0
 16
1.0
 26
0.0
 36
0.0
 17
0.0
 27
1.0
 37
0.0
 76
0
330
220
345
0
346
0
  0
LAYOUT
  5
6AF
102
{ACAD_REACTORS
330
1A
102
}
100
AcDbPlotSettings
  1

  2
none_device
  4

  6

 40
0.0
 41
0.0
 42
0.0
 43
0.0
 44
846.45
 45
598.5
 46
0.0
 47
0.0
 48
0.0
 49
0.0
140
0.0
141
0.0
142
1.0
143
1.0
 70
0
 72
1
 73
0
 74
0
  7

 75
0
147
1.0
148
0.0
149
0.0
100
AcDbLayout
  1
Layout1
 70
0
 71
1
 10
0.0
 20
0.0
 11
846.45
 21
598.5
 12
0.0
 22
0.0
 32
0.0
 14
0.0
 24
0.0
 34
0.0
 15
0.0
 25
0.0
 35
0.0
146
0.0
 13
0.0
 23
0.0
 33
0.0
 16
1.0
 26
0.0
 36
0.0
 17
0.0
 27
1.0
 37
0.0
 76
0
330
221
345
0
346
0
  0
ENDSEC
  0
EOF
