999
DXF file: mila_technical_drawing.dxf
999
Pro/ENGINEER 2017170 by Parametric Technology Corporation
  0
SECTION
  2
HEADER
  9
$ACADVER
  1
AC1021
  9
$DWGCODEPAGE
  3
ANSI_1252
  9
$EXTMAX
 10
846.45
 20
598.5
 30
0.0
  9
$EXTMIN
 10
0.0
 20
0.0
 30
0.0
  9
$LIMMIN
 10
0.0
 20
0.0
  9
$LIMMAX
 10
846.45
 20
598.5
  9
$VIEWCTR
 10
423.225
 20
299.25
  9
$VIEWSIZE
 40
598.5
  9
$CLAYER
  8
0
  9
$LTSCALE
 40
46.55475
  9
$CELTYPE
  6
BYLAYER
  9
$DIMSCALE
 40
1.0
  9
$DIMASZ
 40
4.0
  9
$DIMEXO
 40
0.0
  9
$DIMDLI
 40
32.1651
  9
$DIMEXE
 40
1.0
  9
$DIMCEN
 40
7.61805
  9
$DIMLFAC
 40
1.0
  9
$DIMBLK
  1
_FILLED
  9
$DIMALT
 70
0
  9
$DIMALTF
 40
25.4
  9
$DIMTXT
 40
3.5
  9
$DIMTOL
 70
1
  9
$DIMLIM
 70
0
  9
$DIMTFAC
 40
1.0
  9
$DIMTP
 40
0.01
  9
$DIMTM
 40
0.01
  9
$DIMGAP
 40
0.625
  9
$DIMDSEP
 70
46
  9
$AUNITS
 70
0
  9
$PDMODE
 70
3
  9
$PDSIZE
 40
0.05
  9
$HANDSEED
  5
41C
  9
$TILEMODE
 70
1
  9
$MEASUREMENT
 70
1
  9
$INSUNITS
 70
4
  0
ENDSEC
  0
SECTION
  2
CLASSES
  0
CLASS
  1
ACDBDICTIONARYWDFLT
  2
AcDbDictionaryWithDefault
  3
AutoCAD 2000
 90
0
 91
1
280
0
281
0
  0
CLASS
  1
ACDBPLACEHOLDER
  2
AcDbPlaceHolder
  3
AutoCAD 2000
 90
0
 91
1
280
0
281
0
  0
CLASS
  1
LAYOUT
  2
AcDbLayout
  3
AutoCAD 2000
 90
0
 91
0
280
0
281
0
  0
ENDSEC
  0
SECTION
  2
TABLES
  0
TABLE
  2
VPORT
  5
8
100
AcDbSymbolTable
 70
2
  0
VPORT
  5
1F4
100
AcDbSymbolTableRecord
100
AcDbViewportTableRecord
  2
*ACTIVE
 70
0
 10
0.0
 20
0.0
 11
1.0
 21
1.0
 12
423.225
 22
299.25
 13
0.0
 23
0.0
 14
1.0
 24
1.0
 15
0.0
 25
0.0
 16
0.0
 26
0.0
 36
1.0
 17
0.0
 27
0.0
 37
0.0
 40
598.5
 41
1.4142857143
 42
50.0
 43
0.0
 44
0.0
 50
0.0
 51
0.0
 71
0
 72
100
 73
1
 74
1
 75
0
 76
0
 77
0
 78
0
  0
ENDTAB
  0
TABLE
  2
LTYPE
  5
5
100
AcDbSymbolTable
 70
6
  0
LTYPE
  5
14
100
AcDbSymbolTableRecord
100
AcDbLinetypeTableRecord
  2
BYBLOCK
 70
0
  3

 72
65
 73
0
 40
0.0
  0
LTYPE
  5
15
100
AcDbSymbolTableRecord
100
AcDbLinetypeTableRecord
  2
BYLAYER
 70
0
  3

 72
65
 73
0
 40
0.0
  0
LTYPE
  5
16
100
AcDbSymbolTableRecord
100
AcDbLinetypeTableRecord
  2
CONTINUOUS
 70
64
  3
Solid line
 72
65
 73
0
 40
0.0
  0
LTYPE
  5
1F5
100
AcDbSymbolTableRecord
100
AcDbLinetypeTableRecord
  2
CENTER
 70
64
  3
____ _ ____ _ ____ _ ____ _ ____ _ ____ _ ____
 72
65
 73
4
 40
0.6
 49
0.375
 74
0
 49
-0.075
 74
0
 49
0.075
 74
0
 49
-0.075
 74
0
  0
LTYPE
  5
1F6
100
AcDbSymbolTableRecord
100
AcDbLinetypeTableRecord
  2
HIDDEN
 70
64
  3
- - - - - - - - - - - - - - - - - - - -
 72
65
 73
2
 40
0.2
 49
0.1
 74
0
 49
-0.1
 74
0
  0
LTYPE
  5
1F7
100
AcDbSymbolTableRecord
100
AcDbLinetypeTableRecord
  2
PHANTOM
 70
64
  3
_____ _ _ _____ _ _ _____ _ _ _____
 72
65
 73
6
 40
0.8
 49
0.45
 74
0
 49
-0.05
 74
0
 49
0.1
 74
0
 49
-0.05
 74
0
 49
0.1
 74
0
 49
-0.05
 74
0
  0
LTYPE
  5
1F8
100
AcDbSymbolTableRecord
100
AcDbLinetypeTableRecord
  2
DOT
 70
64
  3
. . . . . . . . . . . . . . . . . . . .
 72
65
 73
2
 40
0.2
 49
0.1
 74
0
 49
-0.1
 74
0
  0
LTYPE
  5
1F9
100
AcDbSymbolTableRecord
100
AcDbLinetypeTableRecord
  2
DASHED
 70
64
  3
- - - - - - - - - - - - - - - - - - - -
 72
65
 73
2
 40
0.2
 49
0.1
 74
0
 49
-0.1
 74
0
  0
LTYPE
  5
1FA
100
AcDbSymbolTableRecord
100
AcDbLinetypeTableRecord
  2
ACAD_ISO04W100
 70
64
  3

 72
65
 73
4
 40
30.01
 49
24.0
 74
0
 49
-3.0
 74
0
 49
0.01
 74
0
 49
-3.0
 74
0
  0
ENDTAB
  0
TABLE
  2
LAYER
  5
2
100
AcDbSymbolTable
 70
36
  0
LAYER
  5
10
100
AcDbSymbolTableRecord
100
AcDbLayerTableRecord
  2
0
 70
0
 62
7
  6
CONTINUOUS
370
-3
390
F
  0
LAYER
  5
1FB
100
AcDbSymbolTableRecord
100
AcDbLayerTableRecord
  2
DEFAULT_1
 70
0
 62
7
  6
CENTER
370
-3
390
F
  0
LAYER
  5
1FC
100
AcDbSymbolTableRecord
100
AcDbLayerTableRecord
  2
DEFAULT_2
 70
0
 62
8
  6
HIDDEN
370
-3
390
F
  0
LAYER
  5
1FD
100
AcDbSymbolTableRecord
100
AcDbLayerTableRecord
  2
DEFAULT_3
 70
0
 62
7
  6
PHANTOM
370
-3
390
F
  0
LAYER
  5
1FE
100
AcDbSymbolTableRecord
100
AcDbLayerTableRecord
  2
AB110000_DXF_DIMENSION
 70
0
 62
7
  6
CONTINUOUS
370
-3
390
F
  0
LAYER
  5
1FF
100
AcDbSymbolTableRecord
100
AcDbLayerTableRecord
  2
CE0802AE_DXF_DIMENSION
 70
0
 62
7
  6
CONTINUOUS
370
-3
390
F
  0
LAYER
  5
200
100
AcDbSymbolTableRecord
100
AcDbLayerTableRecord
  2
DD1432AE_DXF_DIMENSION
 70
0
 62
7
  6
CONTINUOUS
370
-3
390
F
  0
LAYER
  5
201
100
AcDbSymbolTableRecord
100
AcDbLayerTableRecord
  2
DD1442AE_DXF_DIMENSION
 70
0
 62
7
  6
CONTINUOUS
370
-3
390
F
  0
LAYER
  5
202
100
AcDbSymbolTableRecord
100
AcDbLayerTableRecord
  2
DD1552AE_DXF_DIMENSION
 70
0
 62
7
  6
CONTINUOUS
370
-3
390
F
  0
LAYER
  5
203
100
AcDbSymbolTableRecord
100
AcDbLayerTableRecord
  2
DD1842AP_DXF_DIMENSION
 70
0
 62
7
  6
CONTINUOUS
370
-3
390
F
  0
LAYER
  5
204
100
AcDbSymbolTableRecord
100
AcDbLayerTableRecord
  2
DG0062AB_DXF_DIMENSION
 70
0
 62
7
  6
CONTINUOUS
370
-3
390
F
  0
LAYER
  5
205
100
AcDbSymbolTableRecord
100
AcDbLayerTableRecord
  2
DG0832AZ_DXF_DIMENSION
 70
0
 62
7
  6
CONTINUOUS
370
-3
390
F
  0
LAYER
  5
206
100
AcDbSymbolTableRecord
100
AcDbLayerTableRecord
  2
Defpoints
 70
0
 62
7
  6
CONTINUOUS
290
0
370
-3
390
F
  0
LAYER
  5
207
100
AcDbSymbolTableRecord
100
AcDbLayerTableRecord
  2
EA0162A0_DXF_DIMENSION
 70
0
 62
7
  6
CONTINUOUS
370
-3
390
F
  0
LAYER
  5
208
100
AcDbSymbolTableRecord
100
AcDbLayerTableRecord
  2
EA0292A0_DXF_DIMENSION
 70
0
 62
7
  6
CONTINUOUS
370
-3
390
F
  0
LAYER
  5
209
100
AcDbSymbolTableRecord
100
AcDbLayerTableRecord
  2
EA1872A0_DXF_DIMENSION
 70
0
 62
7
  6
CONTINUOUS
370
-3
390
F
  0
LAYER
  5
20A
100
AcDbSymbolTableRecord
100
AcDbLayerTableRecord
  2
EA1882A0_DXF_DIMENSION
 70
0
 62
7
  6
CONTINUOUS
370
-3
390
F
  0
LAYER
  5
20B
100
AcDbSymbolTableRecord
100
AcDbLayerTableRecord
  2
EA2432A0_DXF_DIMENSION
 70
0
 62
7
  6
CONTINUOUS
370
-3
390
F
  0
LAYER
  5
20C
100
AcDbSymbolTableRecord
100
AcDbLayerTableRecord
  2
GE0123B0_DXF_DIMENSION
 70
0
 62
7
  6
CONTINUOUS
370
-3
390
F
  0
LAYER
  5
20D
100
AcDbSymbolTableRecord
100
AcDbLayerTableRecord
  2
HE0972AB_DXF_DIMENSION
 70
0
 62
7
  6
CONTINUOUS
370
-3
390
F
  0
LAYER
  5
20E
100
AcDbSymbolTableRecord
100
AcDbLayerTableRecord
  2
HE1882AB_DXF_DIMENSION
 70
0
 62
7
  6
CONTINUOUS
370
-3
390
F
  0
LAYER
  5
20F
100
AcDbSymbolTableRecord
100
AcDbLayerTableRecord
  2
HE1892AB_DXF_DIMENSION
 70
0
 62
7
  6
CONTINUOUS
370
-3
390
F
  0
LAYER
  5
210
100
AcDbSymbolTableRecord
100
AcDbLayerTableRecord
  2
HE1902AB_DXF_DIMENSION
 70
0
 62
7
  6
CONTINUOUS
370
-3
390
F
  0
LAYER
  5
211
100
AcDbSymbolTableRecord
100
AcDbLayerTableRecord
  2
HE2092AB_DXF_DIMENSION
 70
0
 62
7
  6
CONTINUOUS
370
-3
390
F
  0
LAYER
  5
212
100
AcDbSymbolTableRecord
100
AcDbLayerTableRecord
  2
HE2322AB_DXF_DIMENSION
 70
0
 62
7
  6
CONTINUOUS
370
-3
390
F
  0
LAYER
  5
213
100
AcDbSymbolTableRecord
100
AcDbLayerTableRecord
  2
HE2332AB_DXF_DIMENSION
 70
0
 62
7
  6
CONTINUOUS
370
-3
390
F
  0
LAYER
  5
214
100
AcDbSymbolTableRecord
100
AcDbLayerTableRecord
  2
JB0153A1_DXF_DIMENSION
 70
0
 62
7
  6
CONTINUOUS
370
-3
390
F
  0
LAYER
  5
215
100
AcDbSymbolTableRecord
100
AcDbLayerTableRecord
  2
JB0173A1_DXF_DIMENSION
 70
0
 62
7
  6
CONTINUOUS
370
-3
390
F
  0
LAYER
  5
216
100
AcDbSymbolTableRecord
100
AcDbLayerTableRecord
  2
JB0643A1_DXF_DIMENSION
 70
0
 62
7
  6
CONTINUOUS
370
-3
390
F
  0
LAYER
  5
217
100
AcDbSymbolTableRecord
100
AcDbLayerTableRecord
  2
JB0832AB_DXF_DIMENSION
 70
0
 62
7
  6
CONTINUOUS
370
-3
390
F
  0
LAYER
  5
218
100
AcDbSymbolTableRecord
100
AcDbLayerTableRecord
  2
__
 70
0
 62
7
  6
CONTINUOUS
370
-3
390
F
  0
LAYER
  5
219
100
AcDbSymbolTableRecord
100
AcDbLayerTableRecord
  2
____
 70
0
 62
7
  6
CONTINUOUS
370
-3
390
F
  0
LAYER
  5
21A
100
AcDbSymbolTableRecord
100
AcDbLayerTableRecord
  2
______
 70
0
 62
7
  6
CONTINUOUS
370
-3
390
F
  0
LAYER
  5
21B
100
AcDbSymbolTableRecord
100
AcDbLayerTableRecord
  2
________
 70
0
 62
7
  6
CONTINUOUS
370
-3
390
F
  0
LAYER
  5
21C
100
AcDbSymbolTableRecord
100
AcDbLayerTableRecord
  2
__p___
 70
0
 62
7
  6
CONTINUOUS
370
-3
390
F
  0
ENDTAB
  0
TABLE
  2
STYLE
  5
3
100
AcDbSymbolTable
 70
1
  0
STYLE
  5
11
100
AcDbSymbolTableRecord
100
AcDbTextStyleTableRecord
  2
STANDARD
 70
0
 40
0.0
 41
0.8
 50
0.0
 71
0
 42
0.2
  3
txt
  4

  0
STYLE
  5
21D
100
AcDbSymbolTableRecord
100
AcDbTextStyleTableRecord
  2
TEXTSTYLE_1
 70
0
 40
0.0
 41
0.8
 50
0.0
 71
0
 42
0.2
  3
gdt
  4

  0
STYLE
  5
21E
100
AcDbSymbolTableRecord
100
AcDbTextStyleTableRecord
  2
TEXTSTYLE_2
 70
0
 40
0.0
 41
1.0
 50
0.0
 71
0
 42
0.2
  3
arial.ttf
  4

  0
ENDTAB
  0
TABLE
  2
VIEW
  5
6
100
AcDbSymbolTable
 70
0
  0
ENDTAB
  0
TABLE
  2
UCS
  5
7
100
AcDbSymbolTable
 70
0
  0
ENDTAB
  0
TABLE
  2
APPID
  5
9
100
AcDbSymbolTable
 70
1
  0
APPID
  5
21F
100
AcDbSymbolTableRecord
100
AcDbRegAppTableRecord
  2
ACAD
 70
0
  0
ENDTAB
  0
TABLE
  2
BLOCK_RECORD
  5
1
100
AcDbSymbolTable
 70
0
  0
BLOCK_RECORD
  5
220
100
AcDbSymbolTableRecord
100
AcDbBlockTableRecord
  2
*Model_Space
  0
BLOCK_RECORD
  5
221
100
AcDbSymbolTableRecord
100
AcDbBlockTableRecord
  2
*Paper_Space
  0
BLOCK_RECORD
  5
222
100
AcDbSymbolTableRecord
100
AcDbBlockTableRecord
  2
_FILLED
  0
BLOCK_RECORD
  5
223
100
AcDbSymbolTableRecord
100
AcDbBlockTableRecord
  2
*D0
  0
BLOCK_RECORD
  5
224
100
AcDbSymbolTableRecord
100
AcDbBlockTableRecord
  2
*D1
  0
BLOCK_RECORD
  5
225
100
AcDbSymbolTableRecord
100
AcDbBlockTableRecord
  2
*D2
  0
BLOCK_RECORD
  5
226
100
AcDbSymbolTableRecord
100
AcDbBlockTableRecord
  2
*D3
  0
BLOCK_RECORD
  5
227
100
AcDbSymbolTableRecord
100
AcDbBlockTableRecord
  2
*D4
  0
BLOCK_RECORD
  5
228
100
AcDbSymbolTableRecord
100
AcDbBlockTableRecord
  2
*D5
  0
BLOCK_RECORD
  5
229
100
AcDbSymbolTableRecord
100
AcDbBlockTableRecord
  2
*D6
  0
BLOCK_RECORD
  5
22A
100
AcDbSymbolTableRecord
100
AcDbBlockTableRecord
  2
*D7
  0
BLOCK_RECORD
  5
22B
100
AcDbSymbolTableRecord
100
AcDbBlockTableRecord
  2
*D8
  0
BLOCK_RECORD
  5
22C
100
AcDbSymbolTableRecord
100
AcDbBlockTableRecord
  2
*D9
  0
BLOCK_RECORD
  5
22D
100
AcDbSymbolTableRecord
100
AcDbBlockTableRecord
  2
*D10
  0
ENDTAB
  0
TABLE
  2
DIMSTYLE
  5
A
100
AcDbSymbolTable
 70
1
100
AcDbDimStyleTable
 71
0
  0
DIMSTYLE
105
22E
100
AcDbSymbolTableRecord
100
AcDbDimStyleTableRecord
  2
STANDARD
 70
0
  3

  4

 40
1.0
 41
4.0
 42
0.0
 43
0.38
 44
1.0
 45
0.0
 46
0.0
 47
0.01
 48
0.01
140
3.5
141
0.09
142
0.0
143
25.4
144
1.0
145
0.0
146
1.0
147
0.625
 71
1.0
 72
0.0
 73
0
 74
0
 75
0
 76
0
 77
1
 78
8
 79
2
170
0
171
1
172
0
173
0
174
0
175
0
176
0
177
0
178
5
270
2
179
2
271
2
272
2
273
2
274
2
275
0
280
0
281
0
282
0
283
1
284
8
285
0
286
0
287
3
288
0
340
11
278
46
341
222
342
222
343
222
344
222
  0
DIMSTYLE
105
22F
100
AcDbSymbolTableRecord
100
AcDbDimStyleTableRecord
  2
DIMSTYLE_1
 70
0
  3

  4

 40
1.0
 41
4.0
 42
0.0
 43
0.38
 44
1.0
 45
0.0
 46
0.0
 47
0.2
 48
0.2
140
19.6
141
0.09
142
0.0
143
25.4
144
1.0
145
0.0
146
1.0
147
4.9
 71
0.0
 72
0.0
 73
0
 74
0
 75
0
 76
0
 77
1
 78
8
 79
2
170
0
171
1
172
0
173
0
174
0
175
0
176
0
177
0
178
0
270
2
179
2
271
2
272
-1
273
2
274
2
275
0
280
0
281
0
282
0
283
1
284
8
285
0
286
0
287
3
288
0
340
21E
278
46
341
222
342
222
343
222
344
222
  0
DIMSTYLE
105
230
100
AcDbSymbolTableRecord
100
AcDbDimStyleTableRecord
  2
DIMSTYLE_2
 70
0
  3

  4

 40
1.0
 41
4.0
 42
0.0
 43
0.38
 44
1.0
 45
0.0
 46
0.0
 47
0.1
 48
0.1
140
19.6
141
0.09
142
0.0
143
25.4
144
1.0
145
0.0
146
1.0
147
4.9
 71
0.0
 72
0.0
 73
0
 74
0
 75
0
 76
0
 77
1
 78
8
 79
2
170
0
171
1
172
0
173
0
174
0
175
0
176
0
177
0
178
0
270
2
179
2
271
2
272
-1
273
2
274
2
275
0
280
0
281
0
282
0
283
1
284
8
285
0
286
0
287
3
288
0
340
21E
278
46
341
222
342
222
343
222
344
222
  0
DIMSTYLE
105
231
100
AcDbSymbolTableRecord
100
AcDbDimStyleTableRecord
  2
DIMSTYLE_3
 70
0
  3

  4

 40
1.0
 41
4.0
 42
0.0
 43
0.38
 44
1.0
 45
0.0
 46
0.0
 47
0.5
 48
0.5
140
19.6
141
0.09
142
0.0
143
25.4
144
1.0
145
0.0
146
1.0
147
4.9
 71
0.0
 72
0.0
 73
0
 74
0
 75
0
 76
0
 77
1
 78
8
 79
2
170
0
171
1
172
0
173
0
174
0
175
0
176
0
177
0
178
0
270
2
179
2
271
2
272
-1
273
2
274
2
275
0
280
0
281
0
282
0
283
1
284
8
285
0
286
0
287
3
288
0
340
21E
278
46
341
222
342
222
343
222
344
222
  0
DIMSTYLE
105
232
100
AcDbSymbolTableRecord
100
AcDbDimStyleTableRecord
  2
DIMSTYLE_4
 70
0
  3

  4

 40
1.0
 41
4.0
 42
0.0
 43
0.38
 44
1.0
 45
0.0
 46
0.0
 47
0.3
 48
0.3
140
19.6
141
0.09
142
0.0
143
25.4
144
1.0
145
0.0
146
1.0
147
4.9
 71
0.0
 72
0.0
 73
0
 74
0
 75
0
 76
0
 77
1
 78
8
 79
2
170
0
171
1
172
0
173
0
174
0
175
0
176
0
177
0
178
0
270
2
179
2
271
2
272
-1
273
2
274
2
275
0
280
0
281
0
282
0
283
1
284
8
285
0
286
0
287
3
288
0
340
21E
278
46
341
222
342
222
343
222
344
222
  0
DIMSTYLE
105
233
100
AcDbSymbolTableRecord
100
AcDbDimStyleTableRecord
  2
DIMSTYLE_5
 70
0
  3

  4

 40
1.0
 41
4.0
 42
0.0
 43
0.38
 44
1.0
 45
0.0
 46
0.0
 47
0.5
 48
0.5
140
19.6
141
0.09
142
0.0
143
25.4
144
1.0
145
0.0
146
1.0
147
19.6
 71
0.0
 72
0.0
 73
0
 74
0
 75
0
 76
0
 77
1
 78
8
 79
2
170
0
171
1
172
0
173
0
174
0
175
0
176
0
177
0
178
0
270
2
179
2
271
2
272
-1
273
2
274
2
275
0
280
0
281
0
282
0
283
1
284
8
285
0
286
0
287
3
288
0
340
21E
278
46
341
222
342
222
343
222
344
222
  0
ENDTAB
  0
ENDSEC
  0
SECTION
  2
BLOCKS
  0
BLOCK
  5
20
100
AcDbEntity
  8
0
100
AcDbBlockBegin
  2
*Model_Space
 70
0
 10
0.0
 20
0.0
 30
0.0
  3
*Model_Space
  1

  0
ENDBLK
  5
21
100
AcDbEntity
  8
0
100
AcDbBlockEnd
  0
BLOCK
  5
1C
100
AcDbEntity
  8
0
100
AcDbBlockBegin
  2
*Paper_Space
 70
0
 10
0.0
 20
0.0
 30
0.0
  3
*Paper_Space
  1

  0
ENDBLK
  5
1D
100
AcDbEntity
  8
0
100
AcDbBlockEnd
  0
BLOCK
  5
234
100
AcDbEntity
  8
0
100
AcDbBlockBegin
  2
_FILLED
 70
64
 10
0.0
 20
0.0
  3
_FILLED
  1

  0
SOLID
  5
235
100
AcDbEntity
  8
0
  6
BYBLOCK
 62
0
100
AcDbTrace
 10
0.0
 20
0.0
 11
-1.0
 21
0.125
 12
-1.0
 22
-0.125
 13
-1.0
 23
-0.125
  0
ENDBLK
  5
236
100
AcDbEntity
  8
0
  6
BYBLOCK
 62
0
100
AcDbBlockEnd
  0
BLOCK
  5
237
100
AcDbEntity
  8
__p___
100
AcDbBlockBegin
 62
3
  6
CONTINUOUS
  2
*D0
 70
65
 10
0.0
 20
0.0
  3
*D0
  1

  0
TEXT
  5
238
100
AcDbEntity
  8
__p___
100
AcDbText
 62
3
  6
CONTINUOUS
 10
242.7798284993
 20
124.609421971
  7
TEXTSTYLE_2
 40
19.6
  1
max.30
 50
90.0
 72
5
 11
242.7798284993
 21
214.3031022684
100
AcDbText
  0
LINE
  5
239
100
AcDbEntity
  8
__p___
100
AcDbLine
 62
3
  6
CONTINUOUS
 10
207.6191867322
 20
243.9926178151
 11
242.7798284993
 21
243.9926178151
  0
LINE
  5
23A
100
AcDbEntity
  8
__p___
100
AcDbLine
 62
3
  6
CONTINUOUS
 10
242.7798284993
 20
243.9926178151
 11
248.6798284993
 21
243.9926178151
  0
LINE
  5
23B
100
AcDbEntity
  8
__p___
100
AcDbLine
 62
3
  6
CONTINUOUS
 10
209.1193820582
 20
273.9926178151
 11
242.7798284993
 21
273.9926178151
  0
LINE
  5
23C
100
AcDbEntity
  8
__p___
100
AcDbLine
 62
3
  6
CONTINUOUS
 10
242.7798284993
 20
273.9926178151
 11
248.6798284993
 21
273.9926178151
  0
LINE
  5
23D
100
AcDbEntity
  8
__p___
100
AcDbLine
 62
3
  6
CONTINUOUS
 10
247.6798284993
 20
243.9926178151
 11
247.6798284993
 21
124.609421971
  0
LINE
  5
23E
100
AcDbEntity
  8
__p___
100
AcDbLine
 62
3
  6
CONTINUOUS
 10
247.6798284993
 20
124.609421971
 11
247.6798284993
 21
258.9926178151
  0
LINE
  5
23F
100
AcDbEntity
  8
__p___
100
AcDbLine
 62
3
  6
CONTINUOUS
 10
247.6798284993
 20
273.9926178151
 11
247.6798284993
 21
280.9926178151
  0
LINE
  5
240
100
AcDbEntity
  8
__p___
100
AcDbLine
 62
3
  6
CONTINUOUS
 10
247.6798284993
 20
280.9926178151
 11
247.6798284993
 21
258.9926178151
  0
INSERT
  5
241
100
AcDbEntity
  8
__p___
100
AcDbBlockReference
 62
3
  6
CONTINUOUS
  2
_FILLED
 10
247.6798284993
 20
243.9926178151
 41
4.0
 42
4.0
 43
4.0
 50
90.0
  0
INSERT
  5
242
100
AcDbEntity
  8
__p___
100
AcDbBlockReference
 62
3
  6
CONTINUOUS
  2
_FILLED
 10
247.6798284993
 20
273.9926178151
 41
4.0
 42
4.0
 43
4.0
 50
270.0
  0
ENDBLK
  5
243
100
AcDbEntity
  8
0
  6
BYBLOCK
 62
0
100
AcDbBlockEnd
  0
BLOCK
  5
244
100
AcDbEntity
  8
__p___
100
AcDbBlockBegin
 62
3
  6
CONTINUOUS
  2
*D1
 70
65
 10
0.0
 20
0.0
  3
*D1
  1

  0
TEXT
  5
245
100
AcDbEntity
  8
__p___
100
AcDbText
 62
3
  6
CONTINUOUS
 10
118.2085798845
 20
303.1268606528
  7
TEXTSTYLE_2
 40
19.6
  1
5
 50
90.0
 72
5
 11
118.2085798845
 21
318.3551134409
100
AcDbText
  0
LINE
  5
246
100
AcDbEntity
  8
__p___
100
AcDbLine
 62
3
  6
CONTINUOUS
 10
156.1193820582
 20
273.9926178151
 11
122.1085798845
 21
273.9926178151
  0
LINE
  5
247
100
AcDbEntity
  8
__p___
100
AcDbLine
 62
3
  6
CONTINUOUS
 10
156.1193820582
 20
278.9926178151
 11
122.1085798845
 21
278.9926178151
  0
LINE
  5
248
100
AcDbEntity
  8
__p___
100
AcDbLine
 62
3
  6
CONTINUOUS
 10
123.1085798845
 20
273.9926178151
 11
123.1085798845
 21
266.9926178151
  0
LINE
  5
249
100
AcDbEntity
  8
__p___
100
AcDbLine
 62
3
  6
CONTINUOUS
 10
123.1085798845
 20
266.9926178151
 11
123.1085798845
 21
276.4926178151
  0
LINE
  5
24A
100
AcDbEntity
  8
__p___
100
AcDbLine
 62
3
  6
CONTINUOUS
 10
123.1085798845
 20
278.9926178151
 11
123.1085798845
 21
318.3551134409
  0
LINE
  5
24B
100
AcDbEntity
  8
__p___
100
AcDbLine
 62
3
  6
CONTINUOUS
 10
123.1085798845
 20
318.3551134409
 11
123.1085798845
 21
276.4926178151
  0
INSERT
  5
24C
100
AcDbEntity
  8
__p___
100
AcDbBlockReference
 62
3
  6
CONTINUOUS
  2
_FILLED
 10
123.1085798845
 20
273.9926178151
 41
4.0
 42
4.0
 43
4.0
 50
90.0
  0
INSERT
  5
24D
100
AcDbEntity
  8
__p___
100
AcDbBlockReference
 62
3
  6
CONTINUOUS
  2
_FILLED
 10
123.1085798845
 20
278.9926178151
 41
4.0
 42
4.0
 43
4.0
 50
270.0
  0
ENDBLK
  5
24E
100
AcDbEntity
  8
0
  6
BYBLOCK
 62
0
100
AcDbBlockEnd
  0
BLOCK
  5
24F
100
AcDbEntity
  8
__p___
100
AcDbBlockBegin
 62
3
  6
CONTINUOUS
  2
*D2
 70
65
 10
0.0
 20
0.0
  3
*D2
  1

  0
TEXT
  5
250
100
AcDbEntity
  8
__p___
100
AcDbText
 62
3
  6
CONTINUOUS
 10
496.6641995265
 20
488.1407135599
  7
TEXTSTYLE_2
 40
19.6
  1
210
 72
5
 11
542.3489578908
 21
488.1407135599
100
AcDbText
  0
LINE
  5
251
100
AcDbEntity
  8
__p___
100
AcDbLine
 62
3
  6
CONTINUOUS
 10
414.5065671648
 20
389.9537512454
 11
414.5065671648
 21
484.2407135599
  0
LINE
  5
252
100
AcDbEntity
  8
__p___
100
AcDbLine
 62
3
  6
CONTINUOUS
 10
624.5065902525
 20
513.3945560064
 11
624.5065902525
 21
488.1407135599
  0
LINE
  5
253
100
AcDbEntity
  8
__p___
100
AcDbLine
 62
3
  6
CONTINUOUS
 10
624.5065902525
 20
488.1407135599
 11
624.5065902525
 21
482.2407135599
  0
LINE
  5
254
100
AcDbEntity
  8
__p___
100
AcDbLine
 62
3
  6
CONTINUOUS
 10
414.5065671648
 20
483.2407135599
 11
519.5065787086
 21
483.2407135599
  0
LINE
  5
255
100
AcDbEntity
  8
__p___
100
AcDbLine
 62
3
  6
CONTINUOUS
 10
624.5065902525
 20
483.2407135599
 11
519.5065787086
 21
483.2407135599
  0
INSERT
  5
256
100
AcDbEntity
  8
__p___
100
AcDbBlockReference
 62
3
  6
CONTINUOUS
  2
_FILLED
 10
414.5065671648
 20
483.2407135599
 41
4.0
 42
4.0
 43
4.0
 50
180.0
  0
INSERT
  5
257
100
AcDbEntity
  8
__p___
100
AcDbBlockReference
 62
3
  6
CONTINUOUS
  2
_FILLED
 10
624.5065902525
 20
483.2407135599
 41
4.0
 42
4.0
 43
4.0
  0
ENDBLK
  5
258
100
AcDbEntity
  8
0
  6
BYBLOCK
 62
0
100
AcDbBlockEnd
  0
BLOCK
  5
259
100
AcDbEntity
  8
__p___
100
AcDbBlockBegin
 62
3
  6
CONTINUOUS
  2
*D3
 70
65
 10
0.0
 20
0.0
  3
*D3
  1

  0
TEXT
  5
25A
100
AcDbEntity
  8
__p___
100
AcDbText
 62
3
  6
CONTINUOUS
 10
679.5913407205
 20
372.851190698
  7
TEXTSTYLE_2
 40
19.6
  1
243
 50
90.0
 72
5
 11
679.5913407205
 21
418.5359490623
100
AcDbText
  0
LINE
  5
25B
100
AcDbEntity
  8
__p___
100
AcDbLine
 62
3
  6
CONTINUOUS
 10
415.5065671648
 20
273.9926178151
 11
679.5913407205
 21
273.9926178151
  0
LINE
  5
25C
100
AcDbEntity
  8
__p___
100
AcDbLine
 62
3
  6
CONTINUOUS
 10
679.5913407205
 20
273.9926178151
 11
685.4913407205
 21
273.9926178151
  0
LINE
  5
25D
100
AcDbEntity
  8
__p___
100
AcDbLine
 62
3
  6
CONTINUOUS
 10
614.006575911
 20
517.3945219451
 11
679.5913407205
 21
517.3945219451
  0
LINE
  5
25E
100
AcDbEntity
  8
__p___
100
AcDbLine
 62
3
  6
CONTINUOUS
 10
679.5913407205
 20
517.3945219451
 11
685.4913407205
 21
517.3945219451
  0
LINE
  5
25F
100
AcDbEntity
  8
__p___
100
AcDbLine
 62
3
  6
CONTINUOUS
 10
684.4913407205
 20
273.9926178151
 11
684.4913407205
 21
395.6935698801
  0
LINE
  5
260
100
AcDbEntity
  8
__p___
100
AcDbLine
 62
3
  6
CONTINUOUS
 10
684.4913407205
 20
517.3945219451
 11
684.4913407205
 21
395.6935698801
  0
INSERT
  5
261
100
AcDbEntity
  8
__p___
100
AcDbBlockReference
 62
3
  6
CONTINUOUS
  2
_FILLED
 10
684.4913407205
 20
273.9926178151
 41
4.0
 42
4.0
 43
4.0
 50
270.0
  0
INSERT
  5
262
100
AcDbEntity
  8
__p___
100
AcDbBlockReference
 62
3
  6
CONTINUOUS
  2
_FILLED
 10
684.4913407205
 20
517.3945219451
 41
4.0
 42
4.0
 43
4.0
 50
90.0
  0
ENDBLK
  5
263
100
AcDbEntity
  8
0
  6
BYBLOCK
 62
0
100
AcDbBlockEnd
  0
BLOCK
  5
264
100
AcDbEntity
  8
__p___
100
AcDbBlockBegin
 62
3
  6
CONTINUOUS
  2
*D4
 70
65
 10
0.0
 20
0.0
  3
*D4
  1

  0
TEXT
  5
265
100
AcDbEntity
  8
__p___
100
AcDbText
 62
3
  6
CONTINUOUS
 10
464.3065671648
 20
300.0043537437
  7
TEXTSTYLE_1
 40
19.6
  1
n
 72
5
 11
490.4399004981
 21
300.0043537437
100
AcDbText
  0
TEXT
  5
266
100
AcDbEntity
  8
__p___
100
AcDbText
 62
3
  6
CONTINUOUS
 10
490.4399004981
 20
300.0043537437
  7
TEXTSTYLE_2
 40
19.6
  1
52
 72
5
 11
520.8964060743
 21
300.0043537437
100
AcDbText
  0
LINE
  5
267
100
AcDbEntity
  8
__p___
100
AcDbLine
 62
3
  6
CONTINUOUS
 10
388.5065671648
 20
272.9926178151
 11
388.5065671648
 21
296.1043537437
  0
LINE
  5
268
100
AcDbEntity
  8
__p___
100
AcDbLine
 62
3
  6
CONTINUOUS
 10
440.5065671648
 20
272.9926178151
 11
440.5065671648
 21
296.1043537437
  0
LINE
  5
269
100
AcDbEntity
  8
__p___
100
AcDbLine
 62
3
  6
CONTINUOUS
 10
388.5065671648
 20
295.1043537437
 11
381.5065671648
 21
295.1043537437
  0
LINE
  5
26A
100
AcDbEntity
  8
__p___
100
AcDbLine
 62
3
  6
CONTINUOUS
 10
381.5065671648
 20
295.1043537437
 11
414.5065671648
 21
295.1043537437
  0
LINE
  5
26B
100
AcDbEntity
  8
__p___
100
AcDbLine
 62
3
  6
CONTINUOUS
 10
440.5065671648
 20
295.1043537437
 11
520.8964060743
 21
295.1043537437
  0
LINE
  5
26C
100
AcDbEntity
  8
__p___
100
AcDbLine
 62
3
  6
CONTINUOUS
 10
520.8964060743
 20
295.1043537437
 11
414.5065671648
 21
295.1043537437
  0
INSERT
  5
26D
100
AcDbEntity
  8
__p___
100
AcDbBlockReference
 62
3
  6
CONTINUOUS
  2
_FILLED
 10
388.5065671648
 20
295.1043537437
 41
4.0
 42
4.0
 43
4.0
  0
INSERT
  5
26E
100
AcDbEntity
  8
__p___
100
AcDbBlockReference
 62
3
  6
CONTINUOUS
  2
_FILLED
 10
440.5065671648
 20
295.1043537437
 41
4.0
 42
4.0
 43
4.0
 50
180.0
  0
ENDBLK
  5
26F
100
AcDbEntity
  8
0
  6
BYBLOCK
 62
0
100
AcDbBlockEnd
  0
BLOCK
  5
270
100
AcDbEntity
  8
__p___
100
AcDbBlockBegin
 62
3
  6
CONTINUOUS
  2
*D5
 70
65
 10
0.0
 20
0.0
  3
*D5
  1

  0
TEXT
  5
271
100
AcDbEntity
  8
__p___
100
AcDbText
 62
3
  6
CONTINUOUS
 10
736.1132314798
 20
386.2020976401
  7
TEXTSTYLE_2
 40
19.6
  1
270
 50
90.0
 72
5
 11
736.1132314798
 21
431.8868560044
100
AcDbText
  0
LINE
  5
272
100
AcDbEntity
  8
__p___
100
AcDbLine
 62
3
  6
CONTINUOUS
 10
644.5064479698
 20
544.0938526153
 11
736.1125296512
 21
544.0944255871
  0
LINE
  5
273
100
AcDbEntity
  8
__p___
100
AcDbLine
 62
3
  6
CONTINUOUS
 10
736.1125296512
 20
544.0944255871
 11
742.0123867779
 21
544.0944624891
  0
LINE
  5
274
100
AcDbEntity
  8
__p___
100
AcDbLine
 62
3
  6
CONTINUOUS
 10
441.5065671648
 20
273.9926240699
 11
736.1142190549
 21
273.9944667627
  0
LINE
  5
275
100
AcDbEntity
  8
__p___
100
AcDbLine
 62
3
  6
CONTINUOUS
 10
736.1142190549
 20
273.9944667627
 11
742.0140761816
 21
273.9945036648
  0
LINE
  5
276
100
AcDbEntity
  8
__p___
100
AcDbLine
 62
3
  6
CONTINUOUS
 10
741.0123867779
 20
544.0944562344
 11
741.0132314798
 21
409.0444768222
  0
LINE
  5
277
100
AcDbEntity
  8
__p___
100
AcDbLine
 62
3
  6
CONTINUOUS
 10
741.0140761816
 20
273.9944974101
 11
741.0132314798
 21
409.0444768222
  0
INSERT
  5
278
100
AcDbEntity
  8
__p___
100
AcDbBlockReference
 62
3
  6
CONTINUOUS
  2
_FILLED
 10
741.0123867779
 20
544.0944562344
 41
4.0
 42
4.0
 43
4.0
 50
90.0003583699
  0
INSERT
  5
279
100
AcDbEntity
  8
__p___
100
AcDbBlockReference
 62
3
  6
CONTINUOUS
  2
_FILLED
 10
741.0140761816
 20
273.9944974101
 41
4.0
 42
4.0
 43
4.0
 50
270.0003583699
  0
ENDBLK
  5
27A
100
AcDbEntity
  8
0
  6
BYBLOCK
 62
0
100
AcDbBlockEnd
  0
BLOCK
  5
27B
100
AcDbEntity
  8
__p___
100
AcDbBlockBegin
 62
3
  6
CONTINUOUS
  2
*D6
 70
65
 10
0.0
 20
0.0
  3
*D6
  1

  0
TEXT
  5
27C
100
AcDbEntity
  8
__p___
100
AcDbText
 62
3
  6
CONTINUOUS
 10
363.6283143767
 20
431.668200086
  7
TEXTSTYLE_2
 40
19.6
  1
71
 72
5
 11
394.0848199529
 21
431.668200086
100
AcDbText
  0
LINE
  5
27D
100
AcDbEntity
  8
__p___
100
AcDbLine
 62
3
  6
CONTINUOUS
 10
414.5065671648
 20
389.9537512454
 11
414.5065671648
 21
427.768200086
  0
LINE
  5
27E
100
AcDbEntity
  8
__p___
100
AcDbLine
 62
3
  6
CONTINUOUS
 10
343.2065671648
 20
419.2926178151
 11
343.2065671648
 21
427.768200086
  0
LINE
  5
27F
100
AcDbEntity
  8
__p___
100
AcDbLine
 62
3
  6
CONTINUOUS
 10
414.5065671648
 20
426.768200086
 11
378.8565671648
 21
426.768200086
  0
LINE
  5
280
100
AcDbEntity
  8
__p___
100
AcDbLine
 62
3
  6
CONTINUOUS
 10
343.2065671648
 20
426.768200086
 11
378.8565671648
 21
426.768200086
  0
INSERT
  5
281
100
AcDbEntity
  8
__p___
100
AcDbBlockReference
 62
3
  6
CONTINUOUS
  2
_FILLED
 10
414.5065671648
 20
426.768200086
 41
4.0
 42
4.0
 43
4.0
  0
INSERT
  5
282
100
AcDbEntity
  8
__p___
100
AcDbBlockReference
 62
3
  6
CONTINUOUS
  2
_FILLED
 10
343.2065671648
 20
426.768200086
 41
4.0
 42
4.0
 43
4.0
 50
180.0
  0
ENDBLK
  5
283
100
AcDbEntity
  8
0
  6
BYBLOCK
 62
0
100
AcDbBlockEnd
  0
BLOCK
  5
284
100
AcDbEntity
  8
__p___
100
AcDbBlockBegin
 62
3
  6
CONTINUOUS
  2
*D7
 70
65
 10
0.0
 20
0.0
  3
*D7
  1

  0
TEXT
  5
285
100
AcDbEntity
  8
__p___
100
AcDbText
 62
3
  6
CONTINUOUS
 10
675.0094017834
 20
69.6066592595
  7
TEXTSTYLE_2
 40
19.6
  1
360
 50
89.924153027
 72
5
 11
675.069878308
 21
115.291377595
100
AcDbText
  0
TEXT
  5
286
100
AcDbEntity
  8
__p___
100
AcDbText
 62
3
  6
CONTINUOUS
 10
675.069878308
 20
115.291377595
  7
TEXTSTYLE_1
 40
19.6
  1
~
 50
89.924153027
 72
5
 11
675.0871756872
 21
128.3580328127
100
AcDbText
  0
LINE
  5
287
100
AcDbEntity
  8
__p___
100
AcDbLine
 62
3
  6
CONTINUOUS
 10
654.0169113455
 20
35.7394239557
 11
686.1440805363
 21
27.1309749159
  0
LINE
  5
288
100
AcDbEntity
  8
__p___
100
AcDbLine
 62
3
  6
CONTINUOUS
 10
654.0169113455
 20
162.9092215187
 11
665.0379384321
 21
165.8622968263
  0
LINE
  5
289
100
AcDbEntity
  8
__p___
100
AcDbLine
 62
3
  6
CONTINUOUS
 10
665.0379384321
 20
165.8622968263
 11
686.1440805363
 21
171.5176705585
  0
ARC
  5
28A
100
AcDbEntity
  8
__p___
100
AcDbCircle
 62
3
  6
CONTINUOUS
 10
416.7148384987
 20
99.3243227372
 40
277.9336765875
100
AcDbArc
 50
345.0
 51
360.0
  0
ARC
  5
28B
100
AcDbEntity
  8
__p___
100
AcDbCircle
 62
3
  6
CONTINUOUS
 10
416.7148384987
 20
99.3243227372
 40
277.9336765875
100
AcDbArc
 50
0.0
 51
15.0
  0
SOLID
  5
28C
100
AcDbEntity
  8
__p___
100
AcDbTrace
 62
3
  6
CONTINUOUS
 10
685.7017196398
 20
31.3867777944
 11
685.17815471
 21
27.389793961
 12
686.6694828933
 22
31.1349161553
 13
686.6694828933
 23
31.1349161553
  0
SOLID
  5
28D
100
AcDbEntity
  8
__p___
100
AcDbTrace
 62
3
  6
CONTINUOUS
 10
686.6694828933
 20
167.5137293192
 11
685.17815471
 21
171.2588515134
 12
685.7017196398
 22
167.26186768
 13
685.7017196398
 23
167.26186768
  0
ENDBLK
  5
28E
100
AcDbEntity
  8
0
  6
BYBLOCK
 62
0
100
AcDbBlockEnd
  0
BLOCK
  5
28F
100
AcDbEntity
  8
__p___
100
AcDbBlockBegin
 62
3
  6
CONTINUOUS
  2
*D8
 70
65
 10
0.0
 20
0.0
  3
*D8
  1

  0
TEXT
  5
290
100
AcDbEntity
  8
__p___
100
AcDbText
 62
3
  6
CONTINUOUS
 10
134.159623181
 20
430.4582443946
  7
TEXTSTYLE_2
 40
19.6
  1
67
 72
5
 11
164.6161287572
 21
430.4582443946
100
AcDbText
  0
LINE
  5
291
100
AcDbEntity
  8
__p___
100
AcDbLine
 62
3
  6
CONTINUOUS
 10
183.1193820582
 20
427.0931007549
 11
183.1193820582
 21
424.5582443946
  0
LINE
  5
292
100
AcDbEntity
  8
__p___
100
AcDbLine
 62
3
  6
CONTINUOUS
 10
115.6563698799
 20
389.733090319
 11
115.6563698799
 21
426.5582443946
  0
LINE
  5
293
100
AcDbEntity
  8
__p___
100
AcDbLine
 62
3
  6
CONTINUOUS
 10
183.1193820582
 20
425.5582443946
 11
149.3878759691
 21
425.5582443946
  0
LINE
  5
294
100
AcDbEntity
  8
__p___
100
AcDbLine
 62
3
  6
CONTINUOUS
 10
115.6563698799
 20
425.5582443946
 11
149.3878759691
 21
425.5582443946
  0
INSERT
  5
295
100
AcDbEntity
  8
__p___
100
AcDbBlockReference
 62
3
  6
CONTINUOUS
  2
_FILLED
 10
183.1193820582
 20
425.5582443946
 41
4.0
 42
4.0
 43
4.0
  0
INSERT
  5
296
100
AcDbEntity
  8
__p___
100
AcDbBlockReference
 62
3
  6
CONTINUOUS
  2
_FILLED
 10
115.6563698799
 20
425.5582443946
 41
4.0
 42
4.0
 43
4.0
 50
180.0
  0
ENDBLK
  5
297
100
AcDbEntity
  8
0
  6
BYBLOCK
 62
0
100
AcDbBlockEnd
  0
BLOCK
  5
298
100
AcDbEntity
  8
__p___
100
AcDbBlockBegin
 62
3
  6
CONTINUOUS
  2
*D9
 70
65
 10
0.0
 20
0.0
  3
*D9
  1

  0
TEXT
  5
299
100
AcDbEntity
  8
__p___
100
AcDbText
 62
3
  6
CONTINUOUS
 10
201.6226353593
 20
430.3917689457
  7
TEXTSTYLE_2
 40
19.6
  1
67
 72
5
 11
232.0791409355
 21
430.3917689457
100
AcDbText
  0
LINE
  5
29A
100
AcDbEntity
  8
__p___
100
AcDbLine
 62
3
  6
CONTINUOUS
 10
183.1193820582
 20
425.5582443946
 11
183.1193820582
 21
424.4917689457
  0
LINE
  5
29B
100
AcDbEntity
  8
__p___
100
AcDbLine
 62
3
  6
CONTINUOUS
 10
250.5823942366
 20
389.733090319
 11
250.5823942366
 21
426.4917689457
  0
LINE
  5
29C
100
AcDbEntity
  8
__p___
100
AcDbLine
 62
3
  6
CONTINUOUS
 10
183.1193820582
 20
425.4917689457
 11
216.8508881474
 21
425.4917689457
  0
LINE
  5
29D
100
AcDbEntity
  8
__p___
100
AcDbLine
 62
3
  6
CONTINUOUS
 10
250.5823942366
 20
425.4917689457
 11
216.8508881474
 21
425.4917689457
  0
INSERT
  5
29E
100
AcDbEntity
  8
__p___
100
AcDbBlockReference
 62
3
  6
CONTINUOUS
  2
_FILLED
 10
183.1193820582
 20
425.4917689457
 41
4.0
 42
4.0
 43
4.0
 50
180.0
  0
INSERT
  5
29F
100
AcDbEntity
  8
__p___
100
AcDbBlockReference
 62
3
  6
CONTINUOUS
  2
_FILLED
 10
250.5823942366
 20
425.4917689457
 41
4.0
 42
4.0
 43
4.0
  0
ENDBLK
  5
2A0
100
AcDbEntity
  8
0
  6
BYBLOCK
 62
0
100
AcDbBlockEnd
  0
BLOCK
  5
2A1
100
AcDbEntity
  8
__p___
100
AcDbBlockBegin
 62
3
  6
CONTINUOUS
  2
*D10
 70
65
 10
0.0
 20
0.0
  3
*D10
  1

  0
TEXT
  5
2A2
100
AcDbEntity
  8
__p___
100
AcDbText
 62
3
  6
CONTINUOUS
 10
337.9729570289
 20
471.2980860089
  7
TEXTSTYLE_2
 40
19.6
  1
107
 72
5
 11
383.6577153932
 21
471.2980860089
100
AcDbText
  0
LINE
  5
2A3
100
AcDbEntity
  8
__p___
100
AcDbLine
 62
3
  6
CONTINUOUS
 10
307.1241052574
 20
401.4500855739
 11
307.1241052574
 21
467.3980860089
  0
LINE
  5
2A4
100
AcDbEntity
  8
__p___
100
AcDbLine
 62
3
  6
CONTINUOUS
 10
414.5065671648
 20
433.0601278645
 11
414.5065671648
 21
467.3980860089
  0
LINE
  5
2A5
100
AcDbEntity
  8
__p___
100
AcDbLine
 62
3
  6
CONTINUOUS
 10
307.1241052574
 20
466.3980860089
 11
360.8153362111
 21
466.3980860089
  0
LINE
  5
2A6
100
AcDbEntity
  8
__p___
100
AcDbLine
 62
3
  6
CONTINUOUS
 10
414.5065671648
 20
466.3980860089
 11
360.8153362111
 21
466.3980860089
  0
INSERT
  5
2A7
100
AcDbEntity
  8
__p___
100
AcDbBlockReference
 62
3
  6
CONTINUOUS
  2
_FILLED
 10
307.1241052574
 20
466.3980860089
 41
4.0
 42
4.0
 43
4.0
 50
180.0
  0
INSERT
  5
2A8
100
AcDbEntity
  8
__p___
100
AcDbBlockReference
 62
3
  6
CONTINUOUS
  2
_FILLED
 10
414.5065671648
 20
466.3980860089
 41
4.0
 42
4.0
 43
4.0
  0
ENDBLK
  5
2A9
100
AcDbEntity
  8
0
  6
BYBLOCK
 62
0
100
AcDbBlockEnd
  0
ENDSEC
  0
SECTION
  2
ENTITIES
  0
DIMENSION
  5
2AA
100
AcDbEntity
  8
__p___
100
AcDbDimension
 62
3
  6
CONTINUOUS
  2
*D0
 10
247.6798284993
 20
273.9926178151
 11
247.6798284993
 21
169.6813732866
 70
160
 71
2
 42
30.0
  1
max.30
  3
DIMSTYLE_1
100
AcDbAlignedDimension
 13
207.6191867322
 23
243.9926178151
 14
209.1193820582
 24
273.9926178151
 50
90.0
100
AcDbRotatedDimension
  0
DIMENSION
  5
2AB
100
AcDbEntity
  8
__p___
100
AcDbDimension
 62
3
  6
CONTINUOUS
  2
*D1
 10
123.1085798845
 20
278.9926178151
 11
123.1085798845
 21
310.7774176774
 70
160
 71
1
 42
5.0
  1
5
  3
DIMSTYLE_2
100
AcDbAlignedDimension
 13
156.1193820582
 23
273.9926178151
 14
156.1193820582
 24
278.9926178151
 50
90.0
100
AcDbRotatedDimension
  0
DIMENSION
  5
2AC
100
AcDbEntity
  8
__p___
100
AcDbDimension
 62
3
  6
CONTINUOUS
  2
*D2
 10
624.5065902525
 20
483.2407135599
 11
519.255718602
 21
483.2407135599
 70
160
 71
2
 42
210.0000230877
  1
210
  3
DIMSTYLE_3
100
AcDbAlignedDimension
 13
414.5065671648
 23
389.9537512454
 14
624.5065902525
 24
513.3945560064
100
AcDbRotatedDimension
  0
DIMENSION
  5
2AD
100
AcDbEntity
  8
__p___
100
AcDbDimension
 62
3
  6
CONTINUOUS
  2
*D3
 10
684.4913407205
 20
517.3945219451
 11
684.4913407205
 21
395.4427181232
 70
160
 71
2
  1
243
  3
DIMSTYLE_2
100
AcDbAlignedDimension
 13
415.5065671648
 23
273.9926178151
 14
614.006575911
 24
517.3945219451
 50
90.0
100
AcDbRotatedDimension
  0
DIMENSION
  5
2AE
100
AcDbEntity
  8
__p___
100
AcDbDimension
 62
3
  6
CONTINUOUS
  2
*D4
 10
440.5065671648
 20
295.1043537437
 11
492.6014866196
 21
295.1043537437
 70
160
 71
1
 42
52.0
  1
%%c52
  3
DIMSTYLE_4
100
AcDbAlignedDimension
 13
388.5065671648
 23
272.9926178151
 14
440.5065671648
 24
272.9926178151
100
AcDbRotatedDimension
  0
DIMENSION
  5
2AF
100
AcDbEntity
  8
__p___
100
AcDbDimension
 62
3
  6
CONTINUOUS
  2
*D5
 10
741.0140761816
 20
273.9944974101
 11
741.0132330483
 21
408.7936999719
 70
160
 71
2
 42
337.8812087906
  1
270
  3
DIMSTYLE_3
100
AcDbAlignedDimension
 13
644.5064479698
 23
544.0938526153
 14
441.5065671648
 24
273.9926240699
 50
270.0003583699
100
AcDbRotatedDimension
  0
DIMENSION
  5
2B0
100
AcDbEntity
  8
__p___
100
AcDbDimension
 62
3
  6
CONTINUOUS
  2
*D6
 10
343.2065671648
 20
426.768200086
 11
376.9824378502
 21
426.768200086
 70
160
 71
2
 42
71.3
  1
71
  3
DIMSTYLE_4
100
AcDbAlignedDimension
 13
414.5065671648
 23
389.9537512454
 14
343.2065671648
 24
419.2926178151
 50
180.0
100
AcDbRotatedDimension
  0
DIMENSION
  5
2B1
100
AcDbEntity
  8
__p___
100
AcDbDimension
 62
3
  6
CONTINUOUS
  2
*D7
 10
654.0169113455
 20
162.9092215187
 11
694.6482715619
 21
98.9563999673
 70
162
 71
2
 42
0.5235987756
  1
360%%d
  3
DIMSTYLE_5
100
AcDb2LineAngularDimension
 13
651.3322781834
 23
36.4587692434
 14
654.0169113455
 24
35.7394239557
 15
651.3322781834
 25
162.189876231
 16
694.6485150862
 26
99.3243227372
  0
DIMENSION
  5
2B2
100
AcDbEntity
  8
__p___
100
AcDbDimension
 62
3
  6
CONTINUOUS
  2
*D8
 10
115.6563698799
 20
425.5582443946
 11
149.2624474365
 21
425.5582443946
 70
160
 71
2
  1
67
  3
DIMSTYLE_2
100
AcDbAlignedDimension
 13
183.1193820582
 23
427.0931007549
 14
115.6563698799
 24
389.733090319
 50
180.0
100
AcDbRotatedDimension
  0
DIMENSION
  5
2B3
100
AcDbEntity
  8
__p___
100
AcDbDimension
 62
3
  6
CONTINUOUS
  2
*D9
 10
250.5823942366
 20
425.4917689457
 11
216.7254656227
 21
425.4917689457
 70
160
 71
2
  1
67
  3
DIMSTYLE_2
100
AcDbAlignedDimension
 13
183.1193820582
 23
424.4917689457
 14
250.5823942366
 24
389.733090319
100
AcDbRotatedDimension
  0
DIMENSION
  5
2B4
100
AcDbEntity
  8
__p___
100
AcDbDimension
 62
3
  6
CONTINUOUS
  2
*D10
 10
414.5065671648
 20
466.3980860089
 11
361.6574125534
 21
466.3980860089
 70
160
 71
2
  1
107
  3
DIMSTYLE_2
100
AcDbAlignedDimension
 13
307.1241052574
 23
401.4500855739
 14
414.5065671648
 24
433.0601278645
100
AcDbRotatedDimension
  0
TEXT
  5
2B5
100
AcDbEntity
  8
__p___
100
AcDbText
 62
3
  6
CONTINUOUS
 10
27.8673797306
 20
564.5379272218
  7
TEXTSTYLE_2
 40
21.375
  1
MILA
 72
5
 11
97.3957254555
 21
564.5379272218
100
AcDbText
  0
LINE
  5
2B6
100
AcDbEntity
  8
0
100
AcDbLine
 62
7
  6
CONTINUOUS
 10
0.0
 20
0.0
 11
0.0
 21
598.5
  0
LINE
  5
2B7
100
AcDbEntity
  8
________
100
AcDbLine
 62
7
  6
CONTINUOUS
 10
0.0
 20
0.0
 11
0.0
 21
598.5
  0
LINE
  5
2B8
100
AcDbEntity
  8
0
100
AcDbLine
 62
7
  6
CONTINUOUS
 10
0.0
 20
0.0
 11
846.45
 21
0.0
  0
LINE
  5
2B9
100
AcDbEntity
  8
________
100
AcDbLine
 62
7
  6
CONTINUOUS
 10
0.0
 20
0.0
 11
846.45
 21
0.0
  0
LINE
  5
2BA
100
AcDbEntity
  8
________
100
AcDbLine
 62
7
  6
CONTINUOUS
 10
146.2026091321
 20
598.5
 11
146.2026091321
 21
547.7051846266
  0
LINE
  5
2BB
100
AcDbEntity
  8
0
100
AcDbLine
 62
1
  6
CONTINUOUS
 10
157.1193820582
 20
278.9926178151
 11
157.1193820582
 21
273.9926178151
  0
LINE
  5
2BC
100
AcDbEntity
  8
0
100
AcDbLine
 62
1
  6
CONTINUOUS
 10
158.6193820582
 20
238.9926178151
 11
158.6193820582
 21
243.9926178151
  0
LINE
  5
2BD
100
AcDbEntity
  8
0
100
AcDbLine
 62
1
  6
CONTINUOUS
 10
160.6193820582
 20
378.9926178151
 11
160.6193820582
 21
328.992714415
  0
LINE
  5
2BE
100
AcDbEntity
  8
0
100
AcDbLine
 62
1
  6
CONTINUOUS
 10
160.6193820582
 20
328.9924739137
 11
160.6193820582
 21
278.9926178151
  0
LINE
  5
2BF
100
AcDbEntity
  8
______
100
AcDbLine
 62
5
  6
ACAD_ISO04W100
 10
122.0253561637
 20
396.3091833841
 11
115.8028164893
 21
390.0866437096
  0
LINE
  5
2C0
100
AcDbEntity
  8
0
100
AcDbLine
 62
1
  6
CONTINUOUS
 10
167.2693820582
 20
238.9926178151
 11
167.2693820582
 21
243.9926178151
  0
LINE
  5
2C1
100
AcDbEntity
  8
0
100
AcDbLine
 62
1
  6
CONTINUOUS
 10
167.6193820582
 20
216.9926178151
 11
167.6193820582
 21
238.9926178151
  0
LINE
  5
2C2
100
AcDbEntity
  8
0
100
AcDbLine
 62
1
  6
CONTINUOUS
 10
168.1193820582
 20
379.0926178151
 11
168.1193820582
 21
383.0926178151
  0
LINE
  5
2C3
100
AcDbEntity
  8
0
100
AcDbLine
 62
1
  6
CONTINUOUS
 10
169.1193820582
 20
215.4926178151
 11
169.1193820582
 21
216.9926178151
  0
LINE
  5
2C4
100
AcDbEntity
  8
0
100
AcDbLine
 62
1
  6
CONTINUOUS
 10
169.1193820582
 20
243.9926178151
 11
169.1193820582
 21
273.4926178151
  0
LINE
  5
2C5
100
AcDbEntity
  8
0
100
AcDbLine
 62
1
  6
CONTINUOUS
 10
169.5693820582
 20
215.0426178151
 11
169.5693820582
 21
216.9926178151
  0
LINE
  5
2C6
100
AcDbEntity
  8
0
100
AcDbLine
 62
1
  6
CONTINUOUS
 10
169.5693820582
 20
243.9926178151
 11
169.5693820582
 21
273.4926178151
  0
LINE
  5
2C7
100
AcDbEntity
  8
0
100
AcDbLine
 62
1
  6
CONTINUOUS
 10
169.6193820582
 20
214.9926178151
 11
169.6193820582
 21
213.4926178151
  0
LINE
  5
2C8
100
AcDbEntity
  8
0
100
AcDbLine
 62
1
  6
CONTINUOUS
 10
171.1193820582
 20
383.0926178151
 11
171.1193820582
 21
532.0926016678
  0
LINE
  5
2C9
100
AcDbEntity
  8
0
100
AcDbLine
 62
1
  6
CONTINUOUS
 10
171.5193820582
 20
212.9926178151
 11
171.5193820582
 21
214.4926178151
  0
LINE
  5
2CA
100
AcDbEntity
  8
0
100
AcDbLine
 62
1
  6
CONTINUOUS
 10
172.1193820582
 20
379.0926178151
 11
172.1193820582
 21
378.9926178151
  0
LINE
  5
2CB
100
AcDbEntity
  8
0
100
AcDbLine
 62
1
  6
CONTINUOUS
 10
172.1193820582
 20
217.6887702378
 11
172.1193820582
 21
238.2964653924
  0
LINE
  5
2CC
100
AcDbEntity
  8
0
100
AcDbLine
 62
1
  6
CONTINUOUS
 10
172.7193820582
 20
214.4926178151
 11
172.7193820582
 21
212.9926178151
  0
LINE
  5
2CD
100
AcDbEntity
  8
0
100
AcDbLine
 62
1
  6
CONTINUOUS
 10
174.6193820582
 20
214.9926178151
 11
174.6193820582
 21
213.4926178151
  0
LINE
  5
2CE
100
AcDbEntity
  8
0
100
AcDbLine
 62
1
  6
CONTINUOUS
 10
174.6693820582
 20
215.0426178151
 11
174.6693820582
 21
216.9926178151
  0
LINE
  5
2CF
100
AcDbEntity
  8
0
100
AcDbLine
 62
1
  6
CONTINUOUS
 10
174.6693820582
 20
243.9926178151
 11
174.6693820582
 21
273.4926178151
  0
LINE
  5
2D0
100
AcDbEntity
  8
0
100
AcDbLine
 62
1
  6
CONTINUOUS
 10
175.1193820582
 20
215.4926178151
 11
175.1193820582
 21
216.9926178151
  0
LINE
  5
2D1
100
AcDbEntity
  8
0
100
AcDbLine
 62
1
  6
CONTINUOUS
 10
175.1193820582
 20
243.9926178151
 11
175.1193820582
 21
273.4926178151
  0
LINE
  5
2D2
100
AcDbEntity
  8
0
100
AcDbLine
 62
1
  6
CONTINUOUS
 10
176.6193820582
 20
216.9926178151
 11
176.6193820582
 21
238.9926178151
  0
LINE
  5
2D3
100
AcDbEntity
  8
0
100
AcDbLine
 62
1
  6
CONTINUOUS
 10
178.2193820582
 20
419.2926178151
 11
178.2193820582
 21
350.937060702
  0
LINE
  5
2D4
100
AcDbEntity
  8
0
100
AcDbLine
 62
1
  6
CONTINUOUS
 10
180.1193820582
 20
238.9926178151
 11
180.1193820582
 21
243.9926178151
  0
LINE
  5
2D5
100
AcDbEntity
  8
______
100
AcDbLine
 62
6
  6
CENTER
 10
183.1193820582
 20
207.931569259
 11
183.1193820582
 21
544.7417346193
  0
LINE
  5
2D6
100
AcDbEntity
  8
0
100
AcDbLine
 62
1
  6
CONTINUOUS
 10
186.1193820582
 20
238.9926178151
 11
186.1193820582
 21
243.9926178151
  0
LINE
  5
2D7
100
AcDbEntity
  8
0
100
AcDbLine
 62
1
  6
CONTINUOUS
 10
188.0193820582
 20
419.2926178151
 11
188.0193820582
 21
350.937060702
  0
LINE
  5
2D8
100
AcDbEntity
  8
0
100
AcDbLine
 62
1
  6
CONTINUOUS
 10
189.6193820582
 20
216.9926178151
 11
189.6193820582
 21
238.9926178151
  0
LINE
  5
2D9
100
AcDbEntity
  8
0
100
AcDbLine
 62
1
  6
CONTINUOUS
 10
170.1193820582
 20
212.9926178151
 11
169.6193820582
 21
213.4926178151
  0
LINE
  5
2DA
100
AcDbEntity
  8
0
100
AcDbLine
 62
1
  6
CONTINUOUS
 10
169.1193820582
 20
215.4926178151
 11
169.6193820582
 21
214.9926178151
  0
LINE
  5
2DB
100
AcDbEntity
  8
0
100
AcDbLine
 62
1
  6
CONTINUOUS
 10
191.1193820582
 20
215.4926178151
 11
191.1193820582
 21
216.9926178151
  0
LINE
  5
2DC
100
AcDbEntity
  8
0
100
AcDbLine
 62
1
  6
CONTINUOUS
 10
191.1193820582
 20
243.9926178151
 11
191.1193820582
 21
273.4926178151
  0
LINE
  5
2DD
100
AcDbEntity
  8
0
100
AcDbLine
 62
1
  6
CONTINUOUS
 10
191.5693820582
 20
215.0426178151
 11
191.5693820582
 21
216.9926178151
  0
LINE
  5
2DE
100
AcDbEntity
  8
0
100
AcDbLine
 62
1
  6
CONTINUOUS
 10
191.5693820582
 20
243.9926178151
 11
191.5693820582
 21
273.4926178151
  0
LINE
  5
2DF
100
AcDbEntity
  8
0
100
AcDbLine
 62
1
  6
CONTINUOUS
 10
191.6193820582
 20
214.9926178151
 11
191.6193820582
 21
213.4926178151
  0
LINE
  5
2E0
100
AcDbEntity
  8
0
100
AcDbLine
 62
1
  6
CONTINUOUS
 10
193.5193820582
 20
212.9926178151
 11
193.5193820582
 21
214.4926178151
  0
LINE
  5
2E1
100
AcDbEntity
  8
0
100
AcDbLine
 62
1
  6
CONTINUOUS
 10
194.1193820582
 20
379.0926178151
 11
194.1193820582
 21
378.9926178151
  0
LINE
  5
2E2
100
AcDbEntity
  8
0
100
AcDbLine
 62
1
  6
CONTINUOUS
 10
194.1193820582
 20
217.6887702378
 11
194.1193820582
 21
238.2964653924
  0
LINE
  5
2E3
100
AcDbEntity
  8
0
100
AcDbLine
 62
1
  6
CONTINUOUS
 10
194.7193820582
 20
214.4926178151
 11
194.7193820582
 21
212.9926178151
  0
LINE
  5
2E4
100
AcDbEntity
  8
0
100
AcDbLine
 62
1
  6
CONTINUOUS
 10
195.1193820582
 20
383.0926178151
 11
195.1193820582
 21
532.0926016678
  0
LINE
  5
2E5
100
AcDbEntity
  8
0
100
AcDbLine
 62
1
  6
CONTINUOUS
 10
196.6193820582
 20
214.9926178151
 11
196.6193820582
 21
213.4926178151
  0
LINE
  5
2E6
100
AcDbEntity
  8
0
100
AcDbLine
 62
1
  6
CONTINUOUS
 10
196.6693820582
 20
215.0426178151
 11
196.6693820582
 21
216.9926178151
  0
LINE
  5
2E7
100
AcDbEntity
  8
0
100
AcDbLine
 62
1
  6
CONTINUOUS
 10
196.6693820582
 20
243.9926178151
 11
196.6693820582
 21
273.4926178151
  0
LINE
  5
2E8
100
AcDbEntity
  8
0
100
AcDbLine
 62
1
  6
CONTINUOUS
 10
197.1193820582
 20
215.4926178151
 11
197.1193820582
 21
216.9926178151
  0
LINE
  5
2E9
100
AcDbEntity
  8
0
100
AcDbLine
 62
1
  6
CONTINUOUS
 10
197.1193820582
 20
243.9926178151
 11
197.1193820582
 21
273.4926178151
  0
LINE
  5
2EA
100
AcDbEntity
  8
0
100
AcDbLine
 62
1
  6
CONTINUOUS
 10
198.1193820582
 20
379.0926178151
 11
198.1193820582
 21
383.0926178151
  0
LINE
  5
2EB
100
AcDbEntity
  8
0
100
AcDbLine
 62
1
  6
CONTINUOUS
 10
198.6193820582
 20
216.9926178151
 11
198.6193820582
 21
238.9926178151
  0
LINE
  5
2EC
100
AcDbEntity
  8
0
100
AcDbLine
 62
1
  6
CONTINUOUS
 10
198.9693820582
 20
238.9926178151
 11
198.9693820582
 21
243.9926178151
  0
LINE
  5
2ED
100
AcDbEntity
  8
0
100
AcDbLine
 62
1
  6
CONTINUOUS
 10
205.6193820582
 20
378.9926178151
 11
205.6193820582
 21
373.9926178151
  0
LINE
  5
2EE
100
AcDbEntity
  8
0
100
AcDbLine
 62
1
  6
CONTINUOUS
 10
205.6193820582
 20
365.9926178151
 11
205.6193820582
 21
328.9927597084
  0
LINE
  5
2EF
100
AcDbEntity
  8
0
100
AcDbLine
 62
1
  6
CONTINUOUS
 10
205.6193820582
 20
328.9925201313
 11
205.6193820582
 21
278.9926178151
  0
LINE
  5
2F0
100
AcDbEntity
  8
0
100
AcDbLine
 62
1
  6
CONTINUOUS
 10
207.6193820582
 20
238.9926178151
 11
207.6193820582
 21
243.9926178151
  0
LINE
  5
2F1
100
AcDbEntity
  8
0
100
AcDbLine
 62
1
  6
CONTINUOUS
 10
209.1193820582
 20
278.9926178151
 11
209.1193820582
 21
273.9926178151
  0
LINE
  5
2F2
100
AcDbEntity
  8
0
100
AcDbLine
 62
1
  6
CONTINUOUS
 10
416.7146632769
 20
76.8243227372
 11
369.2148071783
 21
76.8243227372
  0
LINE
  5
2F3
100
AcDbEntity
  8
0
100
AcDbLine
 62
1
  6
CONTINUOUS
 10
366.8148071783
 20
76.8243227372
 11
337.3148071783
 21
76.8243227372
  0
LINE
  5
2F4
100
AcDbEntity
  8
0
100
AcDbLine
 62
1
  6
CONTINUOUS
 10
416.7148384987
 20
87.3243227372
 11
645.7147630402
 21
87.3243227372
  0
LINE
  5
2F5
100
AcDbEntity
  8
0
100
AcDbLine
 62
1
  6
CONTINUOUS
 10
192.1193820582
 20
212.9926178151
 11
191.6193820582
 21
213.4926178151
  0
LINE
  5
2F6
100
AcDbEntity
  8
0
100
AcDbLine
 62
1
  6
CONTINUOUS
 10
191.1193820582
 20
215.4926178151
 11
191.6193820582
 21
214.9926178151
  0
LINE
  5
2F7
100
AcDbEntity
  8
______
100
AcDbLine
 62
5
  6
ACAD_ISO04W100
 10
243.5063011716
 20
396.3091833841
 11
195.1716232051
 21
347.9745054176
  0
LINE
  5
2F8
100
AcDbEntity
  8
______
100
AcDbLine
 62
6
  6
CENTER
 10
247.32467779
 20
393.1979135469
 11
183.1193820582
 21
328.9926178151
  0
LINE
  5
2F9
100
AcDbEntity
  8
______
100
AcDbLine
 62
5
  6
ACAD_ISO04W100
 10
250.4359476272
 20
389.3795369284
 11
202.1012696607
 21
341.044858962
  0
LINE
  5
2FA
100
AcDbEntity
  8
______
100
AcDbLine
 62
6
  6
CENTER
 10
416.7148384987
 20
99.3243227372
 11
652.6646151887
 21
162.5468748556
  0
LINE
  5
2FB
100
AcDbEntity
  8
______
100
AcDbLine
 62
6
  6
CENTER
 10
334.5027694741
 20
99.3243227372
 11
648.4132849377
 21
99.3243227372
  0
LINE
  5
2FC
100
AcDbEntity
  8
0
100
AcDbLine
 62
1
  6
CONTINUOUS
 10
416.7148384987
 20
111.3243227372
 11
645.7147630402
 21
111.3243227372
  0
LINE
  5
2FD
100
AcDbEntity
  8
0
100
AcDbLine
 62
1
  6
CONTINUOUS
 10
413.1783052998
 20
121.8243227372
 11
369.2148071783
 21
121.8243227372
  0
LINE
  5
2FE
100
AcDbEntity
  8
0
100
AcDbLine
 62
1
  6
CONTINUOUS
 10
366.8148071783
 20
121.8243227372
 11
337.3148071783
 21
121.8243227372
  0
LINE
  5
2FF
100
AcDbEntity
  8
______
100
AcDbLine
 62
6
  6
CENTER
 10
416.7148384987
 20
99.3243227372
 11
652.6646151887
 21
36.1017706188
  0
LINE
  5
300
100
AcDbEntity
  8
0
100
AcDbLine
 62
1
  6
CONTINUOUS
 10
173.8044275165
 20
349.5858599563
 11
174.3543365999
 21
349.8258599563
  0
LINE
  5
301
100
AcDbEntity
  8
______
100
AcDbLine
 62
5
  6
ACAD_ISO04W100
 10
115.8028164893
 20
389.3795369284
 11
164.1374944557
 21
341.044858962
  0
LINE
  5
302
100
AcDbEntity
  8
______
100
AcDbLine
 62
6
  6
CENTER
 10
118.9140863265
 20
393.1979135469
 11
183.1193820582
 21
328.9926178151
  0
LINE
  5
303
100
AcDbEntity
  8
______
100
AcDbLine
 62
5
  6
ACAD_ISO04W100
 10
122.7324629449
 20
396.3091833841
 11
171.0671409114
 21
347.9745054176
  0
LINE
  5
304
100
AcDbEntity
  8
0
100
AcDbLine
 62
1
  6
CONTINUOUS
 10
175.1193820582
 20
215.4926178151
 11
174.6193820582
 21
214.9926178151
  0
LINE
  5
305
100
AcDbEntity
  8
0
100
AcDbLine
 62
1
  6
CONTINUOUS
 10
174.1193820582
 20
212.9926178151
 11
174.6193820582
 21
213.4926178151
  0
LINE
  5
306
100
AcDbEntity
  8
______
100
AcDbLine
 62
5
  6
ACAD_ISO04W100
 10
315.3883046524
 20
405.6222801707
 11
307.4127961265
 21
401.9032394674
  0
LINE
  5
307
100
AcDbEntity
  8
0
100
AcDbLine
 62
1
  6
CONTINUOUS
 10
335.1065671648
 20
351.4926178151
 11
335.1065671648
 21
306.4926178151
  0
LINE
  5
308
100
AcDbEntity
  8
0
100
AcDbLine
 62
1
  6
CONTINUOUS
 10
337.3148071783
 20
121.8242261881
 11
337.3148071783
 21
76.8244192863
  0
LINE
  5
309
100
AcDbEntity
  8
0
100
AcDbLine
 62
1
  6
CONTINUOUS
 10
197.1193820582
 20
215.4926178151
 11
196.6193820582
 21
214.9926178151
  0
LINE
  5
30A
100
AcDbEntity
  8
0
100
AcDbLine
 62
1
  6
CONTINUOUS
 10
196.1193820582
 20
212.9926178151
 11
196.6193820582
 21
213.4926178151
  0
LINE
  5
30B
100
AcDbEntity
  8
0
100
AcDbLine
 62
1
  6
CONTINUOUS
 10
196.1190895183
 20
212.9926178151
 11
194.7193820582
 21
212.9926178151
  0
LINE
  5
30C
100
AcDbEntity
  8
0
100
AcDbLine
 62
1
  6
CONTINUOUS
 10
193.5193820582
 20
212.9926178151
 11
192.1196745981
 21
212.9926178151
  0
LINE
  5
30D
100
AcDbEntity
  8
0
100
AcDbLine
 62
1
  6
CONTINUOUS
 10
174.1190895183
 20
212.9926178151
 11
172.7193820582
 21
212.9926178151
  0
LINE
  5
30E
100
AcDbEntity
  8
0
100
AcDbLine
 62
1
  6
CONTINUOUS
 10
171.5193820582
 20
212.9926178151
 11
170.1196745981
 21
212.9926178151
  0
LINE
  5
30F
100
AcDbEntity
  8
0
100
AcDbLine
 62
1
  6
CONTINUOUS
 10
421.098688762
 20
212.9926178151
 11
424.9144455677
 21
212.9926178151
  0
LINE
  5
310
100
AcDbEntity
  8
0
100
AcDbLine
 62
1
  6
CONTINUOUS
 10
196.6193820582
 20
213.4926178151
 11
194.7193820582
 21
213.4926178151
  0
LINE
  5
311
100
AcDbEntity
  8
0
100
AcDbLine
 62
1
  6
CONTINUOUS
 10
193.5193820582
 20
213.4926178151
 11
191.6193820582
 21
213.4926178151
  0
LINE
  5
312
100
AcDbEntity
  8
0
100
AcDbLine
 62
1
  6
CONTINUOUS
 10
174.6193820582
 20
213.4926178151
 11
172.7193820582
 21
213.4926178151
  0
LINE
  5
313
100
AcDbEntity
  8
0
100
AcDbLine
 62
1
  6
CONTINUOUS
 10
171.5193820582
 20
213.4926178151
 11
169.6193820582
 21
213.4926178151
  0
LINE
  5
314
100
AcDbEntity
  8
0
100
AcDbLine
 62
1
  6
CONTINUOUS
 10
420.5796349449
 20
213.4926178151
 11
425.4334993847
 21
213.4926178151
  0
LINE
  5
315
100
AcDbEntity
  8
0
100
AcDbLine
 62
1
  6
CONTINUOUS
 10
194.7193820582
 20
214.4926178151
 11
193.5193820582
 21
214.4926178151
  0
LINE
  5
316
100
AcDbEntity
  8
0
100
AcDbLine
 62
1
  6
CONTINUOUS
 10
172.7193820582
 20
214.4926178151
 11
171.5193820582
 21
214.4926178151
  0
LINE
  5
317
100
AcDbEntity
  8
0
100
AcDbLine
 62
1
  6
CONTINUOUS
 10
420.5066443454
 20
214.4926178151
 11
420.5796349449
 21
214.4926178151
  0
LINE
  5
318
100
AcDbEntity
  8
0
100
AcDbLine
 62
1
  6
CONTINUOUS
 10
425.4334993847
 20
214.4926178151
 11
425.5064899843
 21
214.4926178151
  0
LINE
  5
319
100
AcDbEntity
  8
______
100
AcDbLine
 62
5
  6
ACAD_ISO04W100
 10
364.7283670416
 20
328.4432140749
 11
366.0805078475
 21
304.2477245109
  0
LINE
  5
31A
100
AcDbEntity
  8
0
100
AcDbLine
 62
1
  6
CONTINUOUS
 10
343.2065671648
 20
351.4706335882
 11
343.2065671648
 21
419.2926178151
  0
LINE
  5
31B
100
AcDbEntity
  8
0
100
AcDbLine
 62
1
  6
CONTINUOUS
 10
353.0065671648
 20
351.4706268873
 11
353.0065671648
 21
419.2926178151
  0
LINE
  5
31C
100
AcDbEntity
  8
0
100
AcDbLine
 62
1
  6
CONTINUOUS
 10
358.5148071783
 20
90.5243227372
 11
358.5148071783
 21
90.4843227372
  0
LINE
  5
31D
100
AcDbEntity
  8
0
100
AcDbLine
 62
1
  6
CONTINUOUS
 10
358.5148071783
 20
108.1243227372
 11
358.5148071783
 21
108.1643227372
  0
LINE
  5
31E
100
AcDbEntity
  8
0
100
AcDbLine
 62
1
  6
CONTINUOUS
 10
360.1148071783
 20
90.5243227372
 11
360.1148071783
 21
90.4843227372
  0
LINE
  5
31F
100
AcDbEntity
  8
0
100
AcDbLine
 62
1
  6
CONTINUOUS
 10
360.1148071783
 20
108.1243227372
 11
360.1148071783
 21
108.1643227372
  0
LINE
  5
320
100
AcDbEntity
  8
0
100
AcDbLine
 62
1
  6
CONTINUOUS
 10
364.6065671648
 20
351.4926178151
 11
364.6065671648
 21
328.9926178151
  0
LINE
  5
321
100
AcDbEntity
  8
0
100
AcDbLine
 62
1
  6
CONTINUOUS
 10
366.8148071783
 20
121.8243227372
 11
366.8148071783
 21
76.8243227372
  0
LINE
  5
322
100
AcDbEntity
  8
0
100
AcDbLine
 62
1
  6
CONTINUOUS
 10
367.0065671648
 20
351.4926178151
 11
367.0065671648
 21
306.4926178151
  0
LINE
  5
323
100
AcDbEntity
  8
0
100
AcDbLine
 62
1
  6
CONTINUOUS
 10
364.6065671648
 20
328.9926178151
 11
355.6065671648
 21
306.4926178151
  0
LINE
  5
324
100
AcDbEntity
  8
______
100
AcDbLine
 62
5
  6
ACAD_ISO04W100
 10
328.4833764349
 20
336.3679005618
 11
335.7338387312
 21
339.7488466558
  0
LINE
  5
325
100
AcDbEntity
  8
______
100
AcDbLine
 62
5
  6
ACAD_ISO04W100
 10
344.7969166016
 20
343.9750292732
 11
355.2194561525
 21
348.8351392832
  0
LINE
  5
326
100
AcDbEntity
  8
0
100
AcDbLine
 62
1
  6
CONTINUOUS
 10
425.5065671648
 20
214.9926178151
 11
420.5065671648
 21
214.9926178151
  0
LINE
  5
327
100
AcDbEntity
  8
0
100
AcDbLine
 62
1
  6
CONTINUOUS
 10
174.6193820582
 20
214.9926178151
 11
169.6193820582
 21
214.9926178151
  0
LINE
  5
328
100
AcDbEntity
  8
0
100
AcDbLine
 62
1
  6
CONTINUOUS
 10
191.6193820582
 20
214.9926178151
 11
196.6193820582
 21
214.9926178151
  0
LINE
  5
329
100
AcDbEntity
  8
0
100
AcDbLine
 62
1
  6
CONTINUOUS
 10
425.5565671648
 20
215.0426178151
 11
420.4565671648
 21
215.0426178151
  0
LINE
  5
32A
100
AcDbEntity
  8
0
100
AcDbLine
 62
1
  6
CONTINUOUS
 10
169.5693820582
 20
215.0426178151
 11
174.6693820582
 21
215.0426178151
  0
LINE
  5
32B
100
AcDbEntity
  8
0
100
AcDbLine
 62
1
  6
CONTINUOUS
 10
191.5693820582
 20
215.0426178151
 11
196.6693820582
 21
215.0426178151
  0
LINE
  5
32C
100
AcDbEntity
  8
0
100
AcDbLine
 62
1
  6
CONTINUOUS
 10
426.0065671648
 20
215.4926178151
 11
420.0065671648
 21
215.4926178151
  0
LINE
  5
32D
100
AcDbEntity
  8
0
100
AcDbLine
 62
1
  6
CONTINUOUS
 10
169.1193820582
 20
215.4926178151
 11
175.1193820582
 21
215.4926178151
  0
LINE
  5
32E
100
AcDbEntity
  8
0
100
AcDbLine
 62
1
  6
CONTINUOUS
 10
191.1193820582
 20
215.4926178151
 11
197.1193820582
 21
215.4926178151
  0
LINE
  5
32F
100
AcDbEntity
  8
0
100
AcDbLine
 62
1
  6
CONTINUOUS
 10
198.6193820616
 20
216.9926178151
 11
189.6193820547
 21
216.9926178151
  0
LINE
  5
330
100
AcDbEntity
  8
0
100
AcDbLine
 62
1
  6
CONTINUOUS
 10
176.6193820616
 20
216.9926178151
 11
167.6193820547
 21
216.9926178151
  0
LINE
  5
331
100
AcDbEntity
  8
0
100
AcDbLine
 62
1
  6
CONTINUOUS
 10
418.5066198374
 20
216.9926178151
 11
427.5065144922
 21
216.9926178151
  0
LINE
  5
332
100
AcDbEntity
  8
0
100
AcDbLine
 62
1
  6
CONTINUOUS
 10
207.6191867322
 20
238.9926178151
 11
158.6195773841
 21
238.9926178151
  0
LINE
  5
333
100
AcDbEntity
  8
0
100
AcDbLine
 62
1
  6
CONTINUOUS
 10
401.5066598135
 20
238.9926178151
 11
441.0065671648
 21
238.9926178151
  0
LINE
  5
334
100
AcDbEntity
  8
0
100
AcDbLine
 62
1
  6
CONTINUOUS
 10
441.0065671648
 20
241.9926178151
 11
401.5066598135
 21
241.9926178151
  0
LINE
  5
335
100
AcDbEntity
  8
0
100
AcDbLine
 62
1
  6
CONTINUOUS
 10
207.6191867322
 20
241.9926178151
 11
158.6195773841
 21
241.9926178151
  0
LINE
  5
336
100
AcDbEntity
  8
0
100
AcDbLine
 62
1
  6
CONTINUOUS
 10
441.0065671648
 20
243.9926178151
 11
401.5066598135
 21
243.9926178151
  0
LINE
  5
337
100
AcDbEntity
  8
0
100
AcDbLine
 62
1
  6
CONTINUOUS
 10
158.6195773841
 20
243.9926178151
 11
207.6191867322
 21
243.9926178151
  0
LINE
  5
338
100
AcDbEntity
  8
0
100
AcDbLine
 62
1
  6
CONTINUOUS
 10
417.8104147421
 20
217.6887702378
 11
418.5065671648
 21
216.9926178151
  0
LINE
  5
339
100
AcDbEntity
  8
0
100
AcDbLine
 62
1
  6
CONTINUOUS
 10
420.0065671648
 20
215.4926178151
 11
420.5065671648
 21
214.9926178151
  0
LINE
  5
33A
100
AcDbEntity
  8
______
100
AcDbLine
 62
5
  6
ACAD_ISO04W100
 10
244.2134079528
 20
396.3091833841
 11
250.4359476272
 21
390.0866437096
  0
LINE
  5
33B
100
AcDbEntity
  8
______
100
AcDbLine
 62
5
  6
ACAD_ISO04W100
 10
328.4833764349
 20
336.3679005618
 11
347.5011982132
 21
295.5840501452
  0
LINE
  5
33C
100
AcDbEntity
  8
______
100
AcDbLine
 62
5
  6
ACAD_ISO04W100
 10
335.8337604457
 20
339.7711840059
 11
307.1709513639
 21
401.238776443
  0
LINE
  5
33D
100
AcDbEntity
  8
0
100
AcDbLine
 62
1
  6
CONTINUOUS
 10
369.2148071783
 20
121.8241394607
 11
369.2148071783
 21
76.8245060137
  0
LINE
  5
33E
100
AcDbEntity
  8
0
100
AcDbLine
 62
1
  6
CONTINUOUS
 10
388.5065671648
 20
273.9926178151
 11
388.5065671648
 21
278.9926178151
  0
LINE
  5
33F
100
AcDbEntity
  8
0
100
AcDbLine
 62
1
  6
CONTINUOUS
 10
392.0065671648
 20
303.4926178151
 11
392.0065671648
 21
278.9926178151
  0
LINE
  5
340
100
AcDbEntity
  8
0
100
AcDbLine
 62
1
  6
CONTINUOUS
 10
392.0065671648
 20
354.4926178151
 11
392.0065671648
 21
378.9926178151
  0
LINE
  5
341
100
AcDbEntity
  8
0
100
AcDbLine
 62
1
  6
CONTINUOUS
 10
614.5739393924
 20
520.2769582988
 11
614.3565664151
 21
520.0936640353
  0
LINE
  5
342
100
AcDbEntity
  8
0
100
AcDbLine
 62
1
  6
CONTINUOUS
 10
614.9692926511
 20
520.607299137
 11
614.3565664151
 21
520.0936640353
  0
LINE
  5
343
100
AcDbEntity
  8
0
100
AcDbLine
 62
1
  6
CONTINUOUS
 10
615.0065642849
 20
520.6371459275
 11
614.5739393924
 21
520.2769582988
  0
LINE
  5
344
100
AcDbEntity
  8
______
100
AcDbLine
 62
5
  6
ACAD_ISO04W100
 10
347.5011982132
 20
295.5840501452
 11
366.0805078475
 21
304.2477245109
  0
LINE
  5
345
100
AcDbEntity
  8
0
100
AcDbLine
 62
1
  6
CONTINUOUS
 10
435.5065671648
 20
273.4926178151
 11
393.5065671648
 21
273.4926178151
  0
LINE
  5
346
100
AcDbEntity
  8
0
100
AcDbLine
 62
1
  6
CONTINUOUS
 10
162.1193820582
 20
273.4926178151
 11
204.1193820582
 21
273.4926178151
  0
LINE
  5
347
100
AcDbEntity
  8
0
100
AcDbLine
 62
1
  6
CONTINUOUS
 10
191.8844275165
 20
349.8258599563
 11
192.4343365999
 21
349.5858599563
  0
LINE
  5
348
100
AcDbEntity
  8
0
100
AcDbLine
 62
1
  6
CONTINUOUS
 10
427.5065671648
 20
238.9926178151
 11
428.2027195875
 21
238.2964653924
  0
LINE
  5
349
100
AcDbEntity
  8
______
100
AcDbLine
 62
5
  6
ACAD_ISO04W100
 10
344.7155795906
 20
343.9128368978
 11
316.0527676768
 21
405.3804354081
  0
LINE
  5
34A
100
AcDbEntity
  8
______
100
AcDbLine
 62
5
  6
ACAD_ISO04W100
 10
355.2194561525
 20
348.8351392832
 11
364.7283670416
 21
328.4432140749
  0
LINE
  5
34B
100
AcDbEntity
  8
0
100
AcDbLine
 62
1
  6
CONTINUOUS
 10
399.5065671648
 20
383.0926178151
 11
399.5065671648
 21
379.0926178151
  0
LINE
  5
34C
100
AcDbEntity
  8
0
100
AcDbLine
 62
1
  6
CONTINUOUS
 10
401.5065671648
 20
238.9926178151
 11
401.5065671648
 21
243.9926178151
  0
LINE
  5
34D
100
AcDbEntity
  8
0
100
AcDbLine
 62
1
  6
CONTINUOUS
 10
402.5065984852
 20
383.0926178151
 11
402.5065984852
 21
502.0926145069
  0
LINE
  5
34E
100
AcDbEntity
  8
0
100
AcDbLine
 62
1
  6
CONTINUOUS
 10
403.5065671648
 20
378.9926178151
 11
403.5065671648
 21
379.0926178151
  0
LINE
  5
34F
100
AcDbEntity
  8
______
100
AcDbLine
 62
6
  6
CENTER
 10
414.5065671648
 20
274.9926178151
 11
414.5065671648
 21
389.9537512454
  0
LINE
  5
350
100
AcDbEntity
  8
______
100
AcDbLine
 62
6
  6
CENTER
 10
416.7148071783
 20
74.5743227372
 11
416.7148071783
 21
124.0743227372
  0
LINE
  5
351
100
AcDbEntity
  8
0
100
AcDbLine
 62
1
  6
CONTINUOUS
 10
417.8104147421
 20
217.6887702378
 11
417.8104147421
 21
238.2964653924
  0
LINE
  5
352
100
AcDbEntity
  8
0
100
AcDbLine
 62
1
  6
CONTINUOUS
 10
420.0065671648
 20
215.4926178151
 11
420.0065671648
 21
216.9926178151
  0
LINE
  5
353
100
AcDbEntity
  8
0
100
AcDbLine
 62
1
  6
CONTINUOUS
 10
420.0065671648
 20
243.9926178151
 11
420.0065671648
 21
273.4926178151
  0
LINE
  5
354
100
AcDbEntity
  8
0
100
AcDbLine
 62
1
  6
CONTINUOUS
 10
420.4084909535
 20
217.6887702378
 11
420.4084909535
 21
238.2964653924
  0
LINE
  5
355
100
AcDbEntity
  8
0
100
AcDbLine
 62
1
  6
CONTINUOUS
 10
420.4565671648
 20
215.0426178151
 11
420.4565671648
 21
216.9926178151
  0
LINE
  5
356
100
AcDbEntity
  8
0
100
AcDbLine
 62
1
  6
CONTINUOUS
 10
420.4565671648
 20
243.9926178151
 11
420.4565671648
 21
273.4926178151
  0
LINE
  5
357
100
AcDbEntity
  8
0
100
AcDbLine
 62
1
  6
CONTINUOUS
 10
420.5065671648
 20
214.9926178151
 11
420.5065671648
 21
214.4926178151
  0
LINE
  5
358
100
AcDbEntity
  8
0
100
AcDbLine
 62
1
  6
CONTINUOUS
 10
420.5796349449
 20
214.4926178151
 11
420.5796349449
 21
213.4926178151
  0
LINE
  5
359
100
AcDbEntity
  8
0
100
AcDbLine
 62
1
  6
CONTINUOUS
 10
425.4334993847
 20
214.4926178151
 11
425.4334993847
 21
213.4926178151
  0
LINE
  5
35A
100
AcDbEntity
  8
0
100
AcDbLine
 62
1
  6
CONTINUOUS
 10
425.5065671648
 20
214.9926178151
 11
425.5065671648
 21
214.4926178151
  0
LINE
  5
35B
100
AcDbEntity
  8
0
100
AcDbLine
 62
1
  6
CONTINUOUS
 10
425.5065671648
 20
378.9926178151
 11
425.5065671648
 21
379.0926178151
  0
LINE
  5
35C
100
AcDbEntity
  8
0
100
AcDbLine
 62
1
  6
CONTINUOUS
 10
425.5565671648
 20
215.0426178151
 11
425.5565671648
 21
216.9926178151
  0
LINE
  5
35D
100
AcDbEntity
  8
0
100
AcDbLine
 62
1
  6
CONTINUOUS
 10
425.5565671648
 20
243.9926178151
 11
425.5565671648
 21
273.4926178151
  0
LINE
  5
35E
100
AcDbEntity
  8
0
100
AcDbLine
 62
1
  6
CONTINUOUS
 10
425.6046433762
 20
217.6887702378
 11
425.6046433762
 21
238.2964653924
  0
LINE
  5
35F
100
AcDbEntity
  8
0
100
AcDbLine
 62
1
  6
CONTINUOUS
 10
426.0065671648
 20
215.4926178151
 11
426.0065671648
 21
216.9926178151
  0
LINE
  5
360
100
AcDbEntity
  8
0
100
AcDbLine
 62
1
  6
CONTINUOUS
 10
426.0065671648
 20
243.9926178151
 11
426.0065671648
 21
273.4926178151
  0
LINE
  5
361
100
AcDbEntity
  8
0
100
AcDbLine
 62
1
  6
CONTINUOUS
 10
426.5065984852
 20
383.0926178151
 11
426.5065984852
 21
502.0926145069
  0
LINE
  5
362
100
AcDbEntity
  8
0
100
AcDbLine
 62
1
  6
CONTINUOUS
 10
440.5063553787
 20
273.9926178151
 11
388.506778951
 21
273.9926178151
  0
LINE
  5
363
100
AcDbEntity
  8
0
100
AcDbLine
 62
1
  6
CONTINUOUS
 10
157.1193820582
 20
273.9926178151
 11
209.1193820582
 21
273.9926178151
  0
LINE
  5
364
100
AcDbEntity
  8
0
100
AcDbLine
 62
1
  6
CONTINUOUS
 10
440.5063553787
 20
278.9926178151
 11
388.506778951
 21
278.9926178151
  0
LINE
  5
365
100
AcDbEntity
  8
0
100
AcDbLine
 62
1
  6
CONTINUOUS
 10
157.1193820582
 20
278.9926178151
 11
209.1193820582
 21
278.9926178151
  0
LINE
  5
366
100
AcDbEntity
  8
0
100
AcDbLine
 62
1
  6
CONTINUOUS
 10
428.2027195875
 20
217.6887702378
 11
428.2027195875
 21
238.2964653924
  0
LINE
  5
367
100
AcDbEntity
  8
0
100
AcDbLine
 62
1
  6
CONTINUOUS
 10
429.5065671648
 20
383.0926178151
 11
429.5065671648
 21
379.0926178151
  0
LINE
  5
368
100
AcDbEntity
  8
0
100
AcDbLine
 62
1
  6
CONTINUOUS
 10
437.0065671648
 20
378.9926178151
 11
437.0065671648
 21
278.9926178151
  0
LINE
  5
369
100
AcDbEntity
  8
0
100
AcDbLine
 62
1
  6
CONTINUOUS
 10
440.5065671648
 20
273.9926178151
 11
440.5065671648
 21
278.9926178151
  0
LINE
  5
36A
100
AcDbEntity
  8
0
100
AcDbLine
 62
1
  6
CONTINUOUS
 10
441.0065671648
 20
238.9926178151
 11
441.0065671648
 21
243.9926178151
  0
LINE
  5
36B
100
AcDbEntity
  8
0
100
AcDbLine
 62
1
  6
CONTINUOUS
 10
335.1065671648
 20
306.4926178151
 11
355.6065671648
 21
306.4926178151
  0
LINE
  5
36C
100
AcDbEntity
  8
0
100
AcDbLine
 62
1
  6
CONTINUOUS
 10
367.0065671648
 20
306.4926178151
 11
389.0065671648
 21
306.4926178151
  0
LINE
  5
36D
100
AcDbEntity
  8
______
100
AcDbLine
 62
6
  6
CENTER
 10
210.6193820582
 20
328.9926178151
 11
155.6193820582
 21
328.9926178151
  0
LINE
  5
36E
100
AcDbEntity
  8
______
100
AcDbLine
 62
6
  6
CENTER
 10
331.5311180765
 20
328.9926178151
 11
418.5065671648
 21
328.9926178151
  0
LINE
  5
36F
100
AcDbEntity
  8
0
100
AcDbLine
 62
1
  6
CONTINUOUS
 10
418.5065671648
 20
238.9926178151
 11
417.8104147421
 21
238.2964653924
  0
LINE
  5
370
100
AcDbEntity
  8
0
100
AcDbLine
 62
1
  6
CONTINUOUS
 10
428.2027195875
 20
217.6887702378
 11
427.5065671648
 21
216.9926178151
  0
LINE
  5
371
100
AcDbEntity
  8
0
100
AcDbLine
 62
1
  6
CONTINUOUS
 10
426.0065671648
 20
215.4926178151
 11
425.5065671648
 21
214.9926178151
  0
LINE
  5
372
100
AcDbEntity
  8
0
100
AcDbLine
 62
1
  6
CONTINUOUS
 10
335.1065671648
 20
351.4926178151
 11
343.1065671648
 21
351.4926178151
  0
LINE
  5
373
100
AcDbEntity
  8
0
100
AcDbLine
 62
1
  6
CONTINUOUS
 10
353.1065671648
 20
351.4926178151
 11
364.6065671648
 21
351.4926178151
  0
LINE
  5
374
100
AcDbEntity
  8
0
100
AcDbLine
 62
1
  6
CONTINUOUS
 10
367.0065671648
 20
351.4926178151
 11
389.0065671648
 21
351.4926178151
  0
LINE
  5
375
100
AcDbEntity
  8
0
100
AcDbLine
 62
1
  6
CONTINUOUS
 10
205.6189886369
 20
378.9926178151
 11
188.0193820582
 21
378.9926178151
  0
LINE
  5
376
100
AcDbEntity
  8
0
100
AcDbLine
 62
1
  6
CONTINUOUS
 10
178.2193820582
 20
378.9926178151
 11
160.6197754794
 21
378.9926178151
  0
LINE
  5
377
100
AcDbEntity
  8
0
100
AcDbLine
 62
1
  6
CONTINUOUS
 10
392.0065671648
 20
378.9926178151
 11
437.0065671648
 21
378.9926178151
  0
LINE
  5
378
100
AcDbEntity
  8
0
100
AcDbLine
 62
1
  6
CONTINUOUS
 10
429.5065443594
 20
379.0926178151
 11
399.5065899703
 21
379.0926178151
  0
LINE
  5
379
100
AcDbEntity
  8
0
100
AcDbLine
 62
1
  6
CONTINUOUS
 10
168.1193820582
 20
379.0926178151
 11
178.2193820582
 21
379.0926178151
  0
LINE
  5
37A
100
AcDbEntity
  8
0
100
AcDbLine
 62
1
  6
CONTINUOUS
 10
188.0193820582
 20
379.0926178151
 11
198.1193820582
 21
379.0926178151
  0
LINE
  5
37B
100
AcDbEntity
  8
0
100
AcDbLine
 62
1
  6
CONTINUOUS
 10
429.5065443594
 20
383.0926178151
 11
399.5065899703
 21
383.0926178151
  0
LINE
  5
37C
100
AcDbEntity
  8
0
100
AcDbLine
 62
1
  6
CONTINUOUS
 10
168.1193820582
 20
383.0926178151
 11
178.2193820582
 21
383.0926178151
  0
LINE
  5
37D
100
AcDbEntity
  8
0
100
AcDbLine
 62
1
  6
CONTINUOUS
 10
188.0193820582
 20
383.0926178151
 11
198.1193820582
 21
383.0926178151
  0
LINE
  5
37E
100
AcDbEntity
  8
0
100
AcDbLine
 62
1
  6
CONTINUOUS
 10
352.5065671648
 20
419.7926178151
 11
343.7065671648
 21
419.7926178151
  0
LINE
  5
37F
100
AcDbEntity
  8
0
100
AcDbLine
 62
1
  6
CONTINUOUS
 10
187.5193820582
 20
419.7926178151
 11
178.7193820582
 21
419.7926178151
  0
LINE
  5
380
100
AcDbEntity
  8
0
100
AcDbLine
 62
1
  6
CONTINUOUS
 10
615.0065642849
 20
520.6371459275
 11
615.006575911
 21
517.3945219451
  0
LINE
  5
381
100
AcDbEntity
  8
______
100
AcDbLine
 62
6
  6
CENTER
 10
624.5065902525
 20
513.3945560064
 11
624.5065149592
 21
534.3945560062
  0
LINE
  5
382
100
AcDbEntity
  8
0
100
AcDbLine
 62
1
  6
CONTINUOUS
 10
634.0065759108
 20
517.3945900676
 11
634.0065642848
 21
520.6372062205
  0
LINE
  5
383
100
AcDbEntity
  8
0
100
AcDbLine
 62
1
  6
CONTINUOUS
 10
643.5065980835
 20
520.0938463611
 11
643.5064479699
 21
544.0938463606
  0
LINE
  5
384
100
AcDbEntity
  8
0
100
AcDbLine
 62
1
  6
CONTINUOUS
 10
645.7147630402
 20
87.3243227372
 11
645.7147630402
 21
111.3243227372
  0
LINE
  5
385
100
AcDbEntity
  8
0
100
AcDbLine
 62
1
  6
CONTINUOUS
 10
615.006575911
 20
517.3945219451
 11
634.0065759108
 21
517.3945900676
  0
LINE
  5
386
100
AcDbEntity
  8
0
100
AcDbLine
 62
1
  6
CONTINUOUS
 10
634.0065741181
 20
517.8945900676
 11
615.0065741183
 21
517.8945219451
  0
LINE
  5
387
100
AcDbEntity
  8
0
100
AcDbLine
 62
1
  6
CONTINUOUS
 10
444.5064769543
 20
520.0926016681
 11
614.3565664151
 21
520.0936640353
  0
LINE
  5
388
100
AcDbEntity
  8
0
100
AcDbLine
 62
1
  6
CONTINUOUS
 10
634.6565660515
 20
520.0937910065
 11
643.5065980835
 21
520.0938463611
  0
LINE
  5
389
100
AcDbEntity
  8
0
100
AcDbLine
 62
1
  6
CONTINUOUS
 10
622.7002683628
 20
525.3945495301
 11
626.3194271098
 21
525.3945625062
  0
LINE
  5
38A
100
AcDbEntity
  8
0
100
AcDbLine
 62
1
  6
CONTINUOUS
 10
444.5063149131
 20
544.0926016675
 11
643.5064479699
 21
544.0938463606
  0
LINE
  5
38B
100
AcDbEntity
  8
________
100
AcDbLine
 62
7
  6
CONTINUOUS
 10
146.2026091321
 20
547.7051846266
 11
0.0
 21
547.7051846266
  0
LINE
  5
38C
100
AcDbEntity
  8
0
100
AcDbLine
 62
7
  6
CONTINUOUS
 10
0.0
 20
598.5
 11
846.45
 21
598.5
  0
LINE
  5
38D
100
AcDbEntity
  8
________
100
AcDbLine
 62
7
  6
CONTINUOUS
 10
0.0
 20
598.5
 11
846.45
 21
598.5
  0
LINE
  5
38E
100
AcDbEntity
  8
0
100
AcDbLine
 62
1
  6
CONTINUOUS
 10
634.4367500081
 20
520.2791348889
 11
634.0065642848
 21
520.6372062205
  0
LINE
  5
38F
100
AcDbEntity
  8
0
100
AcDbLine
 62
1
  6
CONTINUOUS
 10
634.6565660515
 20
520.0937910065
 11
634.0453884301
 21
520.6061308371
  0
LINE
  5
390
100
AcDbEntity
  8
0
100
AcDbLine
 62
1
  6
CONTINUOUS
 10
634.6565660515
 20
520.0937910065
 11
634.4367500081
 21
520.2791348889
  0
LINE
  5
391
100
AcDbEntity
  8
0
100
AcDbLine
 62
7
  6
CONTINUOUS
 10
846.45
 20
0.0
 11
846.45
 21
598.5
  0
LINE
  5
392
100
AcDbEntity
  8
________
100
AcDbLine
 62
7
  6
CONTINUOUS
 10
846.45
 20
0.0
 11
846.45
 21
598.5
  0
ARC
  5
393
100
AcDbEntity
  8
0
100
AcDbCircle
 62
1
  6
CONTINUOUS
 10
367.9641471435
 20
272.6325742407
 40
82.4636943936
100
AcDbArc
 50
313.6784596821
 51
314.1792077134
  0
ARC
  5
394
100
AcDbEntity
  8
0
100
AcDbCircle
 62
1
  6
CONTINUOUS
 10
370.1003013704
 20
99.2635862692
 40
19.98
100
AcDbArc
 50
92.5401252983
 51
99.4662411712
  0
ARC
  5
395
100
AcDbEntity
  8
0
100
AcDbCircle
 62
1
  6
CONTINUOUS
 10
370.1003013704
 20
99.3850592051
 40
19.98
100
AcDbArc
 50
260.5337588288
 51
267.4598747019
  0
CIRCLE
  5
396
100
AcDbEntity
  8
0
100
AcDbCircle
 62
1
  6
CONTINUOUS
 10
350.3148071783
 20
99.3243227372
 40
5.0
  0
CIRCLE
  5
397
100
AcDbEntity
  8
0
100
AcDbCircle
 62
1
  6
CONTINUOUS
 10
350.3148071783
 20
99.3243227372
 40
4.9
  0
ARC
  5
398
100
AcDbEntity
  8
0
100
AcDbCircle
 62
1
  6
CONTINUOUS
 10
389.0065671648
 20
303.4926178151
 40
3.0
100
AcDbArc
 50
0.0
 51
90.0
  0
ARC
  5
399
100
AcDbEntity
  8
0
100
AcDbCircle
 62
1
  6
CONTINUOUS
 10
204.1193820582
 20
274.9926178151
 40
1.5
100
AcDbArc
 50
270.0
 51
317.9289321881
  0
ARC
  5
39A
100
AcDbEntity
  8
0
100
AcDbCircle
 62
1
  6
CONTINUOUS
 10
162.1193820582
 20
274.9926178151
 40
1.5
100
AcDbArc
 50
222.0710678119
 51
270.0
  0
ARC
  5
39B
100
AcDbEntity
  8
0
100
AcDbCircle
 62
1
  6
CONTINUOUS
 10
359.3158771869
 20
90.6850684217
 40
0.9856457191
100
AcDbArc
 50
261.7632906572
 51
262.9839959461
  0
ARC
  5
39C
100
AcDbEntity
  8
0
100
AcDbCircle
 62
1
  6
CONTINUOUS
 10
359.3137371697
 20
107.9635770522
 40
0.9856457195
100
AcDbArc
 50
81.7632906575
 51
82.9839959458
  0
ARC
  5
39D
100
AcDbEntity
  8
0
100
AcDbCircle
 62
1
  6
CONTINUOUS
 10
359.3137381608
 20
90.6850611899
 40
0.9856384199
100
AcDbArc
 50
276.9623483118
 51
278.1829185479
  0
ARC
  5
39E
100
AcDbEntity
  8
0
100
AcDbCircle
 62
1
  6
CONTINUOUS
 10
359.3158761958
 20
107.9635842848
 40
0.9856384196
100
AcDbArc
 50
96.9623483116
 51
98.1829185481
  0
ARC
  5
39F
100
AcDbEntity
  8
0
100
AcDbCircle
 62
1
  6
CONTINUOUS
 10
359.3151017673
 20
90.6772781771
 40
0.9778191094
100
AcDbArc
 50
262.9733351768
 51
269.9827384168
  0
ARC
  5
3A0
100
AcDbEntity
  8
0
100
AcDbCircle
 62
1
  6
CONTINUOUS
 10
359.3145125893
 20
107.9713672973
 40
0.9778191094
100
AcDbArc
 50
82.9733351768
 51
89.9827384169
  0
ARC
  5
3A1
100
AcDbEntity
  8
0
100
AcDbCircle
 62
1
  6
CONTINUOUS
 10
359.314516064
 20
90.6771984533
 40
0.9777393845
100
AcDbArc
 50
270.0170593774
 51
276.9729509159
  0
ARC
  5
3A2
100
AcDbEntity
  8
0
100
AcDbCircle
 62
1
  6
CONTINUOUS
 10
359.3150982927
 20
107.9714470211
 40
0.9777393845
100
AcDbArc
 50
90.0170593774
 51
96.9729509157
  0
ARC
  5
3A3
100
AcDbEntity
  8
0
100
AcDbCircle
 62
1
  6
CONTINUOUS
 10
359.314251033
 20
90.1897081332
 40
0.9666812713
100
AcDbArc
 50
74.5839272798
 51
89.9670369331
  0
ARC
  5
3A4
100
AcDbEntity
  8
0
100
AcDbCircle
 62
1
  6
CONTINUOUS
 10
359.314251033
 20
108.4589373411
 40
0.9666812713
100
AcDbArc
 50
270.0329630669
 51
285.4160727202
  0
ARC
  5
3A5
100
AcDbEntity
  8
0
100
AcDbCircle
 62
1
  6
CONTINUOUS
 10
359.3153633042
 20
90.1897082446
 40
0.96668116
100
AcDbArc
 50
90.0329619215
 51
105.4160614403
  0
ARC
  5
3A6
100
AcDbEntity
  8
0
100
AcDbCircle
 62
1
  6
CONTINUOUS
 10
359.3153633042
 20
108.4589372298
 40
0.96668116
100
AcDbArc
 50
254.5839385597
 51
269.9670380785
  0
ARC
  5
3A7
100
AcDbEntity
  8
0
100
AcDbCircle
 62
1
  6
CONTINUOUS
 10
359.4542264337
 20
90.5248201809
 40
0.7606119032
100
AcDbArc
 50
345.5615503403
 51
349.1072673324
  0
ARC
  5
3A8
100
AcDbEntity
  8
0
100
AcDbCircle
 62
1
  6
CONTINUOUS
 10
359.175387923
 20
90.5248201809
 40
0.7606119032
100
AcDbArc
 50
190.8927326676
 51
194.4384496597
  0
ARC
  5
3A9
100
AcDbEntity
  8
0
100
AcDbCircle
 62
1
  6
CONTINUOUS
 10
359.175387923
 20
108.1238252935
 40
0.7606119032
100
AcDbArc
 50
165.5615503403
 51
169.1072673324
  0
ARC
  5
3AA
100
AcDbEntity
  8
0
100
AcDbCircle
 62
1
  6
CONTINUOUS
 10
359.4542264337
 20
108.1238252935
 40
0.7606119032
100
AcDbArc
 50
10.8927326675
 51
14.4384496597
  0
ARC
  5
3AB
100
AcDbEntity
  8
0
100
AcDbCircle
 62
1
  6
CONTINUOUS
 10
359.4593956936
 20
90.52376007
 40
0.7553354521
100
AcDbArc
 50
349.1121350003
 51
350.2287477042
  0
ARC
  5
3AC
100
AcDbEntity
  8
0
100
AcDbCircle
 62
1
  6
CONTINUOUS
 10
359.4593956936
 20
108.1248854044
 40
0.7553354521
100
AcDbArc
 50
9.7712522958
 51
10.8878649997
  0
ARC
  5
3AD
100
AcDbEntity
  8
0
100
AcDbCircle
 62
1
  6
CONTINUOUS
 10
359.1702186532
 20
90.5237600681
 40
0.755335442
100
AcDbArc
 50
189.7712729226
 51
190.8878650051
  0
ARC
  5
3AE
100
AcDbEntity
  8
0
100
AcDbCircle
 62
1
  6
CONTINUOUS
 10
359.1702186533
 20
108.1248854062
 40
0.7553354421
100
AcDbArc
 50
169.1121349949
 51
170.2287270773
  0
ARC
  5
3AF
100
AcDbEntity
  8
0
100
AcDbCircle
 62
1
  6
CONTINUOUS
 10
359.1928134357
 20
90.5238586136
 40
0.6780064162
100
AcDbArc
 50
159.4308816996
 51
179.9607786536
  0
ARC
  5
3B0
100
AcDbEntity
  8
0
100
AcDbCircle
 62
1
  6
CONTINUOUS
 10
359.1928134357
 20
108.1247868608
 40
0.6780064162
100
AcDbArc
 50
180.0392213464
 51
200.5691183005
  0
ARC
  5
3B1
100
AcDbEntity
  8
0
100
AcDbCircle
 62
1
  6
CONTINUOUS
 10
359.436801059
 20
90.5238586295
 40
0.6780062782
100
AcDbArc
 50
0.0392200151
 51
20.5688824291
  0
ARC
  5
3B2
100
AcDbEntity
  8
0
100
AcDbCircle
 62
1
  6
CONTINUOUS
 10
359.436801059
 20
108.1247868449
 40
0.6780062782
100
AcDbArc
 50
339.4311175709
 51
359.9607799849
  0
CIRCLE
  5
3B3
100
AcDbEntity
  8
0
100
AcDbCircle
 62
1
  6
CONTINUOUS
 10
183.1193820582
 20
328.9926178151
 40
22.5
  0
ARC
  5
3B4
100
AcDbEntity
  8
0
100
AcDbCircle
 62
1
  6
CONTINUOUS
 10
367.8920613569
 20
328.9318813472
 40
19.98
100
AcDbArc
 50
92.5401252983
 51
99.4662411712
  0
ARC
  5
3B5
100
AcDbEntity
  8
0
100
AcDbCircle
 62
1
  6
CONTINUOUS
 10
367.8920613569
 20
329.0533542831
 40
19.98
100
AcDbArc
 50
239.4740931787
 51
267.4598747019
  0
ARC
  5
3B6
100
AcDbEntity
  8
0
100
AcDbCircle
 62
1
  6
CONTINUOUS
 10
183.1193820582
 20
532.0926016685
 40
12.0
100
AcDbArc
 50
0.0
 51
180.0
  0
ARC
  5
3B7
100
AcDbEntity
  8
0
100
AcDbCircle
 62
1
  6
CONTINUOUS
 10
199.6193820582
 20
369.9926178151
 40
7.0
100
AcDbArc
 50
331.0127234694
 51
28.9872765306
  0
ARC
  5
3B8
100
AcDbEntity
  8
0
100
AcDbCircle
 62
1
  6
CONTINUOUS
 10
389.0065671648
 20
354.4926178151
 40
3.0
100
AcDbArc
 50
270.0
 51
360.0
  0
ARC
  5
3B9
100
AcDbEntity
  8
0
100
AcDbCircle
 62
1
  6
CONTINUOUS
 10
174.0044275165
 20
349.1276023868
 40
0.5
100
AcDbArc
 50
113.5781784782
 51
151.6956459851
  0
ARC
  5
3BA
100
AcDbEntity
  8
0
100
AcDbCircle
 62
1
  6
CONTINUOUS
 10
174.5543365999
 20
349.3676023868
 40
0.5
100
AcDbArc
 50
75.4607118462
 51
113.5781784782
  0
ARC
  5
3BB
100
AcDbEntity
  8
0
100
AcDbCircle
 62
1
  6
CONTINUOUS
 10
191.6844275165
 20
349.3676023868
 40
0.5
100
AcDbArc
 50
66.4218215218
 51
104.5392881538
  0
ARC
  5
3BC
100
AcDbEntity
  8
0
100
AcDbCircle
 62
1
  6
CONTINUOUS
 10
192.2343365999
 20
349.1276023868
 40
0.5
100
AcDbArc
 50
28.3043540149
 51
66.4218215218
  0
ARC
  5
3BD
100
AcDbEntity
  8
0
100
AcDbCircle
 62
1
  6
CONTINUOUS
 10
205.305109804
 20
373.1426178151
 40
0.5
100
AcDbArc
 50
28.9872765307
 51
60.5501340295
  0
ARC
  5
3BE
100
AcDbEntity
  8
0
100
AcDbCircle
 62
1
  6
CONTINUOUS
 10
205.305109804
 20
366.8426178151
 40
0.5
100
AcDbArc
 50
299.447617592
 51
331.0127234693
  0
ARC
  5
3BF
100
AcDbEntity
  8
0
100
AcDbCircle
 62
1
  6
CONTINUOUS
 10
178.7193820582
 20
419.2926178151
 40
0.5
100
AcDbArc
 50
90.0
 51
180.0
  0
ARC
  5
3C0
100
AcDbEntity
  8
0
100
AcDbCircle
 62
1
  6
CONTINUOUS
 10
187.5193820582
 20
419.2926178151
 40
0.5
100
AcDbArc
 50
0.0
 51
90.0
  0
ARC
  5
3C1
100
AcDbEntity
  8
0
100
AcDbCircle
 62
1
  6
CONTINUOUS
 10
352.5065671648
 20
419.2926178151
 40
0.5
100
AcDbArc
 50
0.0
 51
90.0
  0
ARC
  5
3C2
100
AcDbEntity
  8
0
100
AcDbCircle
 62
1
  6
CONTINUOUS
 10
343.7065671648
 20
419.2926178151
 40
0.5
100
AcDbArc
 50
90.0
 51
180.0
  0
ARC
  5
3C3
100
AcDbEntity
  8
______
100
AcDbCircle
 62
5
  6
ACAD_ISO04W100
 10
116.1563698799
 20
389.733090319
 40
0.5
100
AcDbArc
 50
135.0
 51
225.0
  0
ARC
  5
3C4
100
AcDbEntity
  8
______
100
AcDbCircle
 62
5
  6
ACAD_ISO04W100
 10
122.3789095543
 20
395.9556299935
 40
0.5
100
AcDbArc
 50
45.0
 51
135.0
  0
ARC
  5
3C5
100
AcDbEntity
  8
______
100
AcDbCircle
 62
5
  6
ACAD_ISO04W100
 10
250.0823942366
 20
389.733090319
 40
0.5
100
AcDbArc
 50
315.0
 51
45.0
  0
ARC
  5
3C6
100
AcDbEntity
  8
______
100
AcDbCircle
 62
5
  6
ACAD_ISO04W100
 10
243.8598545622
 20
395.9556299935
 40
0.5
100
AcDbArc
 50
45.0
 51
135.0
  0
ARC
  5
3C7
100
AcDbEntity
  8
______
100
AcDbCircle
 62
5
  6
ACAD_ISO04W100
 10
315.5996137833
 20
405.1691262772
 40
0.5
100
AcDbArc
 50
25.0
 51
115.0000000001
  0
ARC
  5
3C8
100
AcDbEntity
  8
______
100
AcDbCircle
 62
5
  6
ACAD_ISO04W100
 10
307.6241052574
 20
401.4500855739
 40
0.5
100
AcDbArc
 50
115.0
 51
205.0
  0
ARC
  5
3C9
100
AcDbEntity
  8
0
100
AcDbCircle
 62
1
  6
CONTINUOUS
 10
478.0489871862
 20
272.6325742407
 40
82.4636943936
100
AcDbArc
 50
225.8207922866
 51
226.3215403179
  0
ARC
  5
3CA
100
AcDbEntity
  8
0
100
AcDbCircle
 62
1
  6
CONTINUOUS
 10
416.7148071783
 20
99.3243227372
 40
26.0
100
AcDbArc
 50
240.0600204683
 51
332.5101094192
  0
ARC
  5
3CB
100
AcDbEntity
  8
0
100
AcDbCircle
 62
1
  6
CONTINUOUS
 10
416.7148071783
 20
99.3243227372
 40
26.0
100
AcDbArc
 50
27.4898905808
 51
119.9399795317
  0
ARC
  5
3CC
100
AcDbEntity
  8
0
100
AcDbCircle
 62
1
  6
CONTINUOUS
 10
418.7148071783
 20
99.3243227372
 40
24.5
100
AcDbArc
 50
29.3808640649
 51
42.9844894886
  0
ARC
  5
3CD
100
AcDbEntity
  8
0
100
AcDbCircle
 62
1
  6
CONTINUOUS
 10
418.7148071783
 20
99.3243227372
 40
24.5
100
AcDbArc
 50
317.0155105114
 51
330.6191359351
  0
ARC
  5
3CE
100
AcDbEntity
  8
0
100
AcDbCircle
 62
1
  6
CONTINUOUS
 10
416.7148071783
 20
99.3243227372
 40
22.5
100
AcDbArc
 50
32.3512406191
 51
327.6487593809
  0
ARC
  5
3CF
100
AcDbEntity
  8
0
100
AcDbCircle
 62
1
  6
CONTINUOUS
 10
416.7148071783
 20
99.3243227372
 40
15.0
100
AcDbArc
 50
53.1717352534
 51
306.8282647466
  0
ARC
  5
3D0
100
AcDbEntity
  8
0
100
AcDbCircle
 62
1
  6
CONTINUOUS
 10
416.7148384987
 20
99.3243227372
 40
12.0
100
AcDbArc
 50
90.0
 51
270.0
  0
ARC
  5
3D1
100
AcDbEntity
  8
0
100
AcDbCircle
 62
1
  6
CONTINUOUS
 10
416.7148071783
 20
115.8243227372
 40
7.0
100
AcDbArc
 50
61.0127234694
 51
118.9872765306
  0
ARC
  5
3D2
100
AcDbEntity
  8
0
100
AcDbCircle
 62
1
  6
CONTINUOUS
 10
435.5065671648
 20
274.9926178151
 40
1.5
100
AcDbArc
 50
270.0
 51
317.9289321881
  0
ARC
  5
3D3
100
AcDbEntity
  8
0
100
AcDbCircle
 62
1
  6
CONTINUOUS
 10
393.5065671648
 20
274.9926178151
 40
1.5
100
AcDbArc
 50
222.0710678119
 51
270.0
  0
ARC
  5
3D4
100
AcDbEntity
  8
0
100
AcDbCircle
 62
1
  6
CONTINUOUS
 10
419.1097077189
 20
218.1228599396
 40
1.1302421532
100
AcDbArc
 50
264.8182055303
 51
269.9870797262
  0
ARC
  5
3D5
100
AcDbEntity
  8
0
100
AcDbCircle
 62
1
  6
CONTINUOUS
 10
426.90342658
 20
218.1228584488
 40
1.1302406624
100
AcDbArc
 50
270.0129218506
 51
275.1817838599
  0
ARC
  5
3D6
100
AcDbEntity
  8
0
100
AcDbCircle
 62
1
  6
CONTINUOUS
 10
413.5648071783
 20
121.510050483
 40
0.5
100
AcDbArc
 50
118.9872765307
 51
180.0
  0
ARC
  5
3D7
100
AcDbEntity
  8
0
100
AcDbCircle
 62
1
  6
CONTINUOUS
 10
419.8648071783
 20
121.510050483
 40
0.5
100
AcDbArc
 50
0.0
 51
61.0127234693
  0
ARC
  5
3D8
100
AcDbEntity
  8
0
100
AcDbCircle
 62
1
  6
CONTINUOUS
 10
666.1615526552
 20
458.9465126529
 40
80.1417498821
100
AcDbArc
 50
129.561664038
 51
129.700268857
  0
ARC
  5
3D9
100
AcDbEntity
  8
0
100
AcDbCircle
 62
1
  6
CONTINUOUS
 10
582.9688197407
 20
459.0866978996
 40
79.9590926539
100
AcDbArc
 50
50.2988138646
 51
50.4368356498
  0
ARC
  5
3DA
100
AcDbEntity
  8
0
100
AcDbCircle
 62
1
  6
CONTINUOUS
 10
444.5065984852
 20
502.0926016685
 40
42.0
100
AcDbArc
 50
90.0003868449
 51
179.999982486
  0
ARC
  5
3DB
100
AcDbEntity
  8
0
100
AcDbCircle
 62
1
  6
CONTINUOUS
 10
444.5065984852
 20
502.0926016685
 40
18.0
100
AcDbArc
 50
90.0003868449
 51
179.999959134
  0
SPLINE
  5
3DC
100
AcDbEntity
  8
0
100
AcDbSpline
 62
1
  6
CONTINUOUS
 70
0
 71
3
 72
11
 73
7
 74
0
 42
0.0000001
 43
0.0000001
 44
0.0000000001
 40
0.0
 40
0.0
 40
0.0
 40
0.0
 40
0.2468502477
 40
0.4953544004
 40
0.7463858827
 40
1.0
 40
1.0
 40
1.0
 40
1.0
 10
174.3693820582
 20
238.9926178151
 30
0.0
 10
174.1734403199
 20
238.9926178151
 30
0.0
 10
173.7794782743
 20
238.9577253256
 30
0.0
 10
173.2037023717
 20
238.8095364688
 30
0.0
 10
172.6483756524
 20
238.5845597216
 30
0.0
 10
172.2937222203
 20
238.397120732
 30
0.0
 10
172.1193820582
 20
238.2964653924
 30
0.0
  0
SPLINE
  5
3DD
100
AcDbEntity
  8
0
100
AcDbSpline
 62
1
  6
CONTINUOUS
 70
0
 71
3
 72
11
 73
7
 74
0
 42
0.0000001
 43
0.0000001
 44
0.0000000001
 40
0.0
 40
0.0
 40
0.0
 40
0.0
 40
0.2536140732
 40
0.5046456022
 40
0.7531497918
 40
1.0
 40
1.0
 40
1.0
 40
1.0
 10
172.1193820582
 20
238.2964653924
 30
0.0
 10
171.9450419265
 20
238.3971207144
 30
0.0
 10
171.5903884989
 20
238.5845597169
 30
0.0
 10
171.0350617417
 20
238.8095364537
 30
0.0
 10
170.4592858084
 20
238.9577253276
 30
0.0
 10
170.0653237649
 20
238.9926178151
 30
0.0
 10
169.8693820582
 20
238.9926178151
 30
0.0
  0
SPLINE
  5
3DE
100
AcDbEntity
  8
0
100
AcDbSpline
 62
1
  6
CONTINUOUS
 70
0
 71
3
 72
11
 73
7
 74
0
 42
0.0000001
 43
0.0000001
 44
0.0000000001
 40
0.0
 40
0.0
 40
0.0
 40
0.0
 40
0.2536140732
 40
0.5046456022
 40
0.7531497918
 40
1.0
 40
1.0
 40
1.0
 40
1.0
 10
172.1193820582
 20
217.6887702378
 30
0.0
 10
171.9450419265
 20
217.5881149159
 30
0.0
 10
171.5903884989
 20
217.4006759134
 30
0.0
 10
171.0350617417
 20
217.1756991766
 30
0.0
 10
170.4592858084
 20
217.0275103026
 30
0.0
 10
170.0653237649
 20
216.9926178151
 30
0.0
 10
169.8693820582
 20
216.9926178151
 30
0.0
  0
SPLINE
  5
3DF
100
AcDbEntity
  8
0
100
AcDbSpline
 62
1
  6
CONTINUOUS
 70
0
 71
3
 72
11
 73
7
 74
0
 42
0.0000001
 43
0.0000001
 44
0.0000000001
 40
0.0
 40
0.0
 40
0.0
 40
0.0
 40
0.2468502477
 40
0.4953544004
 40
0.7463858827
 40
1.0
 40
1.0
 40
1.0
 40
1.0
 10
169.8693820582
 20
216.9926178151
 30
0.0
 10
169.6734403199
 20
216.9926178151
 30
0.0
 10
169.2794782743
 20
217.0275103047
 30
0.0
 10
168.7037023717
 20
217.1756991615
 30
0.0
 10
168.1483756524
 20
217.4006759087
 30
0.0
 10
167.7937222203
 20
217.5881148983
 30
0.0
 10
167.6193820582
 20
217.6887702378
 30
0.0
  0
SPLINE
  5
3E0
100
AcDbEntity
  8
0
100
AcDbSpline
 62
1
  6
CONTINUOUS
 70
0
 71
3
 72
11
 73
7
 74
0
 42
0.0000001
 43
0.0000001
 44
0.0000000001
 40
0.0
 40
0.0
 40
0.0
 40
0.0
 40
0.2468502477
 40
0.4953544004
 40
0.7463858827
 40
1.0
 40
1.0
 40
1.0
 40
1.0
 10
169.8693820582
 20
238.9926178151
 30
0.0
 10
169.6734403199
 20
238.9926178151
 30
0.0
 10
169.2794782743
 20
238.9577253256
 30
0.0
 10
168.7037023717
 20
238.8095364688
 30
0.0
 10
168.1483756524
 20
238.5845597216
 30
0.0
 10
167.7937222203
 20
238.397120732
 30
0.0
 10
167.6193820582
 20
238.2964653924
 30
0.0
  0
SPLINE
  5
3E1
100
AcDbEntity
  8
0
100
AcDbSpline
 62
1
  6
CONTINUOUS
 70
0
 71
3
 72
11
 73
7
 74
0
 42
0.0000001
 43
0.0000001
 44
0.0000000001
 40
0.0
 40
0.0
 40
0.0
 40
0.0
 40
0.2536140732
 40
0.5046456022
 40
0.7531497918
 40
1.0
 40
1.0
 40
1.0
 40
1.0
 10
176.6193820582
 20
238.2964653924
 30
0.0
 10
176.4450419265
 20
238.3971207144
 30
0.0
 10
176.0903884989
 20
238.5845597169
 30
0.0
 10
175.5350617417
 20
238.8095364537
 30
0.0
 10
174.9592858084
 20
238.9577253276
 30
0.0
 10
174.5653237649
 20
238.9926178151
 30
0.0
 10
174.3693820582
 20
238.9926178151
 30
0.0
  0
SPLINE
  5
3E2
100
AcDbEntity
  8
0
100
AcDbSpline
 62
1
  6
CONTINUOUS
 70
0
 71
3
 72
11
 73
7
 74
0
 42
0.0000001
 43
0.0000001
 44
0.0000000001
 40
0.0
 40
0.0
 40
0.0
 40
0.0
 40
0.2536140732
 40
0.5046456022
 40
0.7531497918
 40
1.0
 40
1.0
 40
1.0
 40
1.0
 10
176.6193820582
 20
217.6887702378
 30
0.0
 10
176.4450419265
 20
217.5881149159
 30
0.0
 10
176.0903884989
 20
217.4006759134
 30
0.0
 10
175.5350617417
 20
217.1756991766
 30
0.0
 10
174.9592858084
 20
217.0275103026
 30
0.0
 10
174.5653237649
 20
216.9926178151
 30
0.0
 10
174.3693820582
 20
216.9926178151
 30
0.0
  0
SPLINE
  5
3E3
100
AcDbEntity
  8
0
100
AcDbSpline
 62
1
  6
CONTINUOUS
 70
0
 71
3
 72
11
 73
7
 74
0
 42
0.0000001
 43
0.0000001
 44
0.0000000001
 40
0.0
 40
0.0
 40
0.0
 40
0.0
 40
0.2468502477
 40
0.4953544004
 40
0.7463858827
 40
1.0
 40
1.0
 40
1.0
 40
1.0
 10
174.3693820582
 20
216.9926178151
 30
0.0
 10
174.1734403199
 20
216.9926178151
 30
0.0
 10
173.7794782743
 20
217.0275103047
 30
0.0
 10
173.2037023717
 20
217.1756991615
 30
0.0
 10
172.6483756524
 20
217.4006759087
 30
0.0
 10
172.2937222203
 20
217.5881148983
 30
0.0
 10
172.1193820582
 20
217.6887702378
 30
0.0
  0
SPLINE
  5
3E4
100
AcDbEntity
  8
0
100
AcDbSpline
 62
1
  6
CONTINUOUS
 70
0
 71
3
 72
11
 73
7
 74
0
 42
0.0000001
 43
0.0000001
 44
0.0000000001
 40
0.0
 40
0.0
 40
0.0
 40
0.0
 40
0.2468502477
 40
0.4953544004
 40
0.7463858827
 40
1.0
 40
1.0
 40
1.0
 40
1.0
 10
196.3693820582
 20
238.9926178151
 30
0.0
 10
196.1734403199
 20
238.9926178151
 30
0.0
 10
195.7794782743
 20
238.9577253256
 30
0.0
 10
195.2037023717
 20
238.8095364688
 30
0.0
 10
194.6483756524
 20
238.5845597216
 30
0.0
 10
194.2937222203
 20
238.397120732
 30
0.0
 10
194.1193820582
 20
238.2964653924
 30
0.0
  0
SPLINE
  5
3E5
100
AcDbEntity
  8
0
100
AcDbSpline
 62
1
  6
CONTINUOUS
 70
0
 71
3
 72
11
 73
7
 74
0
 42
0.0000001
 43
0.0000001
 44
0.0000000001
 40
0.0
 40
0.0
 40
0.0
 40
0.0
 40
0.2536140732
 40
0.5046456022
 40
0.7531497918
 40
1.0
 40
1.0
 40
1.0
 40
1.0
 10
194.1193820582
 20
238.2964653924
 30
0.0
 10
193.9450419265
 20
238.3971207144
 30
0.0
 10
193.5903884989
 20
238.5845597169
 30
0.0
 10
193.0350617417
 20
238.8095364537
 30
0.0
 10
192.4592858084
 20
238.9577253276
 30
0.0
 10
192.0653237649
 20
238.9926178151
 30
0.0
 10
191.8693820582
 20
238.9926178151
 30
0.0
  0
SPLINE
  5
3E6
100
AcDbEntity
  8
0
100
AcDbSpline
 62
1
  6
CONTINUOUS
 70
0
 71
3
 72
11
 73
7
 74
0
 42
0.0000001
 43
0.0000001
 44
0.0000000001
 40
0.0
 40
0.0
 40
0.0
 40
0.0
 40
0.2536140732
 40
0.5046456022
 40
0.7531497918
 40
1.0
 40
1.0
 40
1.0
 40
1.0
 10
194.1193820582
 20
217.6887702378
 30
0.0
 10
193.9450419265
 20
217.5881149159
 30
0.0
 10
193.5903884989
 20
217.4006759134
 30
0.0
 10
193.0350617417
 20
217.1756991766
 30
0.0
 10
192.4592858084
 20
217.0275103026
 30
0.0
 10
192.0653237649
 20
216.9926178151
 30
0.0
 10
191.8693820582
 20
216.9926178151
 30
0.0
  0
SPLINE
  5
3E7
100
AcDbEntity
  8
0
100
AcDbSpline
 62
1
  6
CONTINUOUS
 70
0
 71
3
 72
11
 73
7
 74
0
 42
0.0000001
 43
0.0000001
 44
0.0000000001
 40
0.0
 40
0.0
 40
0.0
 40
0.0
 40
0.2468502477
 40
0.4953544004
 40
0.7463858827
 40
1.0
 40
1.0
 40
1.0
 40
1.0
 10
191.8693820582
 20
216.9926178151
 30
0.0
 10
191.6734403199
 20
216.9926178151
 30
0.0
 10
191.2794782743
 20
217.0275103047
 30
0.0
 10
190.7037023717
 20
217.1756991615
 30
0.0
 10
190.1483756524
 20
217.4006759087
 30
0.0
 10
189.7937222203
 20
217.5881148983
 30
0.0
 10
189.6193820582
 20
217.6887702378
 30
0.0
  0
SPLINE
  5
3E8
100
AcDbEntity
  8
0
100
AcDbSpline
 62
1
  6
CONTINUOUS
 70
0
 71
3
 72
11
 73
7
 74
0
 42
0.0000001
 43
0.0000001
 44
0.0000000001
 40
0.0
 40
0.0
 40
0.0
 40
0.0
 40
0.2468502477
 40
0.4953544004
 40
0.7463858827
 40
1.0
 40
1.0
 40
1.0
 40
1.0
 10
191.8693820582
 20
238.9926178151
 30
0.0
 10
191.6734403199
 20
238.9926178151
 30
0.0
 10
191.2794782743
 20
238.9577253256
 30
0.0
 10
190.7037023717
 20
238.8095364688
 30
0.0
 10
190.1483756524
 20
238.5845597216
 30
0.0
 10
189.7937222203
 20
238.397120732
 30
0.0
 10
189.6193820582
 20
238.2964653924
 30
0.0
  0
SPLINE
  5
3E9
100
AcDbEntity
  8
0
100
AcDbSpline
 62
1
  6
CONTINUOUS
 70
0
 71
3
 72
11
 73
7
 74
0
 42
0.0000001
 43
0.0000001
 44
0.0000000001
 40
0.0
 40
0.0
 40
0.0
 40
0.0
 40
0.2536140732
 40
0.5046456022
 40
0.7531497918
 40
1.0
 40
1.0
 40
1.0
 40
1.0
 10
198.6193820582
 20
238.2964653924
 30
0.0
 10
198.4450419265
 20
238.3971207144
 30
0.0
 10
198.0903884989
 20
238.5845597169
 30
0.0
 10
197.5350617417
 20
238.8095364537
 30
0.0
 10
196.9592858084
 20
238.9577253276
 30
0.0
 10
196.5653237649
 20
238.9926178151
 30
0.0
 10
196.3693820582
 20
238.9926178151
 30
0.0
  0
SPLINE
  5
3EA
100
AcDbEntity
  8
0
100
AcDbSpline
 62
1
  6
CONTINUOUS
 70
0
 71
3
 72
11
 73
7
 74
0
 42
0.0000001
 43
0.0000001
 44
0.0000000001
 40
0.0
 40
0.0
 40
0.0
 40
0.0
 40
0.2536140732
 40
0.5046456022
 40
0.7531497918
 40
1.0
 40
1.0
 40
1.0
 40
1.0
 10
198.6193820582
 20
217.6887702378
 30
0.0
 10
198.4450419265
 20
217.5881149159
 30
0.0
 10
198.0903884989
 20
217.4006759134
 30
0.0
 10
197.5350617417
 20
217.1756991766
 30
0.0
 10
196.9592858084
 20
217.0275103026
 30
0.0
 10
196.5653237649
 20
216.9926178151
 30
0.0
 10
196.3693820582
 20
216.9926178151
 30
0.0
  0
SPLINE
  5
3EB
100
AcDbEntity
  8
0
100
AcDbSpline
 62
1
  6
CONTINUOUS
 70
0
 71
3
 72
11
 73
7
 74
0
 42
0.0000001
 43
0.0000001
 44
0.0000000001
 40
0.0
 40
0.0
 40
0.0
 40
0.0
 40
0.2468502477
 40
0.4953544004
 40
0.7463858827
 40
1.0
 40
1.0
 40
1.0
 40
1.0
 10
196.3693820582
 20
216.9926178151
 30
0.0
 10
196.1734403199
 20
216.9926178151
 30
0.0
 10
195.7794782743
 20
217.0275103047
 30
0.0
 10
195.2037023717
 20
217.1756991615
 30
0.0
 10
194.6483756524
 20
217.4006759087
 30
0.0
 10
194.2937222203
 20
217.5881148983
 30
0.0
 10
194.1193820582
 20
217.6887702378
 30
0.0
  0
SPLINE
  5
3EC
100
AcDbEntity
  8
0
100
AcDbSpline
 62
1
  6
CONTINUOUS
 70
0
 71
3
 72
9
 73
5
 74
0
 42
0.0000001
 43
0.0000001
 44
0.0000000001
 40
0.0
 40
0.0
 40
0.0
 40
0.0
 40
0.5000037055
 40
1.0
 40
1.0
 40
1.0
 40
1.0
 10
205.6193820582
 20
365.9926178151
 30
0.0
 10
205.3804533841
 20
367.3259611885
 30
0.0
 10
205.1415282515
 20
369.9926280138
 30
0.0
 10
205.3804569255
 20
372.6592945218
 30
0.0
 10
205.6193820582
 20
373.9926178151
 30
0.0
  0
SPLINE
  5
3ED
100
AcDbEntity
  8
0
100
AcDbSpline
 62
1
  6
CONTINUOUS
 70
0
 71
3
 72
15
 73
11
 74
0
 42
0.0000001
 43
0.0000001
 44
0.0000000001
 40
0.0
 40
0.0
 40
0.0
 40
0.0
 40
0.1290415395
 40
0.2560836679
 40
0.3803585661
 40
0.5028137024
 40
0.6252827268
 40
0.7489780917
 40
0.8740137728
 40
1.0
 40
1.0
 40
1.0
 40
1.0
 10
357.1065671648
 20
349.8676023868
 30
0.0
 10
357.1471524711
 20
349.8676023868
 30
0.0
 10
357.2277522056
 20
349.8637034851
 30
0.0
 10
357.3462666471
 20
349.8459513711
 30
0.0
 10
357.4601423464
 20
349.8156539745
 30
0.0
 10
357.5678971658
 20
349.7713636499
 30
0.0
 10
357.6675665706
 20
349.7111137668
 30
0.0
 10
357.7557659845
 20
349.633563126
 30
0.0
 10
357.8279043219
 20
349.5393932553
 30
0.0
 10
357.8622113066
 20
349.467504122
 30
0.0
 10
357.8753510609
 20
349.4301218067
 30
0.0
  0
SPLINE
  5
3EE
100
AcDbEntity
  8
0
100
AcDbSpline
 62
1
  6
CONTINUOUS
 70
0
 71
3
 72
15
 73
11
 74
0
 42
0.0000001
 43
0.0000001
 44
0.0000000001
 40
0.0
 40
0.0
 40
0.0
 40
0.0
 40
0.1260035253
 40
0.251064127
 40
0.3747758676
 40
0.4972422513
 40
0.6196903125
 40
0.7439486366
 40
0.8709767983
 40
1.0
 40
1.0
 40
1.0
 40
1.0
 10
356.3376495316
 20
349.4297376681
 30
0.0
 10
356.3507661521
 20
349.4671519593
 30
0.0
 10
356.3850480003
 20
349.539107471
 30
0.0
 10
356.4571791019
 20
349.6333716805
 30
0.0
 10
356.5453980927
 20
349.7109970781
 30
0.0
 10
356.6450980058
 20
349.7712985664
 30
0.0
 10
356.7528849659
 20
349.8156222472
 30
0.0
 10
356.8667964294
 20
349.8459373828
 30
0.0
 10
356.9853458078
 20
349.8637010774
 30
0.0
 10
357.0659701491
 20
349.8676023868
 30
0.0
 10
357.1065671648
 20
349.8676023868
 30
0.0
  0
SPLINE
  5
3EF
100
AcDbEntity
  8
0
100
AcDbSpline
 62
1
  6
CONTINUOUS
 70
0
 71
3
 72
11
 73
7
 74
0
 42
0.0000001
 43
0.0000001
 44
0.0000000001
 40
0.0
 40
0.0
 40
0.0
 40
0.0
 40
0.2500474993
 40
0.5000680626
 40
0.7500461505
 40
1.0
 40
1.0
 40
1.0
 40
1.0
 10
420.4084909535
 20
217.6887702378
 30
0.0
 10
420.6107483004
 20
217.5876415644
 30
0.0
 10
421.0225238022
 20
217.3993630339
 30
0.0
 10
421.6638631363
 20
217.1747490757
 30
0.0
 10
422.3277332737
 20
217.0272196375
 30
0.0
 10
422.7805212689
 20
216.9926178151
 30
0.0
 10
423.0065671648
 20
216.9926178151
 30
0.0
  0
SPLINE
  5
3F0
100
AcDbEntity
  8
0
100
AcDbSpline
 62
1
  6
CONTINUOUS
 70
0
 71
3
 72
11
 73
7
 74
0
 42
0.0000001
 43
0.0000001
 44
0.0000000001
 40
0.0
 40
0.0
 40
0.0
 40
0.0
 40
0.2499553281
 40
0.4999336659
 40
0.7499535661
 40
1.0
 40
1.0
 40
1.0
 40
1.0
 10
423.0065671648
 20
216.9926178151
 30
0.0
 10
423.2326143998
 20
216.9926178151
 30
0.0
 10
423.6854040058
 20
217.0272196695
 30
0.0
 10
424.3492748802
 20
217.1747502935
 30
0.0
 10
424.9906128861
 20
217.3993639348
 30
0.0
 10
425.4023868895
 20
217.5876419945
 30
0.0
 10
425.6046433762
 20
217.6887702378
 30
0.0
  0
SPLINE
  5
3F1
100
AcDbEntity
  8
0
100
AcDbSpline
 62
1
  6
CONTINUOUS
 70
0
 71
3
 72
12
 73
8
 74
0
 42
0.0000001
 43
0.0000001
 44
0.0000000001
 40
0.0
 40
0.0
 40
0.0
 40
0.0
 40
0.2742451294
 40
0.4693549467
 40
0.6546484688
 40
0.8306956118
 40
1.0
 40
1.0
 40
1.0
 40
1.0
 10
417.8104147421
 20
217.6887702378
 30
0.0
 10
417.9015109319
 20
217.5976740481
 30
0.0
 10
418.06362619
 20
217.4475958759
 30
0.0
 10
418.3096459388
 20
217.2622984385
 30
0.0
 10
418.5357135685
 20
217.1295490129
 30
0.0
 10
418.7680323623
 20
217.0362121373
 30
0.0
 10
418.9284198871
 20
217.0044057635
 30
0.0
 10
419.0076286139
 20
216.9972369205
 30
0.0
  0
SPLINE
  5
3F2
100
AcDbEntity
  8
0
100
AcDbSpline
 62
1
  6
CONTINUOUS
 70
0
 71
3
 72
12
 73
8
 74
0
 42
0.0000001
 43
0.0000001
 44
0.0000000001
 40
0.0
 40
0.0
 40
0.0
 40
0.0
 40
0.1125296152
 40
0.2269071223
 40
0.4661603634
 40
0.7240632038
 40
1.0
 40
1.0
 40
1.0
 40
1.0
 10
419.1094528478
 20
216.9926178151
 30
0.0
 10
419.1661180972
 20
216.9926178151
 30
0.0
 10
419.2805576971
 20
217.0013703185
 30
0.0
 10
419.5101751474
 20
217.0534625825
 30
0.0
 10
419.7934236872
 20
217.1820382407
 30
0.0
 10
420.1119864748
 20
217.4081267254
 30
0.0
 10
420.3102382317
 20
217.590517516
 30
0.0
 10
420.4084909535
 20
217.6887702378
 30
0.0
  0
SPLINE
  5
3F3
100
AcDbEntity
  8
0
100
AcDbSpline
 62
1
  6
CONTINUOUS
 70
0
 71
3
 72
12
 73
8
 74
0
 42
0.0000001
 43
0.0000001
 44
0.0000000001
 40
0.0
 40
0.0
 40
0.0
 40
0.0
 40
0.1125296152
 40
0.2269071223
 40
0.4661603634
 40
0.7240632038
 40
1.0
 40
1.0
 40
1.0
 40
1.0
 10
419.1094528478
 20
238.9926178151
 30
0.0
 10
419.1661180972
 20
238.9926178151
 30
0.0
 10
419.2805576971
 20
238.9838653118
 30
0.0
 10
419.5101751474
 20
238.9317730478
 30
0.0
 10
419.7934236872
 20
238.8031973895
 30
0.0
 10
420.1119864748
 20
238.5771089049
 30
0.0
 10
420.3102382317
 20
238.3947181142
 30
0.0
 10
420.4084909535
 20
238.2964653924
 30
0.0
  0
SPLINE
  5
3F4
100
AcDbEntity
  8
0
100
AcDbSpline
 62
1
  6
CONTINUOUS
 70
0
 71
3
 72
12
 73
8
 74
0
 42
0.0000001
 43
0.0000001
 44
0.0000000001
 40
0.0
 40
0.0
 40
0.0
 40
0.0
 40
0.2759367502
 40
0.5338396365
 40
0.7730929128
 40
0.8874703983
 40
1.0
 40
1.0
 40
1.0
 40
1.0
 10
417.8104147421
 20
238.2964653924
 30
0.0
 10
417.9086674475
 20
238.3947180978
 30
0.0
 10
418.1069191971
 20
238.5771088953
 30
0.0
 10
418.4254820094
 20
238.8031973812
 30
0.0
 10
418.7087305776
 20
238.9317730355
 30
0.0
 10
418.9383480204
 20
238.9838653399
 30
0.0
 10
419.0527876053
 20
238.9926178151
 30
0.0
 10
419.1094528478
 20
238.9926178151
 30
0.0
  0
SPLINE
  5
3F5
100
AcDbEntity
  8
0
100
AcDbSpline
 62
1
  6
CONTINUOUS
 70
0
 71
3
 72
12
 73
8
 74
0
 42
0.0000001
 43
0.0000001
 44
0.0000000001
 40
0.0
 40
0.0
 40
0.0
 40
0.0
 40
0.2759367502
 40
0.5338396365
 40
0.7730929128
 40
0.8874703983
 40
1.0
 40
1.0
 40
1.0
 40
1.0
 10
425.6046433762
 20
238.2964653924
 30
0.0
 10
425.7028960815
 20
238.3947180978
 30
0.0
 10
425.9011478311
 20
238.5771088953
 30
0.0
 10
426.2197106434
 20
238.8031973812
 30
0.0
 10
426.5029592117
 20
238.9317730355
 30
0.0
 10
426.7325766545
 20
238.9838653399
 30
0.0
 10
426.8470162394
 20
238.9926178151
 30
0.0
 10
426.9036814819
 20
238.9926178151
 30
0.0
  0
SPLINE
  5
3F6
100
AcDbEntity
  8
0
100
AcDbSpline
 62
1
  6
CONTINUOUS
 70
0
 71
3
 72
12
 73
8
 74
0
 42
0.0000001
 43
0.0000001
 44
0.0000000001
 40
0.0
 40
0.0
 40
0.0
 40
0.0
 40
0.2759367502
 40
0.5338396365
 40
0.7730929128
 40
0.8874703983
 40
1.0
 40
1.0
 40
1.0
 40
1.0
 10
425.6046433762
 20
217.6887702378
 30
0.0
 10
425.7028960815
 20
217.5905175325
 30
0.0
 10
425.9011478311
 20
217.408126735
 30
0.0
 10
426.2197106434
 20
217.1820382491
 30
0.0
 10
426.5029592117
 20
217.0534625948
 30
0.0
 10
426.7325766545
 20
217.0013702903
 30
0.0
 10
426.8470162394
 20
216.9926178151
 30
0.0
 10
426.9036814819
 20
216.9926178151
 30
0.0
  0
SPLINE
  5
3F7
100
AcDbEntity
  8
0
100
AcDbSpline
 62
1
  6
CONTINUOUS
 70
0
 71
3
 72
12
 73
8
 74
0
 42
0.0000001
 43
0.0000001
 44
0.0000000001
 40
0.0
 40
0.0
 40
0.0
 40
0.0
 40
0.1124837908
 40
0.2274089198
 40
0.5942976836
 40
0.7927114503
 40
1.0
 40
1.0
 40
1.0
 40
1.0
 10
427.005505342
 20
216.9972368955
 30
0.0
 10
427.0580975731
 20
217.001996782
 30
0.0
 10
427.1638835445
 20
217.0190251295
 30
0.0
 10
427.4318490835
 20
217.0990354151
 30
0.0
 10
427.7125411266
 20
217.261961971
 30
0.0
 10
427.9951080059
 20
217.4891199171
 30
0.0
 10
428.1339077069
 20
217.6199583572
 30
0.0
 10
428.2027195875
 20
217.6887702378
 30
0.0
  0
SPLINE
  5
3F8
100
AcDbEntity
  8
0
100
AcDbSpline
 62
1
  6
CONTINUOUS
 70
0
 71
3
 72
12
 73
8
 74
0
 42
0.0000001
 43
0.0000001
 44
0.0000000001
 40
0.0
 40
0.0
 40
0.0
 40
0.0
 40
0.1125296152
 40
0.2269071223
 40
0.4661603634
 40
0.7240632038
 40
1.0
 40
1.0
 40
1.0
 40
1.0
 10
426.9036814819
 20
238.9926178151
 30
0.0
 10
426.9603467312
 20
238.9926178151
 30
0.0
 10
427.0747863312
 20
238.9838653118
 30
0.0
 10
427.3044037815
 20
238.9317730478
 30
0.0
 10
427.5876523213
 20
238.8031973895
 30
0.0
 10
427.9062151088
 20
238.5771089049
 30
0.0
 10
428.1044668657
 20
238.3947181142
 30
0.0
 10
428.2027195875
 20
238.2964653924
 30
0.0
  0
SPLINE
  5
3F9
100
AcDbEntity
  8
0
100
AcDbSpline
 62
1
  6
CONTINUOUS
 70
0
 71
3
 72
11
 73
7
 74
0
 42
0.0000001
 43
0.0000001
 44
0.0000000001
 40
0.0
 40
0.0
 40
0.0
 40
0.0
 40
0.2499553281
 40
0.4999336659
 40
0.7499535661
 40
1.0
 40
1.0
 40
1.0
 40
1.0
 10
423.0065671648
 20
238.9926178151
 30
0.0
 10
423.2326143998
 20
238.9926178151
 30
0.0
 10
423.6854040058
 20
238.9580159607
 30
0.0
 10
424.3492748802
 20
238.8104853367
 30
0.0
 10
424.9906128861
 20
238.5858716955
 30
0.0
 10
425.4023868895
 20
238.3975936358
 30
0.0
 10
425.6046433762
 20
238.2964653924
 30
0.0
  0
SPLINE
  5
3FA
100
AcDbEntity
  8
0
100
AcDbSpline
 62
1
  6
CONTINUOUS
 70
0
 71
3
 72
11
 73
7
 74
0
 42
0.0000001
 43
0.0000001
 44
0.0000000001
 40
0.0
 40
0.0
 40
0.0
 40
0.0
 40
0.2500474993
 40
0.5000680626
 40
0.7500461505
 40
1.0
 40
1.0
 40
1.0
 40
1.0
 10
420.4084909535
 20
238.2964653924
 30
0.0
 10
420.6107483004
 20
238.3975940659
 30
0.0
 10
421.0225238022
 20
238.5858725964
 30
0.0
 10
421.6638631363
 20
238.8104865546
 30
0.0
 10
422.3277332737
 20
238.9580159928
 30
0.0
 10
422.7805212689
 20
238.9926178151
 30
0.0
 10
423.0065671648
 20
238.9926178151
 30
0.0
  0
SPLINE
  5
3FB
100
AcDbEntity
  8
0
100
AcDbSpline
 62
1
  6
CONTINUOUS
 70
0
 71
3
 72
14
 73
10
 74
0
 42
0.0000001
 43
0.0000001
 44
0.0000000001
 40
0.0
 40
0.0
 40
0.0
 40
0.0
 40
0.0701137991
 40
0.1529419104
 40
0.2543330728
 40
0.3753694149
 40
0.5142525421
 40
0.6676966543
 40
1.0
 40
1.0
 40
1.0
 40
1.0
 10
358.0065671648
 20
349.6142084424
 30
0.0
 10
358.006567163
 20
349.5898904269
 30
0.0
 10
357.9920504836
 20
349.5365622071
 30
0.0
 10
357.9361976108
 20
349.4664290905
 30
0.0
 10
357.8508557582
 20
349.4025144479
 30
0.0
 10
357.7383544596
 20
349.3462262814
 30
0.0
 10
357.6024757032
 20
349.2994276985
 30
0.0
 10
357.3909237475
 20
349.251441084
 30
0.0
 10
357.2218220511
 20
349.2377045657
 30
0.0
 10
357.1065671648
 20
349.2377045657
 30
0.0
  0
SPLINE
  5
3FC
100
AcDbEntity
  8
0
100
AcDbSpline
 62
1
  6
CONTINUOUS
 70
0
 71
3
 72
14
 73
10
 74
0
 42
0.0000001
 43
0.0000001
 44
0.0000000001
 40
0.0
 40
0.0
 40
0.0
 40
0.0
 40
0.3323033408
 40
0.4857474238
 40
0.6246305477
 40
0.7456669045
 40
0.847058088
 40
0.929886207
 40
1.0
 40
1.0
 40
1.0
 40
1.0
 10
357.1065671648
 20
349.2377045657
 30
0.0
 10
356.9913122802
 20
349.2377045657
 30
0.0
 10
356.8222105953
 20
349.2514410809
 30
0.0
 10
356.6106586516
 20
349.299427691
 30
0.0
 10
356.4747799007
 20
349.3462262696
 30
0.0
 10
356.3622785881
 20
349.4025144359
 30
0.0
 10
356.2769367275
 20
349.4664290911
 30
0.0
 10
356.2210838374
 20
349.5365622052
 30
0.0
 10
356.206567163
 20
349.5898904289
 30
0.0
 10
356.2065671648
 20
349.6142084424
 30
0.0
  0
SPLINE
  5
3FD
100
AcDbEntity
  8
0
100
AcDbSpline
 62
1
  6
CONTINUOUS
 70
0
 71
3
 72
13
 73
9
 74
0
 42
0.0000001
 43
0.0000001
 44
0.0000000001
 40
0.0
 40
0.0
 40
0.0
 40
0.0
 40
0.14789746
 40
0.3096451384
 40
0.4999947038
 40
0.6903449006
 40
0.8520971364
 40
1.0
 40
1.0
 40
1.0
 40
1.0
 10
343.1065671648
 20
351.4926178151
 30
0.0
 10
343.5916988161
 20
351.3846721322
 30
0.0
 10
344.6143757053
 20
351.188903277
 30
0.0
 10
346.2830963339
 20
350.9820424766
 30
0.0
 10
348.1065158141
 20
350.9019119732
 30
0.0
 10
349.9299510795
 20
350.9820337634
 30
0.0
 10
351.5987077892
 20
351.1888938477
 30
0.0
 10
352.6214178073
 20
351.3846681759
 30
0.0
 10
353.1065671648
 20
351.4926178151
 30
0.0
  0
SPLINE
  5
3FE
100
AcDbEntity
  8
0
100
AcDbSpline
 62
1
  6
CONTINUOUS
 70
0
 71
3
 72
14
 73
10
 74
0
 42
0.0000001
 43
0.0000001
 44
0.0000000001
 40
0.0
 40
0.0
 40
0.0
 40
0.0
 40
0.3363030384
 40
0.4906763749
 40
0.6294693844
 40
0.7494068379
 40
0.849010215
 40
0.9301568798
 40
1.0
 40
1.0
 40
1.0
 40
1.0
 10
357.1065671648
 20
349.9577045657
 30
0.0
 10
357.22169413
 20
349.9577045657
 30
0.0
 10
357.3901415873
 20
349.9464929021
 30
0.0
 10
357.6019902476
 20
349.9058287319
 30
0.0
 10
357.7378218063
 20
349.8654335745
 30
0.0
 10
357.8504088306
 20
349.8155718637
 30
0.0
 10
357.9360764501
 20
349.7571307662
 30
0.0
 10
357.9924325079
 20
349.6902498122
 30
0.0
 10
358.0065671667
 20
349.6381179096
 30
0.0
 10
358.0065671648
 20
349.6142084424
 30
0.0
  0
SPLINE
  5
3FF
100
AcDbEntity
  8
0
100
AcDbSpline
 62
1
  6
CONTINUOUS
 70
0
 71
3
 72
14
 73
10
 74
0
 42
0.0000001
 43
0.0000001
 44
0.0000000001
 40
0.0
 40
0.0
 40
0.0
 40
0.0
 40
0.0698431255
 40
0.1509897834
 40
0.2505931398
 40
0.3705305781
 40
0.509323591
 40
0.6636969567
 40
1.0
 40
1.0
 40
1.0
 40
1.0
 10
356.2065671648
 20
349.6142084424
 30
0.0
 10
356.2065671667
 20
349.6381179114
 30
0.0
 10
356.2207018309
 20
349.6902498097
 30
0.0
 10
356.2770578705
 20
349.7571307675
 30
0.0
 10
356.3627254821
 20
349.8155718533
 30
0.0
 10
356.4753124933
 20
349.8654335632
 30
0.0
 10
356.6111440568
 20
349.9058287263
 30
0.0
 10
356.8229927294
 20
349.9464928994
 30
0.0
 10
356.9914401981
 20
349.9577045657
 30
0.0
 10
357.1065671648
 20
349.9577045657
 30
0.0
  0
SPLINE
  5
400
100
AcDbEntity
  8
0
100
AcDbSpline
 62
1
  6
CONTINUOUS
 70
0
 71
3
 72
10
 73
6
 74
0
 42
0.0000001
 43
0.0000001
 44
0.0000000001
 40
0.0
 40
0.0
 40
0.0
 40
0.0
 40
0.4245600382
 40
0.7007826817
 40
1.0
 40
1.0
 40
1.0
 40
1.0
 10
633.8970440855
 20
520.7289923339
 30
0.0
 10
632.9197840917
 20
521.5363950573
 30
0.0
 10
631.2753920046
 20
522.8360627612
 30
0.0
 10
628.7770970062
 20
524.4718045164
 30
0.0
 10
627.1977520465
 20
525.1989253726
 30
0.0
 10
626.3363236448
 20
525.4357972861
 30
0.0
  0
SPLINE
  5
401
100
AcDbEntity
  8
0
100
AcDbSpline
 62
1
  6
CONTINUOUS
 70
0
 71
3
 72
9
 73
5
 74
0
 42
0.0000001
 43
0.0000001
 44
0.0000000001
 40
0.0
 40
0.0
 40
0.0
 40
0.0
 40
0.4999535373
 40
1.0
 40
1.0
 40
1.0
 40
1.0
 10
626.3363236448
 20
525.4357972861
 30
0.0
 10
625.743541675
 20
525.5987979479
 30
0.0
 10
624.5097046028
 20
525.7825756032
 30
0.0
 10
623.2754883409
 20
525.6003972637
 30
0.0
 10
622.6825242904
 20
525.4376280146
 30
0.0
  0
SPLINE
  5
402
100
AcDbEntity
  8
0
100
AcDbSpline
 62
1
  6
CONTINUOUS
 70
0
 71
3
 72
10
 73
6
 74
0
 42
0.0000001
 43
0.0000001
 44
0.0000000001
 40
0.0
 40
0.0
 40
0.0
 40
0.0
 40
0.2991418619
 40
0.5753243421
 40
1.0
 40
1.0
 40
1.0
 40
1.0
 10
622.6825242904
 20
525.4376280146
 30
0.0
 10
621.8209404594
 20
525.201122356
 30
0.0
 10
620.2410583682
 20
524.4746660341
 30
0.0
 10
617.7416360442
 20
522.8389050678
 30
0.0
 10
616.0964581015
 20
521.5388069971
 30
0.0
 10
615.1186065494
 20
520.730958325
 30
0.0
  0
SPLINE
  5
403
100
AcDbEntity
  8
0
100
AcDbSpline
 62
1
  6
CONTINUOUS
 70
0
 71
3
 72
15
 73
11
 74
0
 42
0.0000001
 43
0.0000001
 44
0.0000000001
 40
0.0
 40
0.0
 40
0.0
 40
0.0
 40
0.1243848335
 40
0.2488409493
 40
0.3734521303
 40
0.4982801884
 40
0.6233687261
 40
0.7487246797
 40
0.8742950098
 40
1.0
 40
1.0
 40
1.0
 40
1.0
 10
360.1148071783
 20
90.4843227372
 30
0.0
 10
360.1148071783
 20
90.4331096859
 30
0.0
 10
360.1042619215
 20
90.3303468639
 30
0.0
 10
360.0575384514
 20
90.1827919785
 30
0.0
 10
359.9820309934
 20
90.0474303268
 30
0.0
 10
359.8810286517
 20
89.9295750853
 30
0.0
 10
359.7587567838
 20
89.8335208374
 30
0.0
 10
359.6200601506
 20
89.7625990234
 30
0.0
 10
359.4702858776
 20
89.7191257498
 30
0.0
 10
359.3665637786
 20
89.7093681955
 30
0.0
 10
359.3148071783
 20
89.7093681955
 30
0.0
  0
SPLINE
  5
404
100
AcDbEntity
  8
0
100
AcDbSpline
 62
1
  6
CONTINUOUS
 70
0
 71
3
 72
15
 73
11
 74
0
 42
0.0000001
 43
0.0000001
 44
0.0000000001
 40
0.0
 40
0.0
 40
0.0
 40
0.0
 40
0.1257069883
 40
0.2512778118
 40
0.3766331341
 40
0.5017202577
 40
0.6265467595
 40
0.7511569871
 40
0.8756132188
 40
1.0
 40
1.0
 40
1.0
 40
1.0
 10
359.3148071783
 20
89.7093681955
 30
0.0
 10
359.2630497551
 20
89.7093681955
 30
0.0
 10
359.1593266101
 20
89.7191259521
 30
0.0
 10
359.0095517528
 20
89.7626000145
 30
0.0
 10
358.8708559379
 20
89.83352199
 30
0.0
 10
358.7485854301
 20
89.9295755189
 30
0.0
 10
358.6475840987
 20
90.0474294582
 30
0.0
 10
358.5720768293
 20
90.1827900501
 30
0.0
 10
358.525352594
 20
90.3303451817
 30
0.0
 10
358.5148071783
 20
90.4331088837
 30
0.0
 10
358.5148071783
 20
90.4843227372
 30
0.0
  0
SPLINE
  5
405
100
AcDbEntity
  8
0
100
AcDbSpline
 62
1
  6
CONTINUOUS
 70
0
 71
3
 72
15
 73
11
 74
0
 42
0.0000001
 43
0.0000001
 44
0.0000000001
 40
0.0
 40
0.0
 40
0.0
 40
0.0
 40
0.1257069883
 40
0.2512778118
 40
0.3766331341
 40
0.5017202577
 40
0.6265467595
 40
0.7511569871
 40
0.8756132188
 40
1.0
 40
1.0
 40
1.0
 40
1.0
 10
359.3148071783
 20
108.9392772789
 30
0.0
 10
359.3665646016
 20
108.9392772789
 30
0.0
 10
359.4702877466
 20
108.9295195223
 30
0.0
 10
359.6200626038
 20
108.8860454599
 30
0.0
 10
359.7587584187
 20
108.8151234844
 30
0.0
 10
359.8810289266
 20
108.7190699554
 30
0.0
 10
359.982030258
 20
108.6012160162
 30
0.0
 10
360.0575375273
 20
108.4658554243
 30
0.0
 10
360.1042617627
 20
108.3183002927
 30
0.0
 10
360.1148071783
 20
108.2155365907
 30
0.0
 10
360.1148071783
 20
108.1643227372
 30
0.0
  0
SPLINE
  5
406
100
AcDbEntity
  8
0
100
AcDbSpline
 62
1
  6
CONTINUOUS
 70
0
 71
3
 72
15
 73
11
 74
0
 42
0.0000001
 43
0.0000001
 44
0.0000000001
 40
0.0
 40
0.0
 40
0.0
 40
0.0
 40
0.1243848335
 40
0.2488409493
 40
0.3734521303
 40
0.4982801884
 40
0.6233687261
 40
0.7487246797
 40
0.8742950098
 40
1.0
 40
1.0
 40
1.0
 40
1.0
 10
358.5148071783
 20
108.1643227372
 30
0.0
 10
358.5148071783
 20
108.2155357884
 30
0.0
 10
358.5253524351
 20
108.3182986104
 30
0.0
 10
358.5720759053
 20
108.4658534959
 30
0.0
 10
358.6475833633
 20
108.6012151476
 30
0.0
 10
358.748585705
 20
108.7190703891
 30
0.0
 10
358.8708575728
 20
108.815124637
 30
0.0
 10
359.0095542061
 20
108.8860464509
 30
0.0
 10
359.1593284791
 20
108.9295197246
 30
0.0
 10
359.2630505781
 20
108.9392772789
 30
0.0
 10
359.3148071783
 20
108.9392772789
 30
0.0
  0
SPLINE
  5
407
100
AcDbEntity
  8
0
100
AcDbSpline
 62
1
  6
CONTINUOUS
 70
0
 71
3
 72
11
 73
7
 74
0
 42
0.0000001
 43
0.0000001
 44
0.0000000001
 40
0.0
 40
0.0
 40
0.0
 40
0.0
 40
0.2588274811
 40
0.5119506567
 40
0.7585112009
 40
1.0
 40
1.0
 40
1.0
 40
1.0
 10
359.0583939633
 20
107.5270363644
 30
0.0
 10
358.9672873134
 20
107.5522220732
 30
0.0
 10
358.7933731916
 20
107.6296930295
 30
0.0
 10
358.5833923417
 20
107.8171908845
 30
0.0
 10
358.4467649503
 20
108.056468645
 30
0.0
 10
358.4148071813
 20
108.2361310596
 30
0.0
 10
358.4148071783
 20
108.3243227372
 30
0.0
  0
SPLINE
  5
408
100
AcDbEntity
  8
0
100
AcDbSpline
 62
1
  6
CONTINUOUS
 70
0
 71
3
 72
11
 73
7
 74
0
 42
0.0000001
 43
0.0000001
 44
0.0000000001
 40
0.0
 40
0.0
 40
0.0
 40
0.0
 40
0.2414887991
 40
0.4880493433
 40
0.7411725189
 40
1.0
 40
1.0
 40
1.0
 40
1.0
 10
358.4148071783
 20
90.3243227372
 30
0.0
 10
358.4148071813
 20
90.4125144148
 30
0.0
 10
358.4467649503
 20
90.5921768294
 30
0.0
 10
358.5833923417
 20
90.8314545899
 30
0.0
 10
358.7933731916
 20
91.0189524449
 30
0.0
 10
358.9672873134
 20
91.0964234012
 30
0.0
 10
359.0583939633
 20
91.12160911
 30
0.0
  0
SPLINE
  5
409
100
AcDbEntity
  8
0
100
AcDbSpline
 62
1
  6
CONTINUOUS
 70
0
 71
3
 72
11
 73
7
 74
0
 42
0.0000001
 43
0.0000001
 44
0.0000000001
 40
0.0
 40
0.0
 40
0.0
 40
0.0
 40
0.2414887911
 40
0.488049382
 40
0.7411725622
 40
1.0
 40
1.0
 40
1.0
 40
1.0
 10
360.2148071783
 20
108.3243227372
 30
0.0
 10
360.2148071813
 20
108.2361310785
 30
0.0
 10
360.182849413
 20
108.0564686835
 30
0.0
 10
360.0462220612
 20
107.8171909404
 30
0.0
 10
359.8362412619
 20
107.6296931022
 30
0.0
 10
359.6623272007
 20
107.5522221353
 30
0.0
 10
359.571220587
 20
107.527036419
 30
0.0
  0
SPLINE
  5
40A
100
AcDbEntity
  8
0
100
AcDbSpline
 62
1
  6
CONTINUOUS
 70
0
 71
3
 72
11
 73
7
 74
0
 42
0.0000001
 43
0.0000001
 44
0.0000000001
 40
0.0
 40
0.0
 40
0.0
 40
0.0
 40
0.2588274378
 40
0.511950618
 40
0.7585112089
 40
1.0
 40
1.0
 40
1.0
 40
1.0
 10
359.571220587
 20
91.1216090554
 30
0.0
 10
359.6623272007
 20
91.0964233391
 30
0.0
 10
359.8362412619
 20
91.0189523722
 30
0.0
 10
360.0462220612
 20
90.831454534
 30
0.0
 10
360.182849413
 20
90.5921767909
 30
0.0
 10
360.2148071813
 20
90.4125143959
 30
0.0
 10
360.2148071783
 20
90.3243227372
 30
0.0
  0
SPLINE
  5
40B
100
AcDbEntity
  8
0
100
AcDbSpline
 62
1
  6
CONTINUOUS
 70
0
 71
3
 72
11
 73
7
 74
0
 42
0.0000001
 43
0.0000001
 44
0.0000000001
 40
0.0
 40
0.0
 40
0.0
 40
0.0
 40
0.2399287887
 40
0.4851538025
 40
0.7392288905
 40
1.0
 40
1.0
 40
1.0
 40
1.0
 10
358.4148071783
 20
108.3243227372
 30
0.0
 10
358.4148071748
 20
108.4316544717
 30
0.0
 10
358.4629101092
 20
108.6514591886
 30
0.0
 10
358.6667156044
 20
108.9233394825
 30
0.0
 10
358.9656597942
 20
109.1012128715
 30
0.0
 10
359.1981516671
 20
109.14198348
 30
0.0
 10
359.3148071783
 20
109.14198348
 30
0.0
  0
SPLINE
  5
40C
100
AcDbEntity
  8
0
100
AcDbSpline
 62
1
  6
CONTINUOUS
 70
0
 71
3
 72
11
 73
7
 74
0
 42
0.0000001
 43
0.0000001
 44
0.0000000001
 40
0.0
 40
0.0
 40
0.0
 40
0.0
 40
0.2413740606
 40
0.4883741197
 40
0.741580801
 40
1.0
 40
1.0
 40
1.0
 40
1.0
 10
358.4387991451
 20
108.3134761295
 30
0.0
 10
358.4592717663
 20
108.3930125042
 30
0.0
 10
358.5271974109
 20
108.5482433759
 30
0.0
 10
358.6965712829
 20
108.7402077568
 30
0.0
 10
358.9185843756
 20
108.878470365
 30
0.0
 10
359.0885530631
 20
108.9266724131
 30
0.0
 10
359.175586487
 20
108.9391876324
 30
0.0
  0
SPLINE
  5
40D
100
AcDbEntity
  8
0
100
AcDbSpline
 62
1
  6
CONTINUOUS
 70
0
 71
3
 72
11
 73
7
 74
0
 42
0.0000001
 43
0.0000001
 44
0.0000000001
 40
0.0
 40
0.0
 40
0.0
 40
0.0
 40
0.2607711132
 40
0.5148462317
 40
0.760071208
 40
1.0
 40
1.0
 40
1.0
 40
1.0
 10
359.3148071783
 20
109.14198348
 30
0.0
 10
359.4314626913
 20
109.14198348
 30
0.0
 10
359.6639545794
 20
109.1012128643
 30
0.0
 10
359.962898764
 20
108.9233394692
 30
0.0
 10
360.1667042609
 20
108.6514591772
 30
0.0
 10
360.2148071748
 20
108.4316544733
 30
0.0
 10
360.2148071783
 20
108.3243227372
 30
0.0
  0
SPLINE
  5
40E
100
AcDbEntity
  8
0
100
AcDbSpline
 62
1
  6
CONTINUOUS
 70
0
 71
3
 72
11
 73
7
 74
0
 42
0.0000001
 43
0.0000001
 44
0.0000000001
 40
0.0
 40
0.0
 40
0.0
 40
0.0
 40
0.2413740606
 40
0.4883741197
 40
0.741580801
 40
1.0
 40
1.0
 40
1.0
 40
1.0
 10
360.1908152116
 20
90.3351693449
 30
0.0
 10
360.1703425904
 20
90.2556329701
 30
0.0
 10
360.1024169458
 20
90.1004020985
 30
0.0
 10
359.9330430738
 20
89.9084377176
 30
0.0
 10
359.7110299811
 20
89.7701751094
 30
0.0
 10
359.5410612935
 20
89.7219730613
 30
0.0
 10
359.4540278697
 20
89.709457842
 30
0.0
  0
SPLINE
  5
40F
100
AcDbEntity
  8
0
100
AcDbSpline
 62
1
  6
CONTINUOUS
 70
0
 71
3
 72
11
 73
7
 74
0
 42
0.0000001
 43
0.0000001
 44
0.0000000001
 40
0.0
 40
0.0
 40
0.0
 40
0.0
 40
0.239928792
 40
0.4851537683
 40
0.7392288868
 40
1.0
 40
1.0
 40
1.0
 40
1.0
 10
360.2148071783
 20
90.3243227372
 30
0.0
 10
360.2148071748
 20
90.2169910011
 30
0.0
 10
360.1667042609
 20
89.9971862972
 30
0.0
 10
359.962898764
 20
89.7253060051
 30
0.0
 10
359.6639545794
 20
89.5474326101
 30
0.0
 10
359.4314626913
 20
89.5066619944
 30
0.0
 10
359.3148071783
 20
89.5066619944
 30
0.0
  0
SPLINE
  5
410
100
AcDbEntity
  8
0
100
AcDbSpline
 62
1
  6
CONTINUOUS
 70
0
 71
3
 72
11
 73
7
 74
0
 42
0.0000001
 43
0.0000001
 44
0.0000000001
 40
0.0
 40
0.0
 40
0.0
 40
0.0
 40
0.2607711095
 40
0.5148461975
 40
0.7600712113
 40
1.0
 40
1.0
 40
1.0
 40
1.0
 10
359.3148071783
 20
89.5066619944
 30
0.0
 10
359.1981516671
 20
89.5066619944
 30
0.0
 10
358.9656597942
 20
89.5474326028
 30
0.0
 10
358.6667156044
 20
89.7253059918
 30
0.0
 10
358.4629101092
 20
89.9971862858
 30
0.0
 10
358.4148071748
 20
90.2169910027
 30
0.0
 10
358.4148071783
 20
90.3243227372
 30
0.0
  0
SPLINE
  5
411
100
AcDbEntity
  8
0
100
AcDbSpline
 62
1
  6
CONTINUOUS
 70
0
 71
3
 72
11
 73
7
 74
0
 42
0.0000001
 43
0.0000001
 44
0.0000000001
 40
0.0
 40
0.0
 40
0.0
 40
0.0
 40
0.241380364
 40
0.488380719
 40
0.7415829574
 40
1.0
 40
1.0
 40
1.0
 40
1.0
 10
358.4387991451
 20
90.3351693449
 30
0.0
 10
358.4592539229
 20
90.255702292
 30
0.0
 10
358.5270951504
 20
90.100604113
 30
0.0
 10
358.6962370904
 20
89.9087484288
 30
0.0
 10
358.9179581745
 20
89.7704754365
 30
0.0
 10
359.0877277792
 20
89.722175506
 30
0.0
 10
359.1746705721
 20
89.7095899875
 30
0.0
  0
SPLINE
  5
412
100
AcDbEntity
  8
0
100
AcDbSpline
 62
1
  6
CONTINUOUS
 70
0
 71
3
 72
11
 73
7
 74
0
 42
0.0000001
 43
0.0000001
 44
0.0000000001
 40
0.0
 40
0.0
 40
0.0
 40
0.0
 40
0.241380364
 40
0.488380719
 40
0.7415829574
 40
1.0
 40
1.0
 40
1.0
 40
1.0
 10
360.1908152116
 20
108.3134761295
 30
0.0
 10
360.1703604338
 20
108.3929431824
 30
0.0
 10
360.1025192063
 20
108.5480413614
 30
0.0
 10
359.9333772662
 20
108.7398970456
 30
0.0
 10
359.7116561821
 20
108.8781700379
 30
0.0
 10
359.5418865775
 20
108.9264699684
 30
0.0
 10
359.4549437846
 20
108.9390554869
 30
0.0
  0
SPLINE
  5
413
100
AcDbEntity
  8
______
100
AcDbSpline
 62
5
  6
ACAD_ISO04W100
 70
0
 71
3
 72
15
 73
11
 74
0
 42
0.0000001
 43
0.0000001
 44
0.0000000001
 40
0.0
 40
0.0
 40
0.0
 40
0.0
 40
0.1290415395
 40
0.2560836679
 40
0.3803585661
 40
0.5028137024
 40
0.6252827268
 40
0.7489780917
 40
0.8740137728
 40
1.0
 40
1.0
 40
1.0
 40
1.0
 10
349.1089089453
 20
344.1927381834
 30
0.0
 10
349.1456917244
 20
344.209890275
 30
0.0
 10
349.2203876385
 20
344.2404195896
 30
0.0
 10
349.3353005673
 20
344.2744170777
 30
0.0
 10
349.4513112334
 20
344.2950842614
 30
0.0
 10
349.5676881653
 20
344.3004827497
 30
0.0
 10
349.6834820238
 20
344.2879999222
 30
0.0
 10
349.7961921566
 20
344.2549898555
 30
0.0
 10
349.9013696006
 20
344.2001299471
 30
0.0
 10
349.9628439484
 20
344.1494750241
 30
0.0
 10
349.9905510592
 20
344.1211482407
 30
0.0
  0
SPLINE
  5
414
100
AcDbEntity
  8
______
100
AcDbSpline
 62
5
  6
ACAD_ISO04W100
 70
0
 71
3
 72
15
 73
11
 74
0
 42
0.0000001
 43
0.0000001
 44
0.0000000001
 40
0.0
 40
0.0
 40
0.0
 40
0.0
 40
0.1260035253
 40
0.251064127
 40
0.3747758676
 40
0.4972422513
 40
0.6196903125
 40
0.7439486366
 40
0.8709767983
 40
1.0
 40
1.0
 40
1.0
 40
1.0
 10
348.597082533
 20
343.4709393456
 30
0.0
 10
348.5931582656
 20
343.5103915323
 30
0.0
 10
348.5938184583
 20
343.5900935081
 30
0.0
 10
348.619353661
 20
343.7060098158
 30
0.0
 10
348.6665013087
 20
343.8136452747
 30
0.0
 10
348.7313756061
 20
343.9104319872
 30
0.0
 10
348.8103317706
 20
343.996155622
 30
0.0
 10
348.9007588871
 20
344.0717715301
 30
0.0
 10
349.0006938501
 20
344.137972037
 30
0.0
 10
349.0721155538
 20
344.1755811432
 30
0.0
 10
349.1089089453
 20
344.1927381834
 30
0.0
  0
SPLINE
  5
415
100
AcDbEntity
  8
______
100
AcDbSpline
 62
5
  6
ACAD_ISO04W100
 70
0
 71
3
 72
13
 73
9
 74
0
 42
0.0000001
 43
0.0000001
 44
0.0000000001
 40
0.0
 40
0.0
 40
0.0
 40
0.0
 40
0.0701452962
 40
0.1530106163
 40
0.2544473266
 40
0.3755380416
 40
0.6675473741
 40
1.0
 40
1.0
 40
1.0
 40
1.0
 10
350.031674862
 20
344.343441714
 30
0.0
 10
350.0419520977
 20
344.3214021063
 30
0.0
 10
350.0513335221
 20
344.2669348177
 30
0.0
 10
350.0303502318
 20
344.1797709456
 30
0.0
 10
349.9800302068
 20
344.0857639607
 30
0.0
 10
349.8686566826
 20
343.9455635846
 30
0.0
 10
349.668508995
 20
343.7783438926
 30
0.0
 10
349.4795716684
 20
343.6705657028
 30
0.0
 10
349.3751152675
 20
343.6218568831
 30
0.0
  0
SPLINE
  5
416
100
AcDbEntity
  8
______
100
AcDbSpline
 62
5
  6
ACAD_ISO04W100
 70
0
 71
3
 72
13
 73
9
 74
0
 42
0.0000001
 43
0.0000001
 44
0.0000000001
 40
0.0
 40
0.0
 40
0.0
 40
0.0
 40
0.332452621
 40
0.624461921
 40
0.7455526508
 40
0.8469893821
 40
0.9298547099
 40
1.0
 40
1.0
 40
1.0
 40
1.0
 10
349.3751152675
 20
343.6218568831
 30
0.0
 10
349.270658868
 20
343.5731480641
 30
0.0
 10
349.0666494246
 20
343.4976921611
 30
0.0
 10
348.8098992641
 20
343.4518568863
 30
0.0
 10
348.6309100208
 20
343.4566588731
 30
0.0
 10
348.5265513913
 20
343.4785380306
 30
0.0
 10
348.4462921777
 20
343.5184917451
 30
0.0
 10
348.4105980802
 20
343.560689237
 30
0.0
 10
348.4003208453
 20
343.5827288428
 30
0.0
  0
SPLINE
  5
417
100
AcDbEntity
  8
______
100
AcDbSpline
 62
5
  6
ACAD_ISO04W100
 70
0
 71
3
 72
11
 73
7
 74
0
 42
0.0000001
 43
0.0000001
 44
0.0000000001
 40
0.0
 40
0.0
 40
0.0
 40
0.0
 40
0.1479782943
 40
0.4999947093
 40
0.8520162991
 40
1.0
 40
1.0
 40
1.0
 40
1.0
 10
335.7338387312
 20
339.7488466558
 30
0.0
 10
336.2189139541
 20
339.8556842128
 30
0.0
 10
337.848369885
 20
340.2672232679
 30
0.0
 10
340.5443897937
 20
341.2635086795
 30
0.0
 10
343.0405785437
 20
342.6883796831
 30
0.0
 10
344.4032596917
 20
343.6721027303
 30
0.0
 10
344.7969166016
 20
343.9750292732
 30
0.0
  0
SPLINE
  5
418
100
AcDbEntity
  8
______
100
AcDbSpline
 62
5
  6
ACAD_ISO04W100
 70
0
 71
3
 72
11
 73
7
 74
0
 42
0.0000001
 43
0.0000001
 44
0.0000000001
 40
0.0
 40
0.0
 40
0.0
 40
0.0
 40
0.3428957855
 40
0.5002953937
 40
0.6418092445
 40
1.0
 40
1.0
 40
1.0
 40
1.0
 10
349.0708301191
 20
344.2743984898
 30
0.0
 10
349.1751705841
 20
344.3230532477
 30
0.0
 10
349.3314883605
 20
344.3841004068
 30
0.0
 10
349.5433453988
 20
344.4367295156
 30
0.0
 10
349.7516694453
 20
344.4693554853
 30
0.0
 10
349.9808498521
 20
344.4524363208
 30
0.0
 10
350.031674862
 20
344.343441714
 30
0.0
  0
SPLINE
  5
419
100
AcDbEntity
  8
______
100
AcDbSpline
 62
5
  6
ACAD_ISO04W100
 70
0
 71
3
 72
11
 73
7
 74
0
 42
0.0000001
 43
0.0000001
 44
0.0000000001
 40
0.0
 40
0.0
 40
0.0
 40
0.0
 40
0.3581907194
 40
0.4997045732
 40
0.6571042107
 40
1.0
 40
1.0
 40
1.0
 40
1.0
 10
348.4003208453
 20
343.5827288428
 30
0.0
 10
348.3494958405
 20
343.691723439
 30
0.0
 10
348.483849293
 20
343.8781612269
 30
0.0
 10
348.6427503513
 20
344.0167751416
 30
0.0
 10
348.8192456762
 20
344.1452377174
 30
0.0
 10
348.9664896526
 20
344.2257437312
 30
0.0
 10
349.0708301191
 20
344.2743984898
 30
0.0
  0
ENDSEC
  0
SECTION
  2
OBJECTS
  0
DICTIONARY
  5
C
100
AcDbDictionary
280
0
281
1
  3
ACAD_GROUP
350
D
  3
ACAD_MLINESTYLE
350
17
  3
ACAD_LAYOUT
350
1A
  3
ACAD_PLOTSETTINGS
350
19
  3
ACAD_PLOTSTYLENAME
350
E
  0
DICTIONARY
  5
D
102
{ACAD_REACTORS
330
C
102
}
100
AcDbDictionary
280
0
281
1
  0
ACDBDICTIONARYWDFLT
  5
E
102
{ACAD_REACTORS
330
C
102
}
100
AcDbDictionary
281
1
  3
Normal
350
F
100
AcDbDictionaryWithDefault
340
F
  0
DICTIONARY
  5
17
102
{ACAD_REACTORS
330
C
102
}
100
AcDbDictionary
280
0
281
1
  3
Standard
350
18
  0
DICTIONARY
  5
19
102
{ACAD_REACTORS
330
C
102
}
100
AcDbDictionary
281
1
  0
DICTIONARY
  5
1A
102
{ACAD_REACTORS
330
C
102
}
100
AcDbDictionary
281
1
  3
Model
350
41A
  3
Layout1
350
41B
  0
ACDBPLACEHOLDER
  5
F
102
{ACAD_REACTORS
330
E
102
}
  0
MLINESTYLE
  5
18
102
{ACAD_REACTORS
330
17
102
}
100
AcDbMlineStyle
  2
STANDARD
 70
0
  3

 62
256
 51
90.0
 52
90.0
 71
2
 49
0.5
 62
256
  6
BYLAYER
 49
-0.5
 62
256
  6
BYLAYER
  0
LAYOUT
  5
41A
102
{ACAD_REACTORS
330
1A
102
}
100
AcDbPlotSettings
  1

  2
none_device
  4

  6

 40
0.0
 41
0.0
 42
0.0
 43
0.0
 44
846.45
 45
598.5
 46
0.0
 47
0.0
 48
0.0
 49
0.0
140
0.0
141
0.0
142
1.0
143
1.0
 70
1024
 72
1
 73
0
 74
0
  7

 75
0
147
1.0
148
0.0
149
0.0
100
AcDbLayout
  1
Model
 70
0
 71
0
 10
0.0
 20
0.0
 11
846.45
 21
598.5
 12
0.0
 22
0.0
 32
0.0
 14
0.0
 24
0.0
 34
0.0
 15
0.0
 25
0.0
 35
0.0
146
0.0
 13
0.0
 23
0.0
 33
0.0
 16
1.0
 26
0.0
 36
0.0
 17
0.0
 27
1.0
 37
0.0
 76
0
330
220
345
0
346
0
  0
LAYOUT
  5
41B
102
{ACAD_REACTORS
330
1A
102
}
100
AcDbPlotSettings
  1

  2
none_device
  4

  6

 40
0.0
 41
0.0
 42
0.0
 43
0.0
 44
846.45
 45
598.5
 46
0.0
 47
0.0
 48
0.0
 49
0.0
140
0.0
141
0.0
142
1.0
143
1.0
 70
0
 72
1
 73
0
 74
0
  7

 75
0
147
1.0
148
0.0
149
0.0
100
AcDbLayout
  1
Layout1
 70
0
 71
1
 10
0.0
 20
0.0
 11
846.45
 21
598.5
 12
0.0
 22
0.0
 32
0.0
 14
0.0
 24
0.0
 34
0.0
 15
0.0
 25
0.0
 35
0.0
146
0.0
 13
0.0
 23
0.0
 33
0.0
 16
1.0
 26
0.0
 36
0.0
 17
0.0
 27
1.0
 37
0.0
 76
0
330
221
345
0
346
0
  0
ENDSEC
  0
EOF
