  0
SECTION
  2
HEADER
  9
$ACADVER
  1
AC1024
  9
$ACADMAINTVER
 70
     6
  9
$DWGCODEPAGE
  3
ANSI_936
  9
$INSBASE
 10
0.0
 20
0.0
 30
0.0
  9
$EXTMIN
 10
-244.051257030454
 20
-176.7058895903847
 30
0.0
  9
$EXTMAX
 10
851.4325483500413
 20
292.5398078671194
 30
0.0
  9
$LIMMIN
 10
-148.5
 20
-105.0
  9
$LIMMAX
 10
148.5
 20
105.0
  9
$ORTHOMODE
 70
     0
  9
$REGENMODE
 70
     1
  9
$FILLMODE
 70
     1
  9
$QTEXTMODE
 70
     0
  9
$MIRRTEXT
 70
     1
  9
$LTSCALE
 40
154.0077056884766
  9
$ATTMODE
 70
     1
  9
$TEXTSIZE
 40
0.0
  9
$TRACEWID
 40
1.0
  9
$TEXTSTYLE
  7
标准
  9
$CLAYER
  8
0
  9
$CELTYPE
  6
ByLayer
  9
$CECOLOR
 62
   256
  9
$CELTSCALE
 40
1.0
  9
$DISPSILH
 70
     0
  9
$DIMSCALE
 40
5.0
  9
$DIMASZ
 40
2.5
  9
$DIMEXO
 40
0.0
  9
$DIMDLI
 40
0.38
  9
$DIMRND
 40
0.0
  9
$DIMDLE
 40
6.0
  9
$DIMEXE
 40
2.0
  9
$DIMTP
 40
0.0
  9
$DIMTM
 40
0.0
  9
$DIMTXT
 40
2.5
  9
$DIMCEN
 40
0.0
  9
$DIMTSZ
 40
0.0
  9
$DIMTOL
 70
     0
  9
$DIMLIM
 70
     0
  9
$DIMTIH
 70
     0
  9
$DIMTOH
 70
     0
  9
$DIMSE1
 70
     0
  9
$DIMSE2
 70
     0
  9
$DIMTAD
 70
     1
  9
$DIMZIN
 70
     8
  9
$DIMBLK
  1
CAXARROW
  9
$DIMASO
 70
     1
  9
$DIMSHO
 70
     1
  9
$DIMPOST
  1

  9
$DIMAPOST
  1

  9
$DIMALT
 70
     0
  9
$DIMALTD
 70
     2
  9
$DIMALTF
 40
1.0
  9
$DIMLFAC
 40
1.0
  9
$DIMTOFL
 70
     1
  9
$DIMTVP
 40
0.0
  9
$DIMTIX
 70
     0
  9
$DIMSOXD
 70
     0
  9
$DIMSAH
 70
     0
  9
$DIMBLK1
  1

  9
$DIMBLK2
  1

  9
$DIMSTYLE
  2
标准
  9
$DIMCLRD
 70
     0
  9
$DIMCLRE
 70
     0
  9
$DIMCLRT
 70
     0
  9
$DIMTFAC
 40
0.707107
  9
$DIMGAP
 40
0.625
  9
$DIMJUST
 70
     0
  9
$DIMSD1
 70
     0
  9
$DIMSD2
 70
     0
  9
$DIMTOLJ
 70
     1
  9
$DIMTZIN
 70
     8
  9
$DIMALTZ
 70
     0
  9
$DIMALTTZ
 70
     0
  9
$DIMUPT
 70
     0
  9
$DIMDEC
 70
     2
  9
$DIMTDEC
 70
     3
  9
$DIMALTU
 70
     2
  9
$DIMALTTD
 70
     2
  9
$DIMTXSTY
  7
标准
  9
$DIMAUNIT
 70
     0
  9
$DIMADEC
 70
     2
  9
$DIMALTRND
 40
0.0
  9
$DIMAZIN
 70
     2
  9
$DIMDSEP
 70
    46
  9
$DIMATFIT
 70
     3
  9
$DIMFRAC
 70
     2
  9
$DIMLDRBLK
  1

  9
$DIMLUNIT
 70
     2
  9
$DIMLWD
 70
    -1
  9
$DIMLWE
 70
    -1
  9
$DIMTMOVE
 70
     2
  9
$DIMFXL
 40
1.0
  9
$DIMFXLON
 70
     0
  9
$DIMJOGANG
 40
0.7853981633974483
  9
$DIMTFILL
 70
     0
  9
$DIMTFILLCLR
 70
     0
  9
$DIMARCSYM
 70
     1
  9
$DIMLTYPE
  6
Continuous
  9
$DIMLTEX1
  6
Continuous
  9
$DIMLTEX2
  6
Continuous
  9
$DIMTXTDIRECTION
 70
     0
  9
$LUNITS
 70
     2
  9
$LUPREC
 70
     4
  9
$SKETCHINC
 40
1.0
  9
$FILLETRAD
 40
10.0
  9
$AUNITS
 70
     0
  9
$AUPREC
 70
     0
  9
$MENU
  1
.
  9
$ELEVATION
 40
0.0
  9
$PELEVATION
 40
0.0
  9
$THICKNESS
 40
0.0
  9
$LIMCHECK
 70
     0
  9
$CHAMFERA
 40
10.0
  9
$CHAMFERB
 40
10.0
  9
$CHAMFERC
 40
20.0
  9
$CHAMFERD
 40
0.0
  9
$SKPOLY
 70
     0
  9
$TDCREATE
 40
2458415.482397685
  9
$TDUCREATE
 40
2458415.149064352
  9
$TDUPDATE
 40
2458415.482398761
  9
$TDUUPDATE
 40
2458415.149065428
  9
$TDINDWG
 40
0.0000000116
  9
$TDUSRTIMER
 40
0.0000000116
  9
$USRTIMER
 70
     1
  9
$ANGBASE
 50
0.0
  9
$ANGDIR
 70
     0
  9
$PDMODE
 70
     3
  9
$PDSIZE
 40
1.0
  9
$PLINEWID
 40
0.0
  9
$SPLFRAME
 70
     0
  9
$SPLINETYPE
 70
     6
  9
$SPLINESEGS
 70
     8
  9
$HANDSEED
  5
327
  9
$SURFTAB1
 70
     6
  9
$SURFTAB2
 70
     6
  9
$SURFTYPE
 70
     6
  9
$SURFU
 70
     6
  9
$SURFV
 70
     6
  9
$UCSBASE
  2

  9
$UCSNAME
  2

  9
$UCSORG
 10
0.0
 20
0.0
 30
0.0
  9
$UCSXDIR
 10
1.0
 20
0.0
 30
0.0
  9
$UCSYDIR
 10
0.0
 20
1.0
 30
0.0
  9
$UCSORTHOREF
  2

  9
$UCSORTHOVIEW
 70
     0
  9
$UCSORGTOP
 10
0.0
 20
0.0
 30
0.0
  9
$UCSORGBOTTOM
 10
0.0
 20
0.0
 30
0.0
  9
$UCSORGLEFT
 10
0.0
 20
0.0
 30
0.0
  9
$UCSORGRIGHT
 10
0.0
 20
0.0
 30
0.0
  9
$UCSORGFRONT
 10
0.0
 20
0.0
 30
0.0
  9
$UCSORGBACK
 10
0.0
 20
0.0
 30
0.0
  9
$PUCSBASE
  2

  9
$PUCSNAME
  2

  9
$PUCSORG
 10
0.0
 20
0.0
 30
0.0
  9
$PUCSXDIR
 10
1.0
 20
0.0
 30
0.0
  9
$PUCSYDIR
 10
0.0
 20
1.0
 30
0.0
  9
$PUCSORTHOREF
  2

  9
$PUCSORTHOVIEW
 70
     0
  9
$PUCSORGTOP
 10
0.0
 20
0.0
 30
0.0
  9
$PUCSORGBOTTOM
 10
0.0
 20
0.0
 30
0.0
  9
$PUCSORGLEFT
 10
0.0
 20
0.0
 30
0.0
  9
$PUCSORGRIGHT
 10
0.0
 20
0.0
 30
0.0
  9
$PUCSORGFRONT
 10
0.0
 20
0.0
 30
0.0
  9
$PUCSORGBACK
 10
0.0
 20
0.0
 30
0.0
  9
$USERI1
 70
     0
  9
$USERI2
 70
     0
  9
$USERI3
 70
     0
  9
$USERI4
 70
     0
  9
$USERI5
 70
     0
  9
$USERR1
 40
0.0
  9
$USERR2
 40
0.0
  9
$USERR3
 40
0.0
  9
$USERR4
 40
0.0
  9
$USERR5
 40
0.0
  9
$WORLDVIEW
 70
     1
  9
$SHADEDGE
 70
     3
  9
$SHADEDIF
 70
    70
  9
$TILEMODE
 70
     1
  9
$MAXACTVP
 70
    64
  9
$PINSBASE
 10
0.0
 20
0.0
 30
0.0
  9
$PLIMCHECK
 70
     0
  9
$PEXTMIN
 10
1.000000000000000E+20
 20
1.000000000000000E+20
 30
1.000000000000000E+20
  9
$PEXTMAX
 10
-1.000000000000000E+20
 20
-1.000000000000000E+20
 30
-1.000000000000000E+20
  9
$PLIMMIN
 10
0.0
 20
0.0
  9
$PLIMMAX
 10
420.0
 20
297.0
  9
$UNITMODE
 70
     0
  9
$VISRETAIN
 70
     1
  9
$PLINEGEN
 70
     0
  9
$PSLTSCALE
 70
     1
  9
$TREEDEPTH
 70
  3020
  9
$CMLSTYLE
  2
Standard
  9
$CMLJUST
 70
     0
  9
$CMLSCALE
 40
20.0
  9
$PROXYGRAPHICS
 70
     1
  9
$MEASUREMENT
 70
     1
  9
$CELWEIGHT
370
    -1
  9
$ENDCAPS
280
     0
  9
$JOINSTYLE
280
     0
  9
$LWDISPLAY
290
     0
  9
$INSUNITS
 70
     4
  9
$HYPERLINKBASE
  1

  9
$STYLESHEET
  1

  9
$XEDIT
290
     1
  9
$CEPSNTYPE
380
     0
  9
$PSTYLEMODE
290
     1
  9
$FINGERPRINTGUID
  2
{D3A32827-7AE1-4958-BE42-AD78777BE1BE}
  9
$VERSIONGUID
  2
{FAEB1C32-E019-11D5-929B-00C0DF256EC4}
  9
$EXTNAMES
290
     1
  9
$PSVPSCALE
 40
0.0
  9
$OLESTARTUP
290
     0
  9
$SORTENTS
280
   127
  9
$INDEXCTL
280
     0
  9
$HIDETEXT
280
     1
  9
$XCLIPFRAME
280
     2
  9
$HALOGAP
280
     0
  9
$OBSCOLOR
 70
   257
  9
$OBSLTYPE
280
     0
  9
$INTERSECTIONDISPLAY
280
     0
  9
$INTERSECTIONCOLOR
 70
   257
  9
$DIMASSOC
280
     2
  9
$PROJECTNAME
  1

  9
$CAMERADISPLAY
290
     0
  9
$LENSLENGTH
 40
50.0
  9
$CAMERAHEIGHT
 40
0.0
  9
$STEPSPERSEC
 40
2.0
  9
$STEPSIZE
 40
6.0
  9
$3DDWFPREC
 40
2.0
  9
$PSOLWIDTH
 40
5.0
  9
$PSOLHEIGHT
 40
80.0
  9
$LOFTANG1
 40
1.570796326794897
  9
$LOFTANG2
 40
1.570796326794897
  9
$LOFTMAG1
 40
0.0
  9
$LOFTMAG2
 40
0.0
  9
$LOFTPARAM
 70
     7
  9
$LOFTNORMALS
280
     1
  9
$LATITUDE
 40
37.795
  9
$LONGITUDE
 40
-122.394
  9
$NORTHDIRECTION
 40
0.0
  9
$TIMEZONE
 70
 -8000
  9
$LIGHTGLYPHDISPLAY
280
     1
  9
$TILEMODELIGHTSYNCH
280
     1
  9
$SOLIDHIST
280
     1
  9
$SHOWHIST
280
     1
  9
$DWFFRAME
280
     2
  9
$DGNFRAME
280
     2
  9
$REALWORLDSCALE
290
     1
  9
$INTERFERECOLOR
 62
   256
  9
$CSHADOW
280
     0
  9
$SHADOWPLANELOCATION
 40
0.0
  0
ENDSEC
  0
SECTION
  2
CLASSES
  0
CLASS
  1
ACDBDICTIONARYWDFLT
  2
AcDbDictionaryWithDefault
  3
ObjectDBX Classes
 90
        0
 91
        4
280
     0
281
     0
  0
CLASS
  1
VISUALSTYLE
  2
AcDbVisualStyle
  3
ObjectDBX Classes
 90
     4095
 91
        4
280
     0
281
     0
  0
CLASS
  1
MATERIAL
  2
AcDbMaterial
  3
ObjectDBX Classes
 90
     1153
 91
        4
280
     0
281
     0
  0
ENDSEC
  0
SECTION
  2
TABLES
  0
TABLE
  2
VPORT
  5
8
330
0
100
AcDbSymbolTable
 70
     1
  0
VPORT
  5
29
330
8
100
AcDbSymbolTableRecord
100
AcDbViewportTableRecord
  2
*Active
 70
     0
 10
0.0
 20
0.0
 11
1.0
 21
1.0
 12
303.6906456597937
 22
57.91695913836733
 13
0.0
 23
0.0
 14
10.0
 24
10.0
 15
10.0
 25
10.0
 16
0.0
 26
0.0
 36
1.0
 17
0.0
 27
0.0
 37
0.0
 40
469.2456974575041
 41
2.334563345633456
 42
50.0
 43
0.0
 44
0.0
 50
0.0
 51
0.0
 71
     0
 72
   100
 73
     1
 74
     3
 75
     0
 76
     0
 77
     0
 78
     0
281
     0
 65
     1
110
0.0
120
0.0
130
0.0
111
1.0
121
0.0
131
0.0
112
0.0
122
1.0
132
0.0
 79
     0
146
0.0
 60
     3
 61
     5
292
     1
282
     1
141
0.0
142
0.0
 63
   250
  0
ENDTAB
  0
TABLE
  2
LTYPE
  5
5
330
0
100
AcDbSymbolTable
 70
     4
  0
LTYPE
  5
14
330
5
100
AcDbSymbolTableRecord
100
AcDbLinetypeTableRecord
  2
ByBlock
 70
     0
  3

 72
    65
 73
     0
 40
0.0
  0
LTYPE
  5
15
330
5
100
AcDbSymbolTableRecord
100
AcDbLinetypeTableRecord
  2
ByLayer
 70
     0
  3

 72
    65
 73
     0
 40
0.0
  0
LTYPE
  5
16
330
5
100
AcDbSymbolTableRecord
100
AcDbLinetypeTableRecord
  2
Continuous
 70
     0
  3
Solid line
 72
    65
 73
     0
 40
0.0
  0
LTYPE
  5
86
330
5
100
AcDbSymbolTableRecord
100
AcDbLinetypeTableRecord
  2
虚线
 70
     0
  3
虚线: __ __ __ __ __ __ __ __ __ __ __ __ __
 72
    65
 73
     2
 40
2.0
 49
1.0
 74
     0
 49
-1.0
 74
     0
  0
LTYPE
  5
87
330
5
100
AcDbSymbolTableRecord
100
AcDbLinetypeTableRecord
  2
点画线
 70
     0
  3
点画线: ____ . ____ . ____ . ____ . ____ . ____
 72
    65
 73
     4
 40
18.0
 49
12.0
 74
     0
 49
-2.0
 74
     0
 49
2.0
 74
     0
 49
-2.0
 74
     0
  0
LTYPE
  5
88
330
5
100
AcDbSymbolTableRecord
100
AcDbLinetypeTableRecord
  2
双点画线
 70
     0
  3
双点画线: ____ . . ____ . . ____ . . ____ . . ____ 
 72
    65
 73
     6
 40
22.0
 49
12.0
 74
     0
 49
-2.0
 74
     0
 49
2.0
 74
     0
 49
-2.0
 74
     0
 49
2.0
 74
     0
 49
-2.0
 74
     0
  0
ENDTAB
  0
TABLE
  2
LAYER
  5
2
330
0
100
AcDbSymbolTable
 70
     9
  0
LAYER
  5
10
330
2
100
AcDbSymbolTableRecord
100
AcDbLayerTableRecord
  2
0
 70
     0
 62
     7
  6
Continuous
370
    35
390
F
347
3E
1001
AcAecLayerStandard
1000

1000

  0
LAYER
  5
8A
330
2
100
AcDbSymbolTableRecord
100
AcDbLayerTableRecord
  2
中心线层
 70
     0
 62
     1
  6
点画线
370
    18
390
F
347
3E
1001
AcAecLayerStandard
1000

1000
中心线层
  0
LAYER
  5
8B
330
2
100
AcDbSymbolTableRecord
100
AcDbLayerTableRecord
  2
虚线层
 70
     0
 62
     6
  6
虚线
370
    18
390
F
347
3E
1001
AcAecLayerStandard
1000

1000
虚线层
  0
LAYER
  5
8C
330
2
100
AcDbSymbolTableRecord
100
AcDbLayerTableRecord
  2
细实线层
 70
     0
 62
     7
  6
Continuous
370
    18
390
F
347
3E
1001
AcAecLayerStandard
1000

1000
细实线层
  0
LAYER
  5
8D
330
2
100
AcDbSymbolTableRecord
100
AcDbLayerTableRecord
  2
粗实线层
 70
     0
 62
     7
  6
Continuous
370
    35
390
F
347
3E
1001
AcAecLayerStandard
1000

1000
粗实线层
  0
LAYER
  5
8E
330
2
100
AcDbSymbolTableRecord
100
AcDbLayerTableRecord
  2
尺寸线层
 70
     0
 62
     3
  6
Continuous
370
    18
390
F
347
3E
1001
AcAecLayerStandard
1000

1000
尺寸线层
  0
LAYER
  5
8F
330
2
100
AcDbSymbolTableRecord
100
AcDbLayerTableRecord
  2
剖面线层
 70
     0
 62
     4
  6
Continuous
370
    18
390
F
347
3E
1001
AcAecLayerStandard
1000

1000
剖面线层
  0
LAYER
  5
90
330
2
100
AcDbSymbolTableRecord
100
AcDbLayerTableRecord
  2
隐藏层
 70
     0
 62
    -7
  6
Continuous
370
    18
390
F
347
3E
1001
AcAecLayerStandard
1000

1000
隐藏层
  0
LAYER
  5
91
330
2
100
AcDbSymbolTableRecord
100
AcDbLayerTableRecord
  2
02___PRT_ALL_AXES
 70
     0
 62
     7
  6
Continuous
370
    18
390
F
347
3E
1001
AcAecLayerStandard
1000

1000

  0
ENDTAB
  0
TABLE
  2
STYLE
  5
3
330
0
100
AcDbSymbolTable
 70
     2
  0
STYLE
  5
11
330
3
100
AcDbSymbolTableRecord
100
AcDbTextStyleTableRecord
  2
Standard
 70
     0
 40
0.0
 41
1.0
 50
0.0
 71
     0
 42
2.5
  3
txt
  4

  0
STYLE
  5
92
330
3
100
AcDbSymbolTableRecord
100
AcDbTextStyleTableRecord
  2
标准
 70
     0
 40
0.0
 41
0.667
 50
0.0
 71
     0
 42
0.0
  3

  4

1001
CAXA_DRAFT_TXTSTYLE
1041
0.1
1041
1.918
1001
ACAD
1000
宋体
1071
    34306
  0
ENDTAB
  0
TABLE
  2
VIEW
  5
6
330
0
100
AcDbSymbolTable
 70
     0
  0
ENDTAB
  0
TABLE
  2
UCS
  5
7
330
0
100
AcDbSymbolTable
 70
     0
  0
ENDTAB
  0
TABLE
  2
APPID
  5
9
330
0
100
AcDbSymbolTable
 70
    71
  0
APPID
  5
12
330
9
100
AcDbSymbolTableRecord
100
AcDbRegAppTableRecord
  2
ACAD
 70
     0
  0
APPID
  5
3F
330
9
100
AcDbSymbolTableRecord
100
AcDbRegAppTableRecord
  2
CAXA_DRAFT_PAPERORDER
 70
     0
  0
APPID
  5
40
330
9
100
AcDbSymbolTableRecord
100
AcDbRegAppTableRecord
  2
CAXA_DRAFT_ROUGH
 70
     0
  0
APPID
  5
41
330
9
100
AcDbSymbolTableRecord
100
AcDbRegAppTableRecord
  2
CAXA_DRAFT_DATUM
 70
     0
  0
APPID
  5
42
330
9
100
AcDbSymbolTableRecord
100
AcDbRegAppTableRecord
  2
CAXA_DRAFT_WELD
 70
     0
  0
APPID
  5
43
330
9
100
AcDbSymbolTableRecord
100
AcDbRegAppTableRecord
  2
CAXA_DRAFT_GEOTOL
 70
     0
  0
APPID
  5
44
330
9
100
AcDbSymbolTableRecord
100
AcDbRegAppTableRecord
  2
CAXA_DRAFT_CUTS
 70
     0
  0
APPID
  5
45
330
9
100
AcDbSymbolTableRecord
100
AcDbRegAppTableRecord
  2
CAXA_DRAFT_DIMHALF
 70
     0
  0
APPID
  5
46
330
9
100
AcDbSymbolTableRecord
100
AcDbRegAppTableRecord
  2
CAXA_DRAFT_DIMRAY
 70
     0
  0
APPID
  5
47
330
9
100
AcDbSymbolTableRecord
100
AcDbRegAppTableRecord
  2
CAXA_DRAFT_DIMARCLEN
 70
     0
  0
APPID
  5
48
330
9
100
AcDbSymbolTableRecord
100
AcDbRegAppTableRecord
  2
CAXA_DRAFT_DIMTAPER
 70
     0
  0
APPID
  5
49
330
9
100
AcDbSymbolTableRecord
100
AcDbRegAppTableRecord
  2
CAXA_DRAFT_DIMPITCH
 70
     0
  0
APPID
  5
4A
330
9
100
AcDbSymbolTableRecord
100
AcDbRegAppTableRecord
  2
CAXA_DRAFT_DIMCOORD
 70
     0
  0
APPID
  5
4B
330
9
100
AcDbSymbolTableRecord
100
AcDbRegAppTableRecord
  2
CAXA_DRAFT_DIMORIALIGN
 70
     0
  0
APPID
  5
4C
330
9
100
AcDbSymbolTableRecord
100
AcDbRegAppTableRecord
  2
CAXA_DRAFT_DIMHOLEPOS
 70
     0
  0
APPID
  5
4D
330
9
100
AcDbSymbolTableRecord
100
AcDbRegAppTableRecord
  2
CAXA_DRAFT_DIMCRDLEADER
 70
     0
  0
APPID
  5
4E
330
9
100
AcDbSymbolTableRecord
100
AcDbRegAppTableRecord
  2
CAXA_DRAFT_DIMCHAMFER
 70
     0
  0
APPID
  5
4F
330
9
100
AcDbSymbolTableRecord
100
AcDbRegAppTableRecord
  2
CAXA_DRAFT_DIMCENTERHOLE
 70
     0
  0
APPID
  5
50
330
9
100
AcDbSymbolTableRecord
100
AcDbRegAppTableRecord
  2
CAXA_DRAFT_DIMLEADER
 70
     0
  0
APPID
  5
51
330
9
100
AcDbSymbolTableRecord
100
AcDbRegAppTableRecord
  2
CAXA_DRAFT_DIMCRDLIST
 70
     0
  0
APPID
  5
52
330
9
100
AcDbSymbolTableRecord
100
AcDbRegAppTableRecord
  2
CAXA_DRAFT_PAPERSCALE
 70
     0
  0
APPID
  5
53
330
9
100
AcDbSymbolTableRecord
100
AcDbRegAppTableRecord
  2
CAXA_DRAFT_FILEVERSION
 70
     0
  0
APPID
  5
54
330
9
100
AcDbSymbolTableRecord
100
AcDbRegAppTableRecord
  2
CAXA_DRAFT_PRODUCTVERSION
 70
     0
  0
APPID
  5
55
330
9
100
AcDbSymbolTableRecord
100
AcDbRegAppTableRecord
  2
CAXA_DRAFT_DATATABLE
 70
     0
  0
APPID
  5
56
330
9
100
AcDbSymbolTableRecord
100
AcDbRegAppTableRecord
  2
CAXA_DRAFT_PAPERINFO
 70
     0
  0
APPID
  5
57
330
9
100
AcDbSymbolTableRecord
100
AcDbRegAppTableRecord
  2
CAXA_DRAFT_PAPERFRAME
 70
     0
  0
APPID
  5
58
330
9
100
AcDbSymbolTableRecord
100
AcDbRegAppTableRecord
  2
CAXA_DRAFT_PAPERTITLE
 70
     0
  0
APPID
  5
59
330
9
100
AcDbSymbolTableRecord
100
AcDbRegAppTableRecord
  2
CAXA_DRAFT_PAPERPAREATABLE
 70
     0
  0
APPID
  5
5A
330
9
100
AcDbSymbolTableRecord
100
AcDbRegAppTableRecord
  2
CAXA_DRAFT_PARTNO
 70
     0
  0
APPID
  5
5B
330
9
100
AcDbSymbolTableRecord
100
AcDbRegAppTableRecord
  2
CAXA_DRAFT_BOMTABLE
 70
     0
  0
APPID
  5
5C
330
9
100
AcDbSymbolTableRecord
100
AcDbRegAppTableRecord
  2
CAXA_DRAFT_BLKREF_EXTATT
 70
     0
  0
APPID
  5
5D
330
9
100
AcDbSymbolTableRecord
100
AcDbRegAppTableRecord
  2
CAXA_DRAFT_DBVIEWDATA
 70
     0
  0
APPID
  5
5E
330
9
100
AcDbSymbolTableRecord
100
AcDbRegAppTableRecord
  2
CAXA_DRAFT_DIMSYMTOL
 70
     0
  0
APPID
  5
5F
330
9
100
AcDbSymbolTableRecord
100
AcDbRegAppTableRecord
  2
CAXA_DRAFT_DIMASSEMTOL
 70
     0
  0
APPID
  5
60
330
9
100
AcDbSymbolTableRecord
100
AcDbRegAppTableRecord
  2
CAXA_DRAFT_DIMANGLETOL
 70
     0
  0
APPID
  5
61
330
9
100
AcDbSymbolTableRecord
100
AcDbRegAppTableRecord
  2
CAXA_DRAFT_DRAFTDATA
 70
     0
  0
APPID
  5
62
330
9
100
AcDbSymbolTableRecord
100
AcDbRegAppTableRecord
  2
CAXA_DRAFT_DIMORIGIN
 70
     0
  0
APPID
  5
63
330
9
100
AcDbSymbolTableRecord
100
AcDbRegAppTableRecord
  2
CAXA_DRAFT_ENLARGE_EDGE
 70
     0
  0
APPID
  5
64
330
9
100
AcDbSymbolTableRecord
100
AcDbRegAppTableRecord
  2
CAXA_DRAFT_DIMSTY_T_VPOS
 70
     0
  0
APPID
  5
65
330
9
100
AcDbSymbolTableRecord
100
AcDbRegAppTableRecord
  2
CAXA_DRAFT_DIMSTY_AT_VPOS
 70
     0
  0
APPID
  5
66
330
9
100
AcDbSymbolTableRecord
100
AcDbRegAppTableRecord
  2
CAXA_DRAFT_BLKHIDE
 70
     0
  0
APPID
  5
67
330
9
100
AcDbSymbolTableRecord
100
AcDbRegAppTableRecord
  2
CAXA_DRAFT_DIMARROWREVERSE
 70
     0
  0
APPID
  5
68
330
9
100
AcDbSymbolTableRecord
100
AcDbRegAppTableRecord
  2
CAXA_DRAFT_TXTSTYLE
 70
     0
  0
APPID
  5
69
330
9
100
AcDbSymbolTableRecord
100
AcDbRegAppTableRecord
  2
CAXA_DRAFT_ATTRIBUTE_2PT
 70
     0
  0
APPID
  5
6A
330
9
100
AcDbSymbolTableRecord
100
AcDbRegAppTableRecord
  2
CAXA_DRAFT_ATTDEF_2PT
 70
     0
  0
APPID
  5
6B
330
9
100
AcDbSymbolTableRecord
100
AcDbRegAppTableRecord
  2
CAXA_DRAFT_DIMBIGARC
 70
     0
  0
APPID
  5
6C
330
9
100
AcDbSymbolTableRecord
100
AcDbRegAppTableRecord
  2
CAXA_DRAFT_ISNEB09R3
 70
     0
  0
APPID
  5
6D
330
9
100
AcDbSymbolTableRecord
100
AcDbRegAppTableRecord
  2
CAXA_DRAFT_WIPEOUT_B_HIDE
 70
     0
  0
APPID
  5
6E
330
9
100
AcDbSymbolTableRecord
100
AcDbRegAppTableRecord
  2
CAXA_DRAFT_BLKREF_SYMBOL
 70
     0
  0
APPID
  5
6F
330
9
100
AcDbSymbolTableRecord
100
AcDbRegAppTableRecord
  2
CAXA_DRAFT_ENL_COMMENTS
 70
     0
  0
APPID
  5
70
330
9
100
AcDbSymbolTableRecord
100
AcDbRegAppTableRecord
  2
CAXA_DRAFT_ENL_TSCALE
 70
     0
  0
APPID
  5
71
330
9
100
AcDbSymbolTableRecord
100
AcDbRegAppTableRecord
  2
CAXA_DRAFT_TXTSCALE
 70
     0
  0
APPID
  5
72
330
9
100
AcDbSymbolTableRecord
100
AcDbRegAppTableRecord
  2
CAXA_DRAFT_KEEPLTSEG_ZOOM
 70
     0
  0
APPID
  5
73
330
9
100
AcDbSymbolTableRecord
100
AcDbRegAppTableRecord
  2
CAXA_DRAFT_SPECLIB
 70
     0
  0
APPID
  5
74
330
9
100
AcDbSymbolTableRecord
100
AcDbRegAppTableRecord
  2
CAXA_DRAFT_DATUM_2011R2
 70
     0
  0
APPID
  5
75
330
9
100
AcDbSymbolTableRecord
100
AcDbRegAppTableRecord
  2
CAXA_DRAFT_ROUGH_2011R2
 70
     0
  0
APPID
  5
76
330
9
100
AcDbSymbolTableRecord
100
AcDbRegAppTableRecord
  2
CAXA_DRAFT_GEOTOL_2011R2
 70
     0
  0
APPID
  5
77
330
9
100
AcDbSymbolTableRecord
100
AcDbRegAppTableRecord
  2
CAXA_DRAFT_DMOVMAP_2011R3
 70
     0
  0
APPID
  5
78
330
9
100
AcDbSymbolTableRecord
100
AcDbRegAppTableRecord
  2
CAXA_DRAFT_DDTSTY_2011R3
 70
     0
  0
APPID
  5
79
330
9
100
AcDbSymbolTableRecord
100
AcDbRegAppTableRecord
  2
CAXA_DRAFT_SDTSTY_2011R3
 70
     0
  0
APPID
  5
7A
330
9
100
AcDbSymbolTableRecord
100
AcDbRegAppTableRecord
  2
CDRAFT_TXTROT_2011R3
 70
     0
  0
APPID
  5
7B
330
9
100
AcDbSymbolTableRecord
100
AcDbRegAppTableRecord
  2
CDRAFT_TOLOUT_2011R3
 70
     0
  0
APPID
  5
7C
330
9
100
AcDbSymbolTableRecord
100
AcDbRegAppTableRecord
  2
CAXA_DRAFT_DIMARCLENSTYLE
 70
     0
  0
APPID
  5
7D
330
9
100
AcDbSymbolTableRecord
100
AcDbRegAppTableRecord
  2
CAXA_DRAFT_DMOVMAP_2013
 70
     0
  0
APPID
  5
7E
330
9
100
AcDbSymbolTableRecord
100
AcDbRegAppTableRecord
  2
CAXA_DRAFT_DS_DLLNTYPE
 70
     0
  0
APPID
  5
7F
330
9
100
AcDbSymbolTableRecord
100
AcDbRegAppTableRecord
  2
CAXA_DRAFT_DS_LBLLNTYPE
 70
     0
  0
APPID
  5
80
330
9
100
AcDbSymbolTableRecord
100
AcDbRegAppTableRecord
  2
CAXA_DRAFT_DS_RBLLNTYPE
 70
     0
  0
APPID
  5
81
330
9
100
AcDbSymbolTableRecord
100
AcDbRegAppTableRecord
  2
CAXA_DRAFT_DS_ISFILLDFM
 70
     0
  0
APPID
  5
82
330
9
100
AcDbSymbolTableRecord
100
AcDbRegAppTableRecord
  2
CAXA_DRAFT_DS_DISPZTOOL
 70
     0
  0
APPID
  5
83
330
9
100
AcDbSymbolTableRecord
100
AcDbRegAppTableRecord
  2
CAXA_DRAFT_DS_SYMCOLOR
 70
     0
  0
APPID
  5
89
330
9
100
AcDbSymbolTableRecord
100
AcDbRegAppTableRecord
  2
AcAecLayerStandard
 70
     0
  0
ENDTAB
  0
TABLE
  2
DIMSTYLE
  5
A
330
0
100
AcDbSymbolTable
 70
     2
100
AcDbDimStyleTable
  0
DIMSTYLE
105
93
102
{ACAD_REACTORS
330
2CF
330
2D9
330
2E3
330
2ED
330
2F9
330
303
330
30D
330
317
102
}
330
A
100
AcDbSymbolTableRecord
100
AcDbDimStyleTableRecord
  2
标准
 70
     0
 40
5.0
 41
2.5
 42
0.0
 44
2.0
 46
6.0
 90
        1
 73
     0
 74
     0
 77
     1
 78
     8
 79
     2
140
2.5
141
0.0
143
1.0
146
0.707107
147
0.625
172
     1
178
     0
179
     2
271
     2
272
     3
276
     2
279
     2
284
     8
340
92
342
94
371
    -1
372
    -1
345
16
346
16
347
16
1001
CAXA_DRAFT_DIMSTY_AT_VPOS
1070
     1
1001
CAXA_DRAFT_SDTSTY_2011R3
1070
     0
1001
CAXA_DRAFT_DS_ISFILLDFM
1070
     1
1001
CAXA_DRAFT_DS_DISPZTOOL
1070
     0
1001
CAXA_DRAFT_DS_SYMCOLOR
1071
1090519039
  0
ENDTAB
  0
TABLE
  2
BLOCK_RECORD
  5
1
330
0
100
AcDbSymbolTable
 70
    11
  0
BLOCK_RECORD
  5
1F
330
1
100
AcDbSymbolTableRecord
100
AcDbBlockTableRecord
  2
*Model_Space
340
22
 70
     0
280
     1
281
     0
1001
CAXA_DRAFT_PAPERSCALE
1041
1.0
1001
CAXA_DRAFT_PAPERINFO
1041
297.0
1041
210.0
1071
        0
1070
     1
1070
     0
1001
CAXA_DRAFT_KEEPLTSEG_ZOOM
1070
     1
  0
BLOCK_RECORD
  5
1B
330
1
100
AcDbSymbolTableRecord
100
AcDbBlockTableRecord
  2
*Paper_Space
340
1E
 70
     0
280
     1
281
     0
1001
CAXA_DRAFT_PAPERORDER
1070
     1
1001
CAXA_DRAFT_PAPERSCALE
1041
1.0
1001
CAXA_DRAFT_PAPERINFO
1041
420.0
1041
297.0
1071
        0
1070
     1
1070
     0
1001
CAXA_DRAFT_KEEPLTSEG_ZOOM
1070
     1
  0
BLOCK_RECORD
  5
94
330
1
100
AcDbSymbolTableRecord
100
AcDbBlockTableRecord
  2
_CAXARROW
340
0
 70
     0
280
     1
281
     0
  0
BLOCK_RECORD
  5
BF
330
1
100
AcDbSymbolTableRecord
100
AcDbBlockTableRecord
  2
*X2
340
0
102
{BLKREFS
331
BE
102
}
 70
     0
280
     1
281
     0
  0
BLOCK_RECORD
  5
2C6
330
1
100
AcDbSymbolTableRecord
100
AcDbBlockTableRecord
  2
*X3
340
0
 70
     0
280
     1
281
     0
  0
BLOCK_RECORD
  5
2D0
330
1
100
AcDbSymbolTableRecord
100
AcDbBlockTableRecord
  2
*X4
340
0
 70
     0
280
     1
281
     0
  0
BLOCK_RECORD
  5
2DA
330
1
100
AcDbSymbolTableRecord
100
AcDbBlockTableRecord
  2
*X5
340
0
 70
     0
280
     1
281
     0
  0
BLOCK_RECORD
  5
2E4
330
1
100
AcDbSymbolTableRecord
100
AcDbBlockTableRecord
  2
*X6
340
0
 70
     0
280
     1
281
     0
  0
BLOCK_RECORD
  5
2F0
330
1
100
AcDbSymbolTableRecord
100
AcDbBlockTableRecord
  2
*X7
340
0
 70
     0
280
     1
281
     0
  0
BLOCK_RECORD
  5
2FA
330
1
100
AcDbSymbolTableRecord
100
AcDbBlockTableRecord
  2
*X8
340
0
 70
     0
280
     1
281
     0
  0
BLOCK_RECORD
  5
304
330
1
100
AcDbSymbolTableRecord
100
AcDbBlockTableRecord
  2
*X9
340
0
 70
     0
280
     1
281
     0
  0
BLOCK_RECORD
  5
30E
330
1
100
AcDbSymbolTableRecord
100
AcDbBlockTableRecord
  2
*X10
340
0
 70
     0
280
     1
281
     0
  0
ENDTAB
  0
ENDSEC
  0
SECTION
  2
BLOCKS
  0
BLOCK
  5
20
330
1F
100
AcDbEntity
  8
0
100
AcDbBlockBegin
  2
*Model_Space
 70
     0
 10
0.0
 20
0.0
 30
0.0
  3
*Model_Space
  1

  0
ENDBLK
  5
21
330
1F
100
AcDbEntity
  8
0
100
AcDbBlockEnd
  0
BLOCK
  5
1C
330
1B
100
AcDbEntity
 67
     1
  8
0
100
AcDbBlockBegin
  2
*Paper_Space
 70
     0
 10
0.0
 20
0.0
 30
0.0
  3
*Paper_Space
  1

  0
ENDBLK
  5
1D
330
1B
100
AcDbEntity
 67
     1
  8
0
100
AcDbBlockEnd
  0
BLOCK
  5
96
330
94
100
AcDbEntity
  8
0
100
AcDbBlockBegin
  2
_CAXARROW
 70
     0
 10
0.0
 20
0.0
 30
0.0
  3
_CAXARROW
  1

  0
HATCH
  5
95
330
94
100
AcDbEntity
  8
0
 62
     0
100
AcDbHatch
 10
0.0
 20
0.0
 30
0.0
210
0.0
220
0.0
230
1.0
  2
SOLID
 70
     1
 71
     0
 91
        1
 92
        0
 93
        3
 72
     1
 10
0.0
 20
0.0
 11
-1.0
 21
0.125
 72
     1
 10
-1.0
 20
0.125
 11
-1.0
 21
-0.125
 72
     1
 10
-1.0
 20
-0.125
 11
0.0
 21
0.0
 97
        0
 75
     0
 76
     1
 98
        1
 10
0.0
 20
0.0
  0
ENDBLK
  5
97
330
94
100
AcDbEntity
  8
0
100
AcDbBlockEnd
  0
BLOCK
  5
C1
330
BF
100
AcDbEntity
  8
0
100
AcDbBlockBegin
  2
*X2
 70
     1
 10
0.0
 20
0.0
 30
0.0
  3
*X2
  1

  0
LINE
  5
C0
330
BF
100
AcDbEntity
  8
0
  6
Continuous
 62
     2
100
AcDbLine
 10
2285.9499574233
 20
1611.2366786063
 30
0.0
 11
2282.4060576285
 21
1611.1438783243
 31
0.0
  0
ENDBLK
  5
C2
330
BF
100
AcDbEntity
  8
0
100
AcDbBlockEnd
  0
BLOCK
  5
2C7
330
2C6
100
AcDbEntity
  8
0
100
AcDbBlockBegin
  2
*X3
 70
     1
 10
0.0
 20
0.0
 30
0.0
  3
*X3
  1

  0
MTEXT
  5
2C9
330
2C6
100
AcDbEntity
  8
尺寸线层
  6
Continuous
 62
     0
100
AcDbMText
 10
325.8975752963684
 20
-118.8745743590935
 30
0.0
 40
12.5
 41
27.4164791666667
 46
12.5
 71
     5
 72
     1
  1
\T1.1;%%C48
  7
标准
 73
     1
 44
1.150569886022795
1001
CAXA_DRAFT_TXTSCALE
1041
1.0
1001
ACAD
1000
ACAD_MTEXT_DEFINED_HEIGHT_BEGIN
1070
    46
1040
12.5
1000
ACAD_MTEXT_DEFINED_HEIGHT_END
  0
LINE
  5
2CA
330
2C6
100
AcDbEntity
  8
尺寸线层
  6
Continuous
 62
     0
100
AcDbLine
 10
301.8976112850684
 20
-128.2508901485672
 30
0.0
 11
349.8975383076684
 21
-128.2508901485672
 31
0.0
  0
HATCH
  5
2CB
330
2C6
100
AcDbEntity
  8
尺寸线层
  6
Continuous
 62
     0
100
AcDbHatch
 10
0.0
 20
0.0
 30
0.0
210
0.0
220
0.0
230
1.0
  2
SOLID
 70
     1
 71
     0
 91
        1
 92
        0
 93
        3
 72
     1
 10
301.8976112850684
 20
-128.2508901485672
 11
314.3976112850684
 21
-126.6883901485672
 72
     1
 10
314.3976112850684
 20
-126.6883901485672
 11
314.3976112850684
 21
-129.8133901485672
 72
     1
 10
314.3976112850684
 20
-129.8133901485672
 11
301.8976112850684
 21
-128.2508901485672
 97
        0
 75
     0
 76
     1
 98
        1
 10
0.0
 20
0.0
  0
HATCH
  5
2CC
330
2C6
100
AcDbEntity
  8
尺寸线层
  6
Continuous
 62
     0
100
AcDbHatch
 10
0.0
 20
0.0
 30
0.0
210
0.0
220
0.0
230
1.0
  2
SOLID
 70
     1
 71
     0
 91
        1
 92
        0
 93
        3
 72
     1
 10
349.8975383076684
 20
-128.2508901485672
 11
337.3975383076684
 21
-126.6883901485672
 72
     1
 10
337.3975383076684
 20
-126.6883901485672
 11
337.3975383076684
 21
-129.8133901485672
 72
     1
 10
337.3975383076684
 20
-129.8133901485672
 11
349.8975383076684
 21
-128.2508901485672
 97
        0
 75
     0
 76
     1
 98
        1
 10
0.0
 20
0.0
  0
LINE
  5
2CD
330
2C6
100
AcDbEntity
  8
尺寸线层
  6
Continuous
 62
     0
100
AcDbLine
 10
301.8976112850685
 20
-87.4688930068437
 30
0.0
 11
301.8976112850684
 21
-138.2508901485672
 31
0.0
  0
LINE
  5
2CE
330
2C6
100
AcDbEntity
  8
尺寸线层
  6
Continuous
 62
     0
100
AcDbLine
 10
349.8975383076684
 20
-87.4688930068437
 30
0.0
 11
349.8975383076684
 21
-138.2508901485672
 31
0.0
  0
ENDBLK
  5
2C8
330
2C6
100
AcDbEntity
  8
0
100
AcDbBlockEnd
  0
BLOCK
  5
2D1
330
2D0
100
AcDbEntity
  8
0
100
AcDbBlockBegin
  2
*X4
 70
     1
 10
0.0
 20
0.0
 30
0.0
  3
*X4
  1

  0
MTEXT
  5
2D3
330
2D0
100
AcDbEntity
  8
尺寸线层
  6
Continuous
 62
     0
100
AcDbMText
 10
330.3258025957117
 20
-151.1768476565158
 30
0.0
 40
12.5
 41
46.98181250000002
 46
12.29166666666666
 71
     5
 72
     1
  1
\T1.1;165.7
  7
标准
 73
     1
 44
1.150569886022795
1001
CAXA_DRAFT_TXTSCALE
1041
1.0
1001
ACAD
1000
ACAD_MTEXT_DEFINED_HEIGHT_BEGIN
1070
    46
1040
12.29166666666666
1000
ACAD_MTEXT_DEFINED_HEIGHT_END
  0
LINE
  5
2D4
330
2D0
100
AcDbEntity
  8
尺寸线层
  6
Continuous
 62
     0
100
AcDbLine
 10
251.4975747963683
 20
-160.5518476565158
 30
0.0
 11
417.1975747963684
 21
-160.5518476565158
 31
0.0
  0
HATCH
  5
2D5
330
2D0
100
AcDbEntity
  8
尺寸线层
  6
Continuous
 62
     0
100
AcDbHatch
 10
0.0
 20
0.0
 30
0.0
210
0.0
220
0.0
230
1.0
  2
SOLID
 70
     1
 71
     0
 91
        1
 92
        0
 93
        3
 72
     1
 10
251.4975747963683
 20
-160.5518476565158
 11
263.9975747963683
 21
-158.9893476565158
 72
     1
 10
263.9975747963683
 20
-158.9893476565158
 11
263.9975747963683
 21
-162.1143476565158
 72
     1
 10
263.9975747963683
 20
-162.1143476565158
 11
251.4975747963683
 21
-160.5518476565158
 97
        0
 75
     0
 76
     1
 98
        1
 10
0.0
 20
0.0
  0
HATCH
  5
2D6
330
2D0
100
AcDbEntity
  8
尺寸线层
  6
Continuous
 62
     0
100
AcDbHatch
 10
0.0
 20
0.0
 30
0.0
210
0.0
220
0.0
230
1.0
  2
SOLID
 70
     1
 71
     0
 91
        1
 92
        0
 93
        3
 72
     1
 10
417.1975747963684
 20
-160.5518476565158
 11
404.6975747963684
 21
-158.9893476565158
 72
     1
 10
404.6975747963684
 20
-158.9893476565158
 11
404.6975747963684
 21
-162.1143476565158
 72
     1
 10
404.6975747963684
 20
-162.1143476565158
 11
417.1975747963684
 21
-160.5518476565158
 97
        0
 75
     0
 76
     1
 98
        1
 10
0.0
 20
0.0
  0
LINE
  5
2D7
330
2D0
100
AcDbEntity
  8
尺寸线层
  6
Continuous
 62
     0
100
AcDbLine
 10
251.4975747963683
 20
-39.4688930068437
 30
0.0
 11
251.4975747963683
 21
-170.5518476565158
 31
0.0
  0
LINE
  5
2D8
330
2D0
100
AcDbEntity
  8
尺寸线层
  6
Continuous
 62
     0
100
AcDbLine
 10
417.1975747963684
 20
-39.46033497854387
 30
0.0
 11
417.1975747963684
 21
-170.5518476565158
 31
0.0
  0
ENDBLK
  5
2D2
330
2D0
100
AcDbEntity
  8
0
100
AcDbBlockEnd
  0
BLOCK
  5
2DB
330
2DA
100
AcDbEntity
  8
0
100
AcDbBlockBegin
  2
*X5
 70
     1
 10
0.0
 20
0.0
 30
0.0
  3
*X5
  1

  0
MTEXT
  5
2DD
330
2DA
100
AcDbEntity
  8
尺寸线层
  6
Continuous
 62
     0
100
AcDbMText
 10
182.7338503168468
 20
65.28733051588908
 30
0.0
 40
12.5
 41
46.91233333333332
 46
31.27488888888888
 71
     5
 72
     1
  1
\T1.1;305.5
  7
标准
 11
6.123233995736766E-17
 21
1.0
 31
0.0
 73
     1
 44
1.150569886022795
1001
CAXA_DRAFT_TXTSCALE
1041
1.0
1001
ACAD
1000
ACAD_MTEXT_DEFINED_HEIGHT_BEGIN
1070
    46
1040
31.27488888888888
1000
ACAD_MTEXT_DEFINED_HEIGHT_END
  0
LINE
  5
2DE
330
2DA
100
AcDbEntity
  8
尺寸线层
  6
Continuous
 62
     0
100
AcDbLine
 10
192.1088503168468
 20
-87.46889300684393
 30
0.0
 11
192.1088503168469
 21
218.0435530386221
 31
0.0
  0
HATCH
  5
2DF
330
2DA
100
AcDbEntity
  8
尺寸线层
  6
Continuous
 62
     0
100
AcDbHatch
 10
0.0
 20
0.0
 30
0.0
210
0.0
220
0.0
230
1.0
  2
SOLID
 70
     1
 71
     0
 91
        1
 92
        0
 93
        3
 72
     1
 10
192.1088503168468
 20
-87.46889300684393
 11
190.5463503168468
 21
-74.96889300684393
 72
     1
 10
190.5463503168468
 20
-74.96889300684393
 11
193.6713503168468
 21
-74.96889300684393
 72
     1
 10
193.6713503168468
 20
-74.96889300684393
 11
192.1088503168468
 21
-87.46889300684393
 97
        0
 75
     0
 76
     1
 98
        1
 10
303.5100995630901
 20
-0.0000000000003264
  0
HATCH
  5
2E0
330
2DA
100
AcDbEntity
  8
尺寸线层
  6
Continuous
 62
     0
100
AcDbHatch
 10
0.0
 20
0.0
 30
0.0
210
0.0
220
0.0
230
1.0
  2
SOLID
 70
     1
 71
     0
 91
        1
 92
        0
 93
        3
 72
     1
 10
192.1088503168469
 20
218.0435530386221
 11
190.5463503168468
 21
205.5435530386221
 72
     1
 10
190.5463503168468
 20
205.5435530386221
 11
193.6713503168468
 21
205.5435530386221
 72
     1
 10
193.6713503168468
 20
205.5435530386221
 11
192.1088503168469
 21
218.0435530386221
 97
        0
 75
     0
 76
     1
 98
        1
 10
303.5100995630901
 20
-0.0000000000003264
  0
LINE
  5
2E1
330
2DA
100
AcDbEntity
  8
尺寸线层
  6
Continuous
 62
     0
100
AcDbLine
 10
122.8663525979584
 20
-87.46889300684387
 30
0.0
 11
202.1088503168468
 21
-87.46889300684394
 31
0.0
  0
LINE
  5
2E2
330
2DA
100
AcDbEntity
  8
尺寸线层
  6
Continuous
 62
     0
100
AcDbLine
 10
-139.3539051788226
 20
218.0435530386224
 30
0.0
 11
202.1088503168469
 21
218.0435530386221
 31
0.0
  0
ENDBLK
  5
2DC
330
2DA
100
AcDbEntity
  8
0
100
AcDbBlockEnd
  0
BLOCK
  5
2E5
330
2E4
100
AcDbEntity
  8
0
100
AcDbBlockBegin
  2
*X6
 70
     1
 10
0.0
 20
0.0
 30
0.0
  3
*X6
  1

  0
MTEXT
  5
2E7
330
2E4
100
AcDbEntity
  8
尺寸线层
  6
Continuous
 62
     0
100
AcDbMText
 10
471.0959516456057
 20
107.4649723804495
 30
0.0
 40
12.5
 41
27.48595833333331
 46
12.5
 71
     5
 72
     1
  1
\T1.1;%%C26
  7
标准
 73
     1
 44
1.150569886022795
1001
CAXA_DRAFT_TXTSCALE
1041
1.0
1001
ACAD
1000
ACAD_MTEXT_DEFINED_HEIGHT_BEGIN
1070
    46
1040
12.5
1000
ACAD_MTEXT_DEFINED_HEIGHT_END
  0
LINE
  5
2E8
330
2E4
100
AcDbEntity
  8
尺寸线层
  6
Continuous
 62
     0
100
AcDbLine
 10
460.8674710315706
 20
98.08865659097583
 30
0.0
 11
551.514938721629
 21
98.08865659097583
 31
0.0
  0
HATCH
  5
2E9
330
2E4
100
AcDbEntity
  8
尺寸线层
  6
Continuous
 62
     0
100
AcDbHatch
 10
0.0
 20
0.0
 30
0.0
210
0.0
220
0.0
230
1.0
  2
SOLID
 70
     1
 71
     0
 91
        1
 92
        0
 93
        3
 72
     1
 10
495.514938721629
 20
98.08865659097583
 11
483.014938721629
 21
99.65115659097583
 72
     1
 10
483.014938721629
 20
99.65115659097583
 11
483.014938721629
 21
96.52615659097583
 72
     1
 10
483.014938721629
 20
96.52615659097583
 11
495.514938721629
 21
98.08865659097583
 97
        0
 75
     0
 76
     1
 98
        1
 10
-226.2326203385394
 20
0.0
  0
HATCH
  5
2EA
330
2E4
100
AcDbEntity
  8
尺寸线层
  6
Continuous
 62
     0
100
AcDbHatch
 10
0.0
 20
0.0
 30
0.0
210
0.0
220
0.0
230
1.0
  2
SOLID
 70
     1
 71
     0
 91
        1
 92
        0
 93
        3
 72
     1
 10
521.514938721629
 20
98.08865659097583
 11
534.014938721629
 21
99.65115659097583
 72
     1
 10
534.014938721629
 20
99.65115659097583
 11
534.014938721629
 21
96.52615659097583
 72
     1
 10
534.014938721629
 20
96.52615659097583
 11
521.514938721629
 21
98.08865659097583
 97
        0
 75
     0
 76
     1
 98
        1
 10
-226.2326203385394
 20
0.0
  0
LINE
  5
2EB
330
2E4
100
AcDbEntity
  8
尺寸线层
  6
Continuous
 62
     0
100
AcDbLine
 10
495.514938721629
 20
98.46119901598813
 30
0.0
 11
495.514938721629
 21
88.08865659097583
 31
0.0
  0
LINE
  5
2EC
330
2E4
100
AcDbEntity
  8
尺寸线层
  6
Continuous
 62
     0
100
AcDbLine
 10
521.514938721629
 20
95.85340204090235
 30
0.0
 11
521.514938721629
 21
108.0886565909758
 31
0.0
  0
ENDBLK
  5
2E6
330
2E4
100
AcDbEntity
  8
0
100
AcDbBlockEnd
  0
BLOCK
  5
2F1
330
2F0
100
AcDbEntity
  8
0
100
AcDbBlockBegin
  2
*X7
 70
     1
 10
0.0
 20
0.0
 30
0.0
  3
*X7
  1

  0
MTEXT
  5
2F3
330
2F0
100
AcDbEntity
  8
尺寸线层
  6
Continuous
 62
     0
100
AcDbMText
 10
598.7742270530541
 20
246.8149587788669
 30
0.0
 40
12.5
 41
46.91233333333332
 46
12.29166666666666
 71
     5
 72
     1
  1
\T1.1;180.5
  7
标准
 73
     1
 44
1.150569886022795
1001
CAXA_DRAFT_TXTSCALE
1041
1.0
1001
ACAD
1000
ACAD_MTEXT_DEFINED_HEIGHT_BEGIN
1070
    46
1040
12.29166666666666
1000
ACAD_MTEXT_DEFINED_HEIGHT_END
  0
LINE
  5
2F4
330
2F0
100
AcDbEntity
  8
尺寸线层
  6
Continuous
 62
     0
100
AcDbLine
 10
508.514938721629
 20
237.4399587788669
 30
0.0
 11
689.0335143844791
 21
237.4399587788669
 31
0.0
  0
HATCH
  5
2F5
330
2F0
100
AcDbEntity
  8
尺寸线层
  6
Continuous
 62
     0
100
AcDbHatch
 10
0.0
 20
0.0
 30
0.0
210
0.0
220
0.0
230
1.0
  2
SOLID
 70
     1
 71
     0
 91
        1
 92
        0
 93
        3
 72
     1
 10
508.514938721629
 20
237.4399587788669
 11
521.014938721629
 21
239.0024587788669
 72
     1
 10
521.014938721629
 20
239.0024587788669
 11
521.014938721629
 21
235.8774587788669
 72
     1
 10
521.014938721629
 20
235.8774587788669
 11
508.514938721629
 21
237.4399587788669
 97
        0
 75
     0
 76
     1
 98
        1
 10
-226.2326203385394
 20
0.0
  0
HATCH
  5
2F6
330
2F0
100
AcDbEntity
  8
尺寸线层
  6
Continuous
 62
     0
100
AcDbHatch
 10
0.0
 20
0.0
 30
0.0
210
0.0
220
0.0
230
1.0
  2
SOLID
 70
     1
 71
     0
 91
        1
 92
        0
 93
        3
 72
     1
 10
689.0335143844791
 20
237.4399587788669
 11
676.5335143844791
 21
239.0024587788668
 72
     1
 10
676.5335143844791
 20
239.0024587788668
 11
676.5335143844791
 21
235.8774587788668
 72
     1
 10
676.5335143844791
 20
235.8774587788668
 11
689.0335143844791
 21
237.4399587788669
 97
        0
 75
     0
 76
     1
 98
        1
 10
-226.2326203385394
 20
0.0
  0
LINE
  5
2F7
330
2F0
100
AcDbEntity
  8
尺寸线层
  6
Continuous
 62
     0
100
AcDbLine
 10
508.514938721629
 20
157.3326922125759
 30
0.0
 11
508.514938721629
 21
247.4399587788669
 31
0.0
  0
LINE
  5
2F8
330
2F0
100
AcDbEntity
  8
尺寸线层
  6
Continuous
 62
     0
100
AcDbLine
 10
689.0335143844791
 20
182.9710609872062
 30
0.0
 11
689.0335143844791
 21
247.4399587788669
 31
0.0
  0
ENDBLK
  5
2F2
330
2F0
100
AcDbEntity
  8
0
100
AcDbBlockEnd
  0
BLOCK
  5
2FB
330
2FA
100
AcDbEntity
  8
0
100
AcDbBlockBegin
  2
*X8
 70
     1
 10
0.0
 20
0.0
 30
0.0
  3
*X8
  1

  0
MTEXT
  5
2FD
330
2FA
100
AcDbEntity
  8
尺寸线层
  6
Continuous
 62
     0
100
AcDbMText
 10
616.264957864604
 20
280.1357659332505
 30
0.0
 40
12.5
 41
46.91233333333332
 46
12.29166666666669
 71
     5
 72
     1
  1
\T1.1;215.5
  7
标准
 73
     1
 44
1.150569886022795
1001
CAXA_DRAFT_TXTSCALE
1041
1.0
1001
ACAD
1000
ACAD_MTEXT_DEFINED_HEIGHT_BEGIN
1070
    46
1040
12.29166666666669
1000
ACAD_MTEXT_DEFINED_HEIGHT_END
  0
LINE
  5
2FE
330
2FA
100
AcDbEntity
  8
尺寸线层
  6
Continuous
 62
     0
100
AcDbLine
 10
508.514938721629
 20
270.7607659332505
 30
0.0
 11
724.014976007579
 21
270.7607659332505
 31
0.0
  0
HATCH
  5
2FF
330
2FA
100
AcDbEntity
  8
尺寸线层
  6
Continuous
 62
     0
100
AcDbHatch
 10
0.0
 20
0.0
 30
0.0
210
0.0
220
0.0
230
1.0
  2
SOLID
 70
     1
 71
     0
 91
        1
 92
        0
 93
        3
 72
     1
 10
508.514938721629
 20
270.7607659332505
 11
521.014938721629
 21
272.3232659332505
 72
     1
 10
521.014938721629
 20
272.3232659332505
 11
521.014938721629
 21
269.1982659332505
 72
     1
 10
521.014938721629
 20
269.1982659332505
 11
508.514938721629
 21
270.7607659332505
 97
        0
 75
     0
 76
     1
 98
        1
 10
-226.2326203385394
 20
0.0
  0
HATCH
  5
300
330
2FA
100
AcDbEntity
  8
尺寸线层
  6
Continuous
 62
     0
100
AcDbHatch
 10
0.0
 20
0.0
 30
0.0
210
0.0
220
0.0
230
1.0
  2
SOLID
 70
     1
 71
     0
 91
        1
 92
        0
 93
        3
 72
     1
 10
724.014976007579
 20
270.7607659332505
 11
711.514976007579
 21
272.3232659332505
 72
     1
 10
711.514976007579
 20
272.3232659332505
 11
711.514976007579
 21
269.1982659332505
 72
     1
 10
711.514976007579
 20
269.1982659332505
 11
724.014976007579
 21
270.7607659332505
 97
        0
 75
     0
 76
     1
 98
        1
 10
-226.2326203385394
 20
0.0
  0
LINE
  5
301
330
2FA
100
AcDbEntity
  8
尺寸线层
  6
Continuous
 62
     0
100
AcDbLine
 10
508.514938721629
 20
157.3326922125759
 30
0.0
 11
508.514938721629
 21
280.7607659332505
 31
0.0
  0
LINE
  5
302
330
2FA
100
AcDbEntity
  8
尺寸线层
  6
Continuous
 62
     0
100
AcDbLine
 10
724.014976007579
 20
184.1371881368563
 30
0.0
 11
724.014976007579
 21
280.7607659332505
 31
0.0
  0
ENDBLK
  5
2FC
330
2FA
100
AcDbEntity
  8
0
100
AcDbBlockEnd
  0
BLOCK
  5
305
330
304
100
AcDbEntity
  8
0
100
AcDbBlockBegin
  2
*X9
 70
     1
 10
0.0
 20
0.0
 30
0.0
  3
*X9
  1

  0
MTEXT
  5
307
330
304
100
AcDbEntity
  8
尺寸线层
  6
Continuous
 62
     0
100
AcDbMText
 10
616.646804701679
 20
-118.8758901485672
 30
0.0
 40
12.5
 41
46.91233333333332
 46
12.29166666666667
 71
     5
 72
     1
  1
\T1.1;264.3
  7
标准
 73
     1
 44
1.150569886022795
1001
CAXA_DRAFT_TXTSCALE
1041
1.0
1001
ACAD
1000
ACAD_MTEXT_DEFINED_HEIGHT_BEGIN
1070
    46
1040
12.29166666666667
1000
ACAD_MTEXT_DEFINED_HEIGHT_END
  0
LINE
  5
308
330
304
100
AcDbEntity
  8
尺寸线层
  6
Continuous
 62
     0
100
AcDbLine
 10
484.514938721629
 20
-128.2508901485671
 30
0.0
 11
748.7786696817291
 21
-128.2508901485672
 31
0.0
  0
HATCH
  5
309
330
304
100
AcDbEntity
  8
尺寸线层
  6
Continuous
 62
     0
100
AcDbHatch
 10
0.0
 20
0.0
 30
0.0
210
0.0
220
0.0
230
1.0
  2
SOLID
 70
     1
 71
     0
 91
        1
 92
        0
 93
        3
 72
     1
 10
484.514938721629
 20
-128.2508901485671
 11
497.014938721629
 21
-126.6883901485671
 72
     1
 10
497.014938721629
 20
-126.6883901485671
 11
497.014938721629
 21
-129.8133901485671
 72
     1
 10
497.014938721629
 20
-129.8133901485671
 11
484.514938721629
 21
-128.2508901485671
 97
        0
 75
     0
 76
     1
 98
        1
 10
-226.2326203385394
 20
0.0
  0
HATCH
  5
30A
330
304
100
AcDbEntity
  8
尺寸线层
  6
Continuous
 62
     0
100
AcDbHatch
 10
0.0
 20
0.0
 30
0.0
210
0.0
220
0.0
230
1.0
  2
SOLID
 70
     1
 71
     0
 91
        1
 92
        0
 93
        3
 72
     1
 10
748.7786696817291
 20
-128.2508901485672
 11
736.2786696817291
 21
-126.6883901485672
 72
     1
 10
736.2786696817291
 20
-126.6883901485672
 11
736.2786696817291
 21
-129.8133901485672
 72
     1
 10
736.2786696817291
 20
-129.8133901485672
 11
748.7786696817291
 21
-128.2508901485672
 97
        0
 75
     0
 76
     1
 98
        1
 10
-226.2326203385394
 20
0.0
  0
LINE
  5
30B
330
304
100
AcDbEntity
  8
尺寸线层
  6
Continuous
 62
     0
100
AcDbLine
 10
484.514938721629
 20
-87.4688930068437
 30
0.0
 11
484.514938721629
 21
-138.2508901485671
 31
0.0
  0
LINE
  5
30C
330
304
100
AcDbEntity
  8
尺寸线层
  6
Continuous
 62
     0
100
AcDbLine
 10
748.7786696817291
 20
193.4886305718562
 30
0.0
 11
748.7786696817291
 21
-138.2508901485672
 31
0.0
  0
ENDBLK
  5
306
330
304
100
AcDbEntity
  8
0
100
AcDbBlockEnd
  0
BLOCK
  5
30F
330
30E
100
AcDbEntity
  8
0
100
AcDbBlockBegin
  2
*X10
 70
     1
 10
0.0
 20
0.0
 30
0.0
  3
*X10
  1

  0
MTEXT
  5
311
330
30E
100
AcDbEntity
  8
尺寸线层
  6
Continuous
 62
     0
100
AcDbMText
 10
221.7023764057258
 20
-18.46889250684371
 30
0.0
 40
12.5
 41
27.34700000000001
 46
18.23133333333334
 71
     5
 72
     1
  1
\T1.1;%%C43
  7
标准
 11
6.123233995736766E-17
 21
1.0
 31
0.0
 73
     1
 44
1.150569886022795
1001
CAXA_DRAFT_TXTSCALE
1041
1.0
1001
ACAD
1000
ACAD_MTEXT_DEFINED_HEIGHT_BEGIN
1070
    46
1040
18.23133333333334
1000
ACAD_MTEXT_DEFINED_HEIGHT_END
  0
LINE
  5
312
330
30E
100
AcDbEntity
  8
尺寸线层
  6
Continuous
 62
     0
100
AcDbLine
 10
231.0786921951996
 20
-39.9688930068437
 30
0.0
 11
231.0786921951995
 21
3.031106993156307
 31
0.0
  0
HATCH
  5
313
330
30E
100
AcDbEntity
  8
尺寸线层
  6
Continuous
 62
     0
100
AcDbHatch
 10
0.0
 20
0.0
 30
0.0
210
0.0
220
0.0
230
1.0
  2
SOLID
 70
     1
 71
     0
 91
        1
 92
        0
 93
        3
 72
     1
 10
231.0786921951996
 20
-39.9688930068437
 11
229.5161921951995
 21
-27.4688930068437
 72
     1
 10
229.5161921951995
 20
-27.4688930068437
 11
232.6411921951995
 21
-27.4688930068437
 72
     1
 10
232.6411921951995
 20
-27.4688930068437
 11
231.0786921951996
 21
-39.9688930068437
 97
        0
 75
     0
 76
     1
 98
        1
 10
0.0
 20
0.0
  0
HATCH
  5
314
330
30E
100
AcDbEntity
  8
尺寸线层
  6
Continuous
 62
     0
100
AcDbHatch
 10
0.0
 20
0.0
 30
0.0
210
0.0
220
0.0
230
1.0
  2
SOLID
 70
     1
 71
     0
 91
        1
 92
        0
 93
        3
 72
     1
 10
231.0786921951995
 20
3.031106993156307
 11
229.5161921951995
 21
-9.468893006843693
 72
     1
 10
229.5161921951995
 20
-9.468893006843693
 11
232.6411921951995
 21
-9.468893006843693
 72
     1
 10
232.6411921951995
 20
-9.468893006843693
 11
231.0786921951995
 21
3.031106993156307
 97
        0
 75
     0
 76
     1
 98
        1
 10
0.0
 20
0.0
  0
LINE
  5
315
330
30E
100
AcDbEntity
  8
尺寸线层
  6
Continuous
 62
     0
100
AcDbLine
 10
286.8975747963684
 20
-39.9688930068437
 30
0.0
 11
221.0786921951996
 21
-39.9688930068437
 31
0.0
  0
LINE
  5
316
330
30E
100
AcDbEntity
  8
尺寸线层
  6
Continuous
 62
     0
100
AcDbLine
 10
286.8975747963684
 20
3.0311069931563
 30
0.0
 11
221.0786921951995
 21
3.031106993156308
 31
0.0
  0
ENDBLK
  5
310
330
30E
100
AcDbEntity
  8
0
100
AcDbBlockEnd
  0
ENDSEC
  0
SECTION
  2
ENTITIES
  0
INSERT
  5
BE
330
1F
100
AcDbEntity
  8
0
100
AcDbBlockReference
  2
*X2
 10
-1670.794182991471
 20
-1396.938653994044
 30
0.0
1001
CAXA_DRAFT_BLKHIDE
1070
     0
  0
LWPOLYLINE
  5
C3
330
1F
100
AcDbEntity
  8
0
100
AcDbPolyline
 90
        4
 70
     0
 43
0.0
 10
633.6773208185289
 20
189.4659639823562
 10
633.7037923117289
 20
189.4780724149562
 10
633.728871455329
 20
189.4923551377562
 10
633.7529084063292
 20
189.5095390569563
  0
LINE
  5
C4
330
1F
100
AcDbEntity
  8
0
100
AcDbLine
 10
683.2028942023292
 20
191.3223540559563
 30
0.0
 11
683.4128388605288
 21
191.4300816594562
 31
0.0
  0
LINE
  5
C5
330
1F
100
AcDbEntity
  8
0
100
AcDbLine
 10
683.4081816246292
 20
191.4277222847563
 30
0.0
 11
683.6295293759292
 21
191.5380051634563
 31
0.0
  0
LINE
  5
C6
330
1F
100
AcDbEntity
  8
0
100
AcDbLine
 10
683.6245185945293
 20
191.5355504328563
 30
0.0
 11
683.856854194529
 21
191.6475736752561
 31
0.0
  0
LINE
  5
C7
330
1F
100
AcDbEntity
  8
0
100
AcDbLine
 10
683.851498249129
 20
191.6450418786562
 30
0.0
 11
684.0921995831288
 21
191.7569896548562
 31
0.0
  0
LWPOLYLINE
  5
C8
330
1F
100
AcDbEntity
  8
0
100
AcDbPolyline
 90
       19
 70
     0
 43
0.0
 10
684.086513443229
 20
191.7543951881562
 10
684.3287516172288
 20
191.8627493059562
 10
684.5781074484291
 20
191.9695170461562
 10
684.8325795320291
 20
192.0733257440563
 10
685.0911139599291
 20
192.1733207933562
 10
685.3536681608291
 20
192.2690959264562
 10
685.6195696724292
 20
192.3600344891563
 10
685.8881949633289
 20
192.4455777342562
 10
686.158986107029
 20
192.5252314434563
 10
686.4312926773289
 20
192.5985210364563
 10
686.7045853655288
 20
192.6650561365561
 10
686.9782494612289
 20
192.7245331092563
 10
687.2514570472292
 20
192.7767248292562
 10
687.5235702020288
 20
192.8214892206563
 10
687.7940052152292
 20
192.8587257579563
 10
688.062018163829
 20
192.8883807433563
 10
688.3268841678289
 20
192.9106283401563
 10
688.5879996676292
 20
192.9257328259562
 10
688.7726703748292
 20
192.9323158226562
  0
LINE
  5
C9
330
1F
100
AcDbEntity
  8
0
100
AcDbLine
 10
681.538947823529
 20
190.3686049341563
 30
0.0
 11
681.677389673029
 21
190.4542378546562
 31
0.0
  0
LINE
  5
CA
330
1F
100
AcDbEntity
  8
0
100
AcDbLine
 10
681.627676329729
 20
190.4236068307562
 30
0.0
 11
681.739759946229
 21
190.4924552986563
 31
0.0
  0
LWPOLYLINE
  5
CB
330
1F
100
AcDbEntity
  8
0
100
AcDbPolyline
 90
        4
 70
     0
 43
0.0
 10
681.677389673029
 20
190.4542378546562
 10
681.8122621984292
 20
190.5366136968562
 10
681.8972011652293
 20
190.5879839670563
 10
681.9939877638292
 20
190.6460178526563
  0
LWPOLYLINE
  5
CC
330
1F
100
AcDbEntity
  8
0
100
AcDbPolyline
 90
        3
 70
     0
 43
0.0
 10
681.739759946229
 20
190.4924552986563
 10
681.8984698559291
 20
190.5887518878562
 10
681.995548288229
 20
190.6469503733563
  0
LWPOLYLINE
  5
CD
330
1F
100
AcDbEntity
  8
0
100
AcDbPolyline
 90
        4
 70
     0
 43
0.0
 10
681.9939877638292
 20
190.6460178526563
 10
682.104492504129
 20
190.7115926404563
 10
682.2253093887291
 20
190.7824497589563
 10
682.3582379677289
 20
190.8594108034563
  0
LWPOLYLINE
  5
CE
330
1F
100
AcDbEntity
  8
0
100
AcDbPolyline
 90
        3
 70
     0
 43
0.0
 10
682.1026214321289
 20
190.7104909893562
 10
682.2231117098293
 20
190.7811720139562
 10
682.3557018423292
 20
190.8579498373563
  0
LINE
  5
CF
330
1F
100
AcDbEntity
  8
0
100
AcDbLine
 10
682.3557018423292
 20
190.8579498373563
 30
0.0
 11
682.503341856929
 21
190.9421996367562
 31
0.0
  0
LINE
  5
D0
330
1F
100
AcDbEntity
  8
0
100
AcDbLine
 10
682.500455760229
 20
190.9405622689562
 30
0.0
 11
682.6605994943291
 21
191.0304279627562
 31
0.0
  0
LINE
  5
D1
330
1F
100
AcDbEntity
  8
0
100
AcDbLine
 10
682.657355436729
 20
191.0286242693562
 30
0.0
 11
682.8301721362288
 21
191.1237830158561
 31
0.0
  0
LINE
  5
D2
330
1F
100
AcDbEntity
  8
0
100
AcDbLine
 10
682.8265679975291
 20
191.1218222611562
 30
0.0
 11
683.0125213858289
 21
191.2220795413562
 31
0.0
  0
LINE
  5
D3
330
1F
100
AcDbEntity
  8
0
100
AcDbLine
 10
683.0085631622289
 20
191.2199710780562
 30
0.0
 11
683.2071983449289
 21
191.3245981038563
 31
0.0
  0
LWPOLYLINE
  5
D4
330
1F
100
AcDbEntity
  8
0
100
AcDbPolyline
 90
        3
 70
     0
 43
0.0
 10
633.7529084063292
 20
189.5095390569563
 10
633.7753842332293
 20
189.5299686823562
 10
633.7951168697289
 20
189.5531273010563
  0
LINE
  5
D5
330
1F
100
AcDbEntity
  8
0
100
AcDbLine
 10
713.566417793829
 20
191.2346113934561
 30
0.0
 11
713.845711269729
 21
191.4758863586562
 31
0.0
  0
LWPOLYLINE
  5
D6
330
1F
100
AcDbEntity
  8
0
100
AcDbPolyline
 90
       41
 70
     0
 43
0.0
 10
713.845711269729
 20
191.4758863586562
 10
714.0443374140289
 20
191.6460937669563
 10
714.164446701029
 20
191.7484541225563
 10
714.2985009901292
 20
191.8621804247562
 10
714.4456496379291
 20
191.9863537121562
 10
714.605640541529
 20
192.1205575156562
 10
714.778208655029
 20
192.2643538195562
 10
714.9620953115289
 20
192.4164431002562
 10
715.156889909829
 20
192.5762101941561
 10
715.362183367329
 20
192.7430379022562
 10
715.5764131730291
 20
192.9153698277562
 10
715.7989654413288
 20
193.0923914175562
 10
716.0295261805288
 20
193.2735249401562
 10
716.266819886029
 20
193.4574462465562
 10
716.5102466336291
 20
193.6433335627562
 10
716.759572410029
 20
193.8306424027562
 10
717.014032065729
 20
194.0184346001563
 10
717.2732937654289
 20
194.2060523032562
 10
717.537059622229
 20
194.3928673650562
 10
717.8046396336292
 20
194.5779687694562
 10
718.0757911333292
 20
194.7607225929562
 10
718.3502769012291
 20
194.9405171689561
 10
718.6274343919292
 20
195.1164247496563
 10
718.906993914329
 20
195.2877884034563
 10
719.1888200801288
 20
195.4540233299563
 10
719.4724266502292
 20
195.6143157121562
 10
719.7574840196291
 20
195.7679779106563
 10
720.0439106295291
 20
195.9144336481563
 10
720.3315574874289
 20
196.0530880558563
 10
720.620171200829
 20
196.1832863010563
 10
720.9094987914289
 20
196.3044109459563
 10
721.1993348519288
 20
196.4158872350563
 10
721.489384392429
 20
196.5171556089563
 10
721.779184081129
 20
196.6076606809563
 10
722.0681639798293
 20
196.6869309440563
 10
722.3558504354289
 20
196.7546279557562
 10
722.6416260009289
 20
196.8105350465562
 10
722.9246335286291
 20
196.8545371710563
 10
723.2041741402288
 20
196.8867523366562
 10
723.4797349098292
 20
196.9074684727561
 10
723.6803632969288
 20
196.9156317807563
  0
LINE
  5
D7
330
1F
100
AcDbEntity
  8
0
100
AcDbLine
 10
695.831164566129
 20
183.1490637217562
 30
0.0
 11
696.0258600793288
 21
183.3542299839562
 31
0.0
  0
LINE
  5
D8
330
1F
100
AcDbEntity
  8
0
100
AcDbLine
 10
713.566417793829
 20
191.2346113934561
 30
0.0
 11
713.600518657229
 21
191.2641944801562
 31
0.0
  0
LWPOLYLINE
  5
D9
330
1F
100
AcDbEntity
  8
0
100
AcDbPolyline
 90
        6
 70
     0
 43
0.0
 10
633.7951168697289
 20
189.5531273010563
 10
633.8115975117291
 20
189.5787107127562
 10
633.8245672456289
 20
189.6066669864563
 10
633.8334699117293
 20
189.6361393386562
 10
633.8380881735291
 20
189.6663989785563
 10
633.8387554713293
 20
189.6872925699563
  0
LINE
  5
DA
330
1F
100
AcDbEntity
  8
0
100
AcDbLine
 10
531.005918846429
 20
56.55478193815634
 30
0.0
 11
521.514938721629
 21
30.47852835685626
 31
0.0
  0
LINE
  5
DB
330
1F
100
AcDbEntity
  8
0
100
AcDbLine
 10
531.005918846429
 20
56.55478193815634
 30
0.0
 11
521.514938721629
 21
30.47852835685626
 31
0.0
  0
LINE
  5
DC
330
1F
100
AcDbEntity
  8
0
100
AcDbLine
 10
539.4631524335289
 20
53.47660064825618
 30
0.0
 11
521.514938721629
 21
4.16428875535621
 31
0.0
  0
LINE
  5
DD
330
1F
100
AcDbEntity
  8
0
100
AcDbLine
 10
539.4631524335289
 20
53.47660064825618
 30
0.0
 11
521.514938721629
 21
4.16428875535621
 31
0.0
  0
LINE
  5
DE
330
1F
100
AcDbEntity
  8
0
100
AcDbLine
 10
487.7649196034292
 20
-24.4730251677438
 30
0.0
 11
487.7649416298288
 21
-24.4845209866437
 31
0.0
  0
LINE
  5
DF
330
1F
100
AcDbEntity
  8
0
100
AcDbLine
 10
484.514938721629
 20
-81.9688930068437
 30
0.0
 11
484.514938721629
 21
-87.4688930068437
 31
0.0
  0
LINE
  5
E0
330
1F
100
AcDbEntity
  8
0
100
AcDbLine
 10
487.764938721629
 20
-80.9688930068437
 30
0.0
 11
487.764938721629
 21
-24.49468863274387
 31
0.0
  0
LWPOLYLINE
  5
E1
330
1F
100
AcDbEntity
  8
0
100
AcDbPolyline
 90
        5
 70
     0
 43
0.0
 10
633.8131763155291
 20
189.5816229572563
 10
633.8257100515291
 20
189.6097344633563
 10
633.8341643526289
 20
189.6393217152563
 10
633.8383268773289
 20
189.6696681428562
 10
633.8387548282292
 20
189.6873347482563
  0
LINE
  5
E2
330
1F
100
AcDbEntity
  8
0
100
AcDbLine
 10
495.514938721629
 20
140.0516674946562
 30
0.0
 11
495.514938721629
 21
20.73110699315635
 31
0.0
  0
LINE
  5
E3
330
1F
100
AcDbEntity
  8
0
100
AcDbLine
 10
495.514938721629
 20
0.0850823084563217
 30
0.0
 11
495.514938721629
 21
20.5311069931563
 31
0.0
  0
LINE
  5
E4
330
1F
100
AcDbEntity
  8
0
100
AcDbLine
 10
495.514938721629
 20
0.0850823084563217
 30
0.0
 11
495.514938721629
 21
20.5311069931563
 31
0.0
  0
LINE
  5
E5
330
1F
100
AcDbEntity
  8
0
100
AcDbLine
 10
496.514938721629
 20
20.73110699315635
 30
0.0
 11
496.514938721629
 21
20.5311069931563
 31
0.0
  0
LINE
  5
E6
330
1F
100
AcDbEntity
  8
0
100
AcDbLine
 10
496.6972456855289
 20
20.73110699315635
 30
0.0
 11
496.6972456855289
 21
20.5311069931563
 31
0.0
  0
LINE
  5
E7
330
1F
100
AcDbEntity
  8
0
100
AcDbLine
 10
497.682053438529
 20
20.5311069931563
 30
0.0
 11
497.682053438529
 21
20.73110699315635
 31
0.0
  0
LINE
  5
E8
330
1F
100
AcDbEntity
  8
0
100
AcDbLine
 10
497.9149387216291
 20
20.73110699315635
 30
0.0
 11
497.9149387216291
 21
20.5311069931563
 31
0.0
  0
LINE
  5
E9
330
1F
100
AcDbEntity
  8
0
100
AcDbLine
 10
504.014938721629
 20
19.72266896905626
 30
0.0
 11
504.014938721629
 21
2.554892170656331
 31
0.0
  0
LINE
  5
EA
330
1F
100
AcDbEntity
  8
0
100
AcDbLine
 10
504.014938721629
 20
19.72266896905626
 30
0.0
 11
504.014938721629
 21
2.554892170656331
 31
0.0
  0
LINE
  5
EB
330
1F
100
AcDbEntity
  8
0
100
AcDbLine
 10
513.014938721629
 20
19.72266896905626
 30
0.0
 11
513.014938721629
 21
2.554894831656156
 31
0.0
  0
LINE
  5
EC
330
1F
100
AcDbEntity
  8
0
100
AcDbLine
 10
513.014938721629
 20
19.72266896905626
 30
0.0
 11
513.014938721629
 21
2.554894831656156
 31
0.0
  0
LINE
  5
ED
330
1F
100
AcDbEntity
  8
0
100
AcDbLine
 10
519.114938721629
 20
20.73110699315635
 30
0.0
 11
519.114938721629
 21
20.5311069931563
 31
0.0
  0
LINE
  5
EE
330
1F
100
AcDbEntity
  8
0
100
AcDbLine
 10
521.514938721629
 20
140.0516674946562
 30
0.0
 11
521.514938721629
 21
20.73110699315635
 31
0.0
  0
LINE
  5
EF
330
1F
100
AcDbEntity
  8
0
100
AcDbLine
 10
521.514938721629
 20
0.0850823084563217
 30
0.0
 11
521.514938721629
 21
20.5311069931563
 31
0.0
  0
LINE
  5
F0
330
1F
100
AcDbEntity
  8
0
100
AcDbLine
 10
521.514938721629
 20
0.0850823084563217
 30
0.0
 11
521.514938721629
 21
20.5311069931563
 31
0.0
  0
LINE
  5
F1
330
1F
100
AcDbEntity
  8
0
100
AcDbLine
 10
529.264938721629
 20
-80.9688930068437
 30
0.0
 11
529.264938721629
 21
-24.49496418204376
 31
0.0
  0
LINE
  5
F2
330
1F
100
AcDbEntity
  8
0
100
AcDbLine
 10
532.514938721629
 20
-81.9688930068437
 30
0.0
 11
532.514938721629
 21
-87.4688930068437
 31
0.0
  0
LWPOLYLINE
  5
F3
330
1F
100
AcDbEntity
  8
0
100
AcDbPolyline
 90
        9
 70
     0
 43
0.0
 10
487.6731062832288
 20
-23.74793349504375
 10
487.6935925904292
 20
-23.83414407934379
 10
487.712149671029
 20
-23.92420429934373
 10
487.727940812829
 20
-24.01480954974386
 10
487.7409494605292
 20
-24.10587492654372
 10
487.7511616742292
 20
-24.19731509004373
 10
487.7585661332288
 20
-24.28904433944376
 10
487.7631541315288
 20
-24.38097653204386
 10
487.7649196034292
 20
-24.4730251677438
  0
LINE
  5
F4
330
1F
100
AcDbEntity
  8
0
100
AcDbLine
 10
632.3454220461292
 20
189.1143920799561
 30
0.0
 11
631.674638393629
 21
214.7305862883563
 31
0.0
  0
LINE
  5
F5
330
1F
100
AcDbEntity
  8
0
100
AcDbLine
 10
631.6873274901288
 20
214.5460092453563
 30
0.0
 11
631.6824914781289
 21
214.7306890909563
 31
0.0
  0
LINE
  5
F6
330
1F
100
AcDbEntity
  8
0
100
AcDbLine
 10
633.838778930229
 20
189.6872929241563
 30
0.0
 11
633.8387361608291
 21
189.6893518148563
 31
0.0
  0
LINE
  5
F7
330
1F
100
AcDbEntity
  8
0
100
AcDbLine
 10
633.1793604990291
 20
214.8698924401563
 30
0.0
 11
633.8447152301289
 21
189.4610203139562
 31
0.0
  0
LINE
  5
F8
330
1F
100
AcDbEntity
  8
0
100
AcDbLine
 10
484.514938721629
 20
-87.4688930068437
 30
0.0
 11
532.514938721629
 21
-87.4688930068437
 31
0.0
  0
LINE
  5
F9
330
1F
100
AcDbEntity
  8
0
100
AcDbLine
 10
531.514938721629
 20
-80.9688930068437
 30
0.0
 11
485.514938721629
 21
-80.9688930068437
 31
0.0
  0
LINE
  5
FA
330
1F
100
AcDbEntity
  8
0
100
AcDbLine
 10
714.0131673681292
 20
184.0753501187562
 30
0.0
 11
713.8199581934289
 21
191.4537108252562
 31
0.0
  0
LINE
  5
FB
330
1F
100
AcDbEntity
  8
0
100
AcDbLine
 10
734.006313867729
 20
184.5988890849562
 30
0.0
 11
733.813104716229
 21
191.9772489026561
 31
0.0
  0
LINE
  5
FC
330
1F
100
AcDbEntity
  8
0
100
AcDbLine
 10
748.1713644810291
 20
216.6806805112562
 30
0.0
 11
748.7786696817291
 21
193.4886305718562
 31
0.0
  0
LINE
  5
FD
330
1F
100
AcDbEntity
  8
0
100
AcDbLine
 10
521.514938721629
 20
20.5311069931563
 30
0.0
 11
512.6032309823293
 21
20.5311069931563
 31
0.0
  0
LINE
  5
FE
330
1F
100
AcDbEntity
  8
0
100
AcDbLine
 10
504.4266464610288
 20
20.5311069931563
 30
0.0
 11
495.514938721629
 21
20.5311069931563
 31
0.0
  0
LINE
  5
FF
330
1F
100
AcDbEntity
  8
0
100
AcDbLine
 10
521.514938721629
 20
20.73110699315635
 30
0.0
 11
512.1873742839291
 21
20.73110699315635
 31
0.0
  0
LINE
  5
100
330
1F
100
AcDbEntity
  8
0
100
AcDbLine
 10
504.842503159429
 20
20.73110699315635
 30
0.0
 11
495.514938721629
 21
20.73110699315635
 31
0.0
  0
LINE
  5
101
330
1F
100
AcDbEntity
  8
0
100
AcDbLine
 10
682.2358642028291
 20
182.7930582526562
 30
0.0
 11
682.0306772073288
 21
182.9877734408562
 31
0.0
  0
LWPOLYLINE
  5
102
330
1F
100
AcDbEntity
  8
0
100
AcDbPolyline
 90
        5
 70
     0
 43
0.0
 10
633.5527554559292
 20
189.4319825930563
 10
633.5874592283292
 20
189.4388454405562
 10
633.6195016342292
 20
189.4466688064563
 10
633.6492741257291
 20
189.4556026596563
 10
633.6773208185289
 20
189.4659639823562
  0
LWPOLYLINE
  5
103
330
1F
100
AcDbEntity
  8
0
100
AcDbPolyline
 90
        9
 70
     0
 43
0.0
 10
633.5201702908291
 20
189.4267387144562
 10
633.5572862522292
 20
189.4327977323562
 10
633.591617259329
 20
189.4397717563563
 10
633.6232882748288
 20
189.4477066489562
 10
633.6527468518291
 20
189.4567716224562
 10
633.6805519368293
 20
189.4673066763562
 10
633.7068293506288
 20
189.4796398187561
 10
633.731714231629
 20
189.4941872135562
 10
633.7555113234291
 20
189.5116581399561
  0
LINE
  5
104
330
1F
100
AcDbEntity
  8
0
100
AcDbLine
 10
633.5152902995289
 20
189.4260398055562
 30
0.0
 11
633.5527554559292
 21
189.4319825930563
 31
0.0
  0
LINE
  5
105
330
1F
100
AcDbEntity
  8
0
100
AcDbLine
 10
633.4750561593289
 20
189.4210364667563
 30
0.0
 11
633.5201702908291
 21
189.4267387144562
 31
0.0
  0
LINE
  5
106
330
1F
100
AcDbEntity
  8
0
100
AcDbLine
 10
633.4325679970291
 20
189.4170616347562
 30
0.0
 11
633.4802431594292
 21
189.4216096731561
 31
0.0
  0
LWPOLYLINE
  5
107
330
1F
100
AcDbEntity
  8
0
100
AcDbPolyline
 90
        9
 70
     0
 43
0.0
 10
713.3774656259291
 20
191.1611378871562
 10
713.4023106888292
 20
191.1628223566563
 10
713.428025530329
 20
191.1667768262562
 10
713.4532887029288
 20
191.1729408295562
 10
713.477821567629
 20
191.1812301415562
 10
713.501640391529
 20
191.1916494023562
 10
713.5245584648289
 20
191.2041464724562
 10
713.5462251267288
 20
191.2185314935562
 10
713.566417793829
 20
191.2346113934561
  0
LWPOLYLINE
  5
108
330
1F
100
AcDbEntity
  8
0
100
AcDbPolyline
 90
        7
 70
     0
 43
0.0
 10
681.3884986133291
 20
190.3235408082562
 10
681.4132700784292
 20
190.3252172169562
 10
681.4397067829289
 20
190.3293091929563
 10
681.465774632429
 20
190.3357698139562
 10
681.4912547090291
 20
190.3445733799563
 10
681.5157378632291
 20
190.3555764963562
 10
681.538947823529
 20
190.3686049341563
  0
LINE
  5
109
330
1F
100
AcDbEntity
  8
0
100
AcDbLine
 10
633.3883381850289
 20
189.4141812433563
 30
0.0
 11
633.4379501766291
 21
189.4174971776563
 31
0.0
  0
LINE
  5
10A
330
1F
100
AcDbEntity
  8
0
100
AcDbLine
 10
633.357672496529
 20
189.4128873918562
 30
0.0
 11
633.393774038029
 21
189.4144696627563
 31
0.0
  0
LINE
  5
10B
330
1F
100
AcDbEntity
  8
0
100
AcDbLine
 10
632.3477155537291
 20
189.3794241733563
 30
0.0
 11
633.3576762239288
 21
189.4128845204561
 31
0.0
  0
LINE
  5
10C
330
1F
100
AcDbEntity
  8
0
100
AcDbLine
 10
682.2358642028291
 20
182.7930582526562
 30
0.0
 11
695.831164566129
 21
183.1490637217562
 31
0.0
  0
LINE
  5
10D
330
1F
100
AcDbEntity
  8
0
100
AcDbLine
 10
733.8116177923291
 20
184.3937222302563
 30
0.0
 11
714.2183342228288
 21
183.8806540434562
 31
0.0
  0
LINE
  5
10E
330
1F
100
AcDbEntity
  8
0
100
AcDbLine
 10
622.0666216869292
 20
188.4699760739563
 30
0.0
 11
621.2668958269289
 21
188.4490345153563
 31
0.0
  0
LINE
  5
10F
330
1F
100
AcDbEntity
  8
0
100
AcDbLine
 10
627.3569524248289
 20
188.6086110974563
 30
0.0
 11
622.608580131129
 21
188.4842705930562
 31
0.0
  0
LINE
  5
110
330
1F
100
AcDbEntity
  8
0
100
AcDbLine
 10
619.1097794937289
 20
188.3926512739563
 30
0.0
 11
567.2846221512289
 21
187.0355617684563
 31
0.0
  0
LINE
  5
111
330
1F
100
AcDbEntity
  8
0
100
AcDbLine
 10
640.1525127554289
 20
189.2436746367562
 30
0.0
 11
681.3885363387292
 21
190.3234779161562
 31
0.0
  0
LINE
  5
112
330
1F
100
AcDbEntity
  8
0
100
AcDbLine
 10
696.283219496029
 20
190.7135089210562
 30
0.0
 11
713.3807636169292
 21
191.1612238704563
 31
0.0
  0
LINE
  5
113
330
1F
100
AcDbEntity
  8
0
100
AcDbLine
 10
734.267008292429
 20
191.7081494354563
 30
0.0
 11
747.4157971543289
 21
192.0524625892563
 31
0.0
  0
LINE
  5
114
330
1F
100
AcDbEntity
  8
0
100
AcDbLine
 10
632.3454220461292
 20
189.1143920799561
 30
0.0
 11
630.4460731286292
 21
189.0646558781561
 31
0.0
  0
LWPOLYLINE
  5
115
330
1F
100
AcDbEntity
  8
0
100
AcDbPolyline
 90
       22
 70
     0
 43
0.0
 10
634.012837717429
 20
189.3005479462563
 10
637.8362420646292
 20
189.4005865464562
 10
637.9583268848289
 20
189.4028064817562
 10
638.0803063832288
 20
189.4038288797562
 10
638.2017908337291
 20
189.4036432407563
 10
638.3223818098288
 20
189.4022705050563
 10
638.441682139229
 20
189.3997671372563
 10
638.5593451297289
 20
189.3961927171563
 10
638.6750249609292
 20
189.3916080453562
 10
638.7883404054289
 20
189.3860771210561
 10
638.8989548540292
 20
189.3796796737563
 10
639.0065406800288
 20
189.3725249195563
 10
639.1107533646289
 20
189.3647277131563
 10
639.2112728146292
 20
189.3564025931562
 10
639.3077873403292
 20
189.3476642827563
 10
639.3999994085291
 20
189.3386299440563
 10
639.487640628229
 20
189.3294251841562
 10
639.5704529347292
 20
189.3201774036563
 10
639.648204729129
 20
189.3110112652562
 10
639.7206509843288
 20
189.3020529679563
 10
639.787543014929
 20
189.2934279324563
 10
639.8487019912288
 20
189.2852419529563
  0
LWPOLYLINE
  5
116
330
1F
100
AcDbEntity
  8
0
100
AcDbPolyline
 90
       17
 70
     0
 43
0.0
 10
688.7726701515292
 20
192.9323339860562
 10
688.9504350535292
 20
192.9353656428561
 10
689.2115548303289
 20
192.9341176490561
 10
689.476890544129
 20
192.9259570086563
 10
689.7458591643292
 20
192.9106046748561
 10
690.0177195694289
 20
192.8878210779562
 10
690.2916997567293
 20
192.8575838991562
 10
690.5672231198289
 20
192.8199697132563
 10
690.8436543108289
 20
192.7750959067562
 10
691.1201530412288
 20
192.7231539637562
 10
691.3960648027289
 20
192.6643929144561
 10
691.6708366678292
 20
192.5991671600561
 10
691.9437869050291
 20
192.5279181407561
 10
692.214341866629
 20
192.4511088937563
 10
692.4818481493292
 20
192.3692684506561
 10
692.7455679938291
 20
192.2829889752563
 10
693.0054307111288
 20
192.1926717466563
  0
LWPOLYLINE
  5
117
330
1F
100
AcDbEntity
  8
0
100
AcDbPolyline
 90
       39
 70
     0
 43
0.0
 10
723.680364460329
 20
196.9155969927563
 10
723.8740637276289
 20
196.9178787355563
 10
724.149818419229
 20
196.9118627033563
 10
724.4302762022292
 20
196.8947272559562
 10
724.7147831088289
 20
196.8660675987562
 10
725.0025545418291
 20
196.8256073629561
 10
725.292863889829
 20
196.7734658604563
 10
725.5851749404289
 20
196.7098820146562
 10
725.878945570729
 20
196.6351618887563
 10
726.173495399629
 20
196.5497269607563
 10
726.4683825227291
 20
196.4540645912562
 10
726.7633115613291
 20
196.3487103005561
 10
727.0579643296289
 20
196.2342791361561
 10
727.352009460729
 20
196.1114254143563
 10
727.6452030642292
 20
195.9807234175562
 10
727.9373608653289
 20
195.8427684082562
 10
728.228358407029
 20
195.6981760099563
 10
728.5178577692288
 20
195.5475900095562
 10
728.8053736975291
 20
195.3917296157563
 10
729.0907388618291
 20
195.2312087411563
 10
729.3736616878289
 20
195.0666872768563
 10
729.6534911546289
 20
194.8989633240562
 10
729.9299698974289
 20
194.7286440302562
 10
730.2028290051292
 20
194.5563566239562
 10
730.471388055829
 20
194.3829189781563
 10
730.7353087621289
 20
194.2089390125561
 10
730.9942254974292
 20
194.0350574452561
 10
731.2473840966288
 20
193.8621305694562
 10
731.4945185352292
 20
193.6906790793562
 10
731.7349643851292
 20
193.5215064890563
 10
731.967380934929
 20
193.3558675505562
 10
732.1914206535291
 20
193.1943186025562
 10
732.4063856873292
 20
193.0376704870562
 10
732.6105682423292
 20
192.8874478237562
 10
732.8035044868291
 20
192.7442615259563
 10
732.9847259320288
 20
192.6087239741562
 10
733.152847108129
 20
192.4821188192561
 10
733.3075668580288
 20
192.3648826537562
 10
733.4485956240289
 20
192.2574313343562
  0
LWPOLYLINE
  5
118
330
1F
100
AcDbEntity
  8
0
100
AcDbPolyline
 90
        4
 70
     0
 43
0.0
 10
640.1159559402292
 20
189.2460850789562
 10
640.1305770755291
 20
189.2443119998563
 10
640.1454438517292
 20
189.2436182120562
 10
640.1525626072291
 20
189.2436778815563
  0
LINE
  5
119
330
1F
100
AcDbEntity
  8
0
100
AcDbLine
 10
639.8487019912288
 20
189.2852419529563
 30
0.0
 11
639.953104926529
 21
189.2705908955563
 31
0.0
  0
LINE
  5
11A
330
1F
100
AcDbEntity
  8
0
100
AcDbLine
 10
639.953104926529
 20
189.2705908955563
 30
0.0
 11
640.032574050729
 21
189.2588839547561
 31
0.0
  0
LINE
  5
11B
330
1F
100
AcDbEntity
  8
0
100
AcDbLine
 10
640.032574050729
 20
189.2588839547561
 30
0.0
 11
640.089373696029
 21
189.2502377571561
 31
0.0
  0
LINE
  5
11C
330
1F
100
AcDbEntity
  8
0
100
AcDbLine
 10
640.089373696029
 20
189.2502377571561
 30
0.0
 11
640.1159559402292
 21
189.2460850789562
 31
0.0
  0
LINE
  5
11D
330
1F
100
AcDbEntity
  8
0
100
AcDbLine
 10
631.674638393629
 20
214.7305862883563
 30
0.0
 11
566.6040214952288
 21
213.0266522178563
 31
0.0
  0
LINE
  5
11E
330
1F
100
AcDbEntity
  8
0
100
AcDbLine
 10
632.9768106109289
 20
214.9646505887563
 30
0.0
 11
631.8771875535292
 21
214.9358559455563
 31
0.0
  0
LINE
  5
11F
330
1F
100
AcDbEntity
  8
0
100
AcDbLine
 10
633.3740558461288
 20
215.0750871005562
 30
0.0
 11
746.7351964983288
 21
218.0435530386562
 31
0.0
  0
LWPOLYLINE
  5
120
330
1F
100
AcDbEntity
  8
0
100
AcDbPolyline
 90
        4
 70
     0
 43
0.0
 10
693.0054307111288
 20
192.1926717466563
 10
693.2603441650292
 20
192.0991077831563
 10
693.5082396691289
 20
192.0035563558563
 10
693.7489886439291
 20
191.9066073840563
  0
LWPOLYLINE
  5
121
330
1F
100
AcDbEntity
  8
0
100
AcDbPolyline
 90
       13
 70
     0
 43
0.0
 10
693.7489886439291
 20
191.9066073840563
 10
693.9817360627292
 20
191.8090863529562
 10
694.2037776812292
 20
191.7126515391562
 10
694.414656727329
 20
191.6180750394562
 10
694.6144320592291
 20
191.5258856818562
 10
694.8016756771292
 20
191.4372673679563
 10
694.9759016422292
 20
191.3529150551562
 10
695.1375611885289
 20
191.2730379118561
 10
695.2867989786289
 20
191.1979567067563
 10
695.4235731534288
 20
191.1280580749562
 10
695.5479327727292
 20
191.0636211475562
 10
695.6601107117292
 20
191.0047692153562
 10
695.7601018782291
 20
190.9517312408561
  0
LWPOLYLINE
  5
122
330
1F
100
AcDbEntity
  8
0
100
AcDbPolyline
 90
        7
 70
     0
 43
0.0
 10
696.1306523658288
 20
190.7507021641563
 10
696.1545124114289
 20
190.7389062795562
 10
696.179537905329
 20
190.7291995837563
 10
696.2054438342291
 20
190.7217416066562
 10
696.2318141035291
 20
190.7166541312563
 10
696.2584287492289
 20
190.7139513633563
 10
696.2832538691289
 20
190.7135736979562
  0
LINE
  5
123
330
1F
100
AcDbEntity
  8
0
100
AcDbLine
 10
695.7601018782291
 20
190.9517312408561
 30
0.0
 11
695.9236338906292
 21
190.8638729621562
 31
0.0
  0
LINE
  5
124
330
1F
100
AcDbEntity
  8
0
100
AcDbLine
 10
695.9236338906292
 20
190.8638729621562
 30
0.0
 11
696.0391670213291
 21
190.8009849189561
 31
0.0
  0
LINE
  5
125
330
1F
100
AcDbEntity
  8
0
100
AcDbLine
 10
696.095767392929
 20
190.7699013556562
 30
0.0
 11
696.1306523658288
 21
190.7507021641563
 31
0.0
  0
LINE
  5
126
330
1F
100
AcDbEntity
  8
0
100
AcDbLine
 10
696.0391670213291
 20
190.8009849189561
 30
0.0
 11
696.095767392929
 21
190.7699013556562
 31
0.0
  0
LWPOLYLINE
  5
127
330
1F
100
AcDbEntity
  8
0
100
AcDbPolyline
 90
        9
 70
     0
 43
0.0
 10
734.0777507914293
 20
191.7717304856562
 10
734.0987573035288
 20
191.7567276328562
 10
734.1211472814291
 20
191.7434945472562
 10
734.1446883205292
 20
191.7322124181562
 10
734.1690202611292
 20
191.7230525266561
 10
734.1939539036291
 20
191.7160571726563
 10
734.2195057575289
 20
191.7112225624562
 10
734.245393140329
 20
191.7086182406563
 10
734.2703033033292
 20
191.7082357440563
  0
LINE
  5
128
330
1F
100
AcDbEntity
  8
0
100
AcDbLine
 10
733.4485956240289
 20
192.2574313343562
 30
0.0
 11
733.686771916329
 21
192.0747612099563
 31
0.0
  0
LINE
  5
129
330
1F
100
AcDbEntity
  8
0
100
AcDbLine
 10
733.686771916329
 20
192.0747612099563
 30
0.0
 11
733.8664932248291
 21
191.9359420892563
 31
0.0
  0
LINE
  5
12A
330
1F
100
AcDbEntity
  8
0
100
AcDbLine
 10
733.8664932248291
 20
191.9359420892563
 30
0.0
 11
734.0777507914293
 21
191.7717304856562
 31
0.0
  0
LINE
  5
12B
330
1F
100
AcDbEntity
  8
0
100
AcDbLine
 10
336.2871945535685
 20
196.6837264056562
 30
0.0
 11
336.4575199777685
 21
196.8934747140563
 31
0.0
  0
LINE
  5
12C
330
1F
100
AcDbEntity
  8
0
100
AcDbLine
 10
336.4575199777685
 20
196.8934747140563
 30
0.0
 11
336.4851619710685
 21
196.9272419747563
 31
0.0
  0
LINE
  5
12D
330
1F
100
AcDbEntity
  8
0
100
AcDbLine
 10
336.2221182507685
 20
196.6044831225563
 30
0.0
 11
336.2871945535685
 21
196.6837264056562
 31
0.0
  0
LINE
  5
12E
330
1F
100
AcDbEntity
  8
0
100
AcDbLine
 10
336.4851619710685
 20
196.9272419747563
 30
0.0
 11
336.4993803127684
 21
196.9444294381562
 31
0.0
  0
LINE
  5
12F
330
1F
100
AcDbEntity
  8
0
100
AcDbLine
 10
336.1622431531684
 20
196.5323325944562
 30
0.0
 11
336.2221182507685
 21
196.6044831225563
 31
0.0
  0
LINE
  5
130
330
1F
100
AcDbEntity
  8
0
100
AcDbLine
 10
336.4993803127684
 20
196.9444294381562
 30
0.0
 11
336.5117843433684
 21
196.9592558422562
 31
0.0
  0
LINE
  5
131
330
1F
100
AcDbEntity
  8
0
100
AcDbLine
 10
336.1106509968683
 20
196.4707997623561
 30
0.0
 11
336.1622431531684
 21
196.5323325944562
 31
0.0
  0
LINE
  5
132
330
1F
100
AcDbEntity
  8
0
100
AcDbLine
 10
336.5117843433684
 20
196.9592558422562
 30
0.0
 11
336.5190039213685
 21
196.9677800776562
 31
0.0
  0
LINE
  5
133
330
1F
100
AcDbEntity
  8
0
100
AcDbLine
 10
336.0557813409685
 20
196.4060337152562
 30
0.0
 11
336.1106509968683
 21
196.4707997623561
 31
0.0
  0
LINE
  5
134
330
1F
100
AcDbEntity
  8
0
100
AcDbLine
 10
336.0124871102685
 20
196.3554349527562
 30
0.0
 11
336.0557813409685
 21
196.4060337152562
 31
0.0
  0
LINE
  5
135
330
1F
100
AcDbEntity
  8
0
100
AcDbLine
 10
336.5190039213685
 20
196.9677800776562
 30
0.0
 11
336.5253482990684
 21
196.9751802023563
 31
0.0
  0
LWPOLYLINE
  5
136
330
1F
100
AcDbEntity
  8
0
100
AcDbPolyline
 90
        5
 70
     0
 43
0.0
 10
336.5253482990684
 20
196.9751802023563
 10
336.5307603067683
 20
196.9813999197563
 10
336.5330937216684
 20
196.9840461913561
 10
336.5351780462684
 20
196.9863867934562
 10
336.5370070864685
 20
196.9884185021563
  0
LINE
  5
137
330
1F
100
AcDbEntity
  8
0
100
AcDbLine
 10
336.5370070864685
 20
196.9884185021563
 30
0.0
 11
336.5388066204684
 21
196.9903913254561
 31
0.0
  0
LINE
  5
138
330
1F
100
AcDbEntity
  8
0
100
AcDbLine
 10
251.4975747963683
 20
-39.4688930068437
 30
0.0
 11
251.4975747963683
 21
2.5311069931563
 31
0.0
  0
LINE
  5
139
330
1F
100
AcDbEntity
  8
0
100
AcDbLine
 10
254.4975747963683
 20
19.72266896955625
 30
0.0
 11
254.4975747963683
 21
3.02060490205622
 31
0.0
  0
LINE
  5
13A
330
1F
100
AcDbEntity
  8
0
100
AcDbLine
 10
263.4975747963683
 20
19.72266896955625
 30
0.0
 11
263.4975747963683
 21
3.020602332656154
 31
0.0
  0
LINE
  5
13B
330
1F
100
AcDbEntity
  8
0
100
AcDbLine
 10
286.4975747963683
 20
-39.9688930068437
 30
0.0
 11
286.4975747963683
 21
3.0311069931563
 31
0.0
  0
LINE
  5
13C
330
1F
100
AcDbEntity
  8
0
100
AcDbLine
 10
286.5975747963685
 20
1.7811069931563
 30
0.0
 11
286.5975747963685
 21
-38.7188930068437
 31
0.0
  0
LINE
  5
13D
330
1F
100
AcDbEntity
  8
0
100
AcDbLine
 10
286.8975747963684
 20
3.0311069931563
 30
0.0
 11
286.8975747963684
 21
-39.9688930068437
 31
0.0
  0
LINE
  5
13E
330
1F
100
AcDbEntity
  8
0
100
AcDbLine
 10
301.8975747963684
 20
-81.9688930068437
 30
0.0
 11
301.8975747963684
 21
-87.4688930068437
 31
0.0
  0
LINE
  5
13F
330
1F
100
AcDbEntity
  8
0
100
AcDbLine
 10
305.1475747963684
 20
-80.9688930068437
 30
0.0
 11
305.1475747963684
 21
-42.9688930068437
 31
0.0
  0
LINE
  5
140
330
1F
100
AcDbEntity
  8
0
100
AcDbLine
 10
312.8975747963684
 20
201.7350410637562
 30
0.0
 11
312.8975747963684
 21
20.73110699315635
 31
0.0
  0
LINE
  5
141
330
1F
100
AcDbEntity
  8
0
100
AcDbLine
 10
312.8975747963684
 20
6.030335969456246
 30
0.0
 11
312.8975747963684
 21
20.5311069931563
 31
0.0
  0
LINE
  5
142
330
1F
100
AcDbEntity
  8
0
100
AcDbLine
 10
312.8975747963684
 20
202.0795418758562
 30
0.0
 11
312.8975747963684
 21
205.0480078139562
 31
0.0
  0
LINE
  5
143
330
1F
100
AcDbEntity
  8
0
100
AcDbLine
 10
315.2975747963685
 20
20.5311069931563
 30
0.0
 11
315.2975747963685
 21
20.73110699315635
 31
0.0
  0
LINE
  5
144
330
1F
100
AcDbEntity
  8
0
100
AcDbLine
 10
315.8975747963684
 20
184.3371196018563
 30
0.0
 11
315.8975747963684
 21
196.2233249418562
 31
0.0
  0
LINE
  5
145
330
1F
100
AcDbEntity
  8
0
100
AcDbLine
 10
335.8975747963684
 20
184.3371196018563
 30
0.0
 11
335.8975747963684
 21
196.2233248226562
 31
0.0
  0
LINE
  5
146
330
1F
100
AcDbEntity
  8
0
100
AcDbLine
 10
336.4975747963683
 20
20.5311069931563
 30
0.0
 11
336.4975747963683
 21
20.73110699315635
 31
0.0
  0
LINE
  5
147
330
1F
100
AcDbEntity
  8
0
100
AcDbLine
 10
338.8975747963684
 20
201.7350410637562
 30
0.0
 11
338.8975747963684
 21
20.73110699315635
 31
0.0
  0
LINE
  5
148
330
1F
100
AcDbEntity
  8
0
100
AcDbLine
 10
338.8975747963684
 20
6.030034926556255
 30
0.0
 11
338.8975747963684
 21
20.5311069931563
 31
0.0
  0
LINE
  5
149
330
1F
100
AcDbEntity
  8
0
100
AcDbLine
 10
338.8975747963684
 20
202.0795418758562
 30
0.0
 11
338.8975747963684
 21
205.0480078139562
 31
0.0
  0
LINE
  5
14A
330
1F
100
AcDbEntity
  8
0
100
AcDbLine
 10
346.6475747963684
 20
-80.9688930068437
 30
0.0
 11
346.6475747963684
 21
-42.9688930068437
 31
0.0
  0
LINE
  5
14B
330
1F
100
AcDbEntity
  8
0
100
AcDbLine
 10
349.8975747963684
 20
-81.9688930068437
 30
0.0
 11
349.8975747963684
 21
-87.4688930068437
 31
0.0
  0
LINE
  5
14C
330
1F
100
AcDbEntity
  8
0
100
AcDbLine
 10
388.8975747963684
 20
3.0311069931563
 30
0.0
 11
388.8975747963684
 21
-39.9688930068437
 31
0.0
  0
LINE
  5
14D
330
1F
100
AcDbEntity
  8
0
100
AcDbLine
 10
391.1975747963684
 20
3.03947537715635
 30
0.0
 11
391.1975747963684
 21
-24.76237175794381
 31
0.0
  0
LINE
  5
14E
330
1F
100
AcDbEntity
  8
0
100
AcDbLine
 10
391.4003689236683
 20
-37.45020743604368
 30
0.0
 11
391.4003689236683
 21
-26.09403575564374
 31
0.0
  0
LINE
  5
14F
330
1F
100
AcDbEntity
  8
0
100
AcDbLine
 10
405.1975747963684
 20
55.01569139665617
 30
0.0
 11
405.1975747963684
 21
1.507098762656142
 31
0.0
  0
LINE
  5
150
330
1F
100
AcDbEntity
  8
0
100
AcDbLine
 10
414.1975747963684
 20
55.01569139665617
 30
0.0
 11
414.1975747963684
 21
1.507084202456326
 31
0.0
  0
LINE
  5
151
330
1F
100
AcDbEntity
  8
0
100
AcDbLine
 10
417.1975747963684
 20
2.539649972056168
 30
0.0
 11
417.1975747963684
 21
-39.46033497854387
 31
0.0
  0
LINE
  5
152
330
1F
100
AcDbEntity
  8
0
100
AcDbLine
 10
301.8976112850685
 20
-87.4688930068437
 30
0.0
 11
349.8975383076684
 21
-87.4688930068437
 31
0.0
  0
LINE
  5
153
330
1F
100
AcDbEntity
  8
0
100
AcDbLine
 10
348.8975747960685
 20
-80.9688930068437
 30
0.0
 11
302.8975747965685
 21
-80.9688930068437
 31
0.0
  0
LINE
  5
154
330
1F
100
AcDbEntity
  8
0
100
AcDbLine
 10
396.9503646630685
 20
-36.07423126104368
 30
0.0
 11
391.4003689236683
 21
-37.45020743604368
 31
0.0
  0
LINE
  5
155
330
1F
100
AcDbEntity
  8
0
100
AcDbLine
 10
391.4003689236683
 20
-37.45020743604368
 30
0.0
 11
388.8975747963684
 21
-37.91889300684375
 31
0.0
  0
LINE
  5
156
330
1F
100
AcDbEntity
  8
0
100
AcDbLine
 10
388.8975747963684
 20
-39.9688930068437
 30
0.0
 11
349.6475747963684
 21
-39.9688930068437
 31
0.0
  0
LINE
  5
157
330
1F
100
AcDbEntity
  8
0
100
AcDbLine
 10
302.1475747963684
 20
-39.9688930068437
 30
0.0
 11
286.8975747963684
 21
-39.9688930068437
 31
0.0
  0
LINE
  5
158
330
1F
100
AcDbEntity
  8
0
100
AcDbLine
 10
286.4975747963683
 20
-39.9688930068437
 30
0.0
 11
266.6975747963684
 21
-39.9688930068437
 31
0.0
  0
LINE
  5
159
330
1F
100
AcDbEntity
  8
0
100
AcDbLine
 10
286.4975747963683
 20
-39.9688930068437
 30
0.0
 11
266.6975747963684
 21
-39.9688930068437
 31
0.0
  0
LINE
  5
15A
330
1F
100
AcDbEntity
  8
0
100
AcDbLine
 10
257.2975747963685
 20
-39.9688930068437
 30
0.0
 11
251.9975747963683
 21
-39.9688930068437
 31
0.0
  0
LINE
  5
15B
330
1F
100
AcDbEntity
  8
0
100
AcDbLine
 10
257.2975747963685
 20
-39.9688930068437
 30
0.0
 11
251.9975747963683
 21
-39.9688930068437
 31
0.0
  0
LINE
  5
15C
330
1F
100
AcDbEntity
  8
0
100
AcDbLine
 10
400.6033530289685
 20
-39.96034250324374
 30
0.0
 11
416.6975747963684
 21
-39.96034250324374
 31
0.0
  0
LINE
  5
15D
330
1F
100
AcDbEntity
  8
0
100
AcDbLine
 10
286.4975747963683
 20
-38.7188930068437
 30
0.0
 11
286.5975747963685
 21
-38.7188930068437
 31
0.0
  0
LINE
  5
15E
330
1F
100
AcDbEntity
  8
0
100
AcDbLine
 10
286.4975747963683
 20
1.7811069931563
 30
0.0
 11
286.5975747963685
 21
1.7811069931563
 31
0.0
  0
LINE
  5
15F
330
1F
100
AcDbEntity
  8
0
100
AcDbLine
 10
388.8975747963684
 20
3.0311069931563
 30
0.0
 11
341.8959318186685
 21
3.0311069931563
 31
0.0
  0
LINE
  5
160
330
1F
100
AcDbEntity
  8
0
100
AcDbLine
 10
309.8987566132685
 20
3.0311069931563
 30
0.0
 11
286.8975747963684
 21
3.0311069931563
 31
0.0
  0
LINE
  5
161
330
1F
100
AcDbEntity
  8
0
100
AcDbLine
 10
286.4975747963683
 20
3.0311069931563
 30
0.0
 11
263.5475747963685
 21
3.0311069931563
 31
0.0
  0
LINE
  5
162
330
1F
100
AcDbEntity
  8
0
100
AcDbLine
 10
286.4975747963683
 20
3.0311069931563
 30
0.0
 11
263.5475747963685
 21
3.0311069931563
 31
0.0
  0
LINE
  5
163
330
1F
100
AcDbEntity
  8
0
100
AcDbLine
 10
254.4475747963684
 20
3.0311069931563
 30
0.0
 11
251.9975747963683
 21
3.0311069931563
 31
0.0
  0
LINE
  5
164
330
1F
100
AcDbEntity
  8
0
100
AcDbLine
 10
254.4475747963684
 20
3.0311069931563
 30
0.0
 11
251.9975747963683
 21
3.0311069931563
 31
0.0
  0
LINE
  5
165
330
1F
100
AcDbEntity
  8
0
100
AcDbLine
 10
391.1975747963684
 20
3.039657496756263
 30
0.0
 11
405.1975747963684
 21
3.039657496756263
 31
0.0
  0
LINE
  5
166
330
1F
100
AcDbEntity
  8
0
100
AcDbLine
 10
414.1975747963684
 20
3.039657496756263
 30
0.0
 11
416.6975747963684
 21
3.039657496756263
 31
0.0
  0
LINE
  5
167
330
1F
100
AcDbEntity
  8
0
100
AcDbLine
 10
338.8975190123683
 20
20.5311069931563
 30
0.0
 11
312.8976305802685
 21
20.5311069931563
 31
0.0
  0
LINE
  5
168
330
1F
100
AcDbEntity
  8
0
100
AcDbLine
 10
338.8975747963684
 20
20.73110699315635
 30
0.0
 11
312.8975747963684
 21
20.73110699315635
 31
0.0
  0
LINE
  5
169
330
1F
100
AcDbEntity
  8
0
100
AcDbLine
 10
315.8638653284684
 20
196.2617452433562
 30
0.0
 11
315.9112092827684
 21
196.2078573162562
 31
0.0
  0
LINE
  5
16A
330
1F
100
AcDbEntity
  8
0
100
AcDbLine
 10
315.8186202404684
 20
196.3137507633562
 30
0.0
 11
315.8638653284684
 21
196.2617452433562
 31
0.0
  0
LINE
  5
16B
330
1F
100
AcDbEntity
  8
0
100
AcDbLine
 10
315.7754089991683
 20
196.3638833621562
 30
0.0
 11
315.8186202404684
 21
196.3137507633562
 31
0.0
  0
LINE
  5
16C
330
1F
100
AcDbEntity
  8
0
100
AcDbLine
 10
315.7208620699685
 20
196.4278103156562
 30
0.0
 11
315.7754089991683
 21
196.3638833621562
 31
0.0
  0
LINE
  5
16D
330
1F
100
AcDbEntity
  8
0
100
AcDbLine
 10
315.6697019087685
 20
196.4884057331562
 30
0.0
 11
315.7208620699685
 21
196.4278103156562
 31
0.0
  0
LINE
  5
16E
330
1F
100
AcDbEntity
  8
0
100
AcDbLine
 10
315.6103236536685
 20
196.5594804980562
 30
0.0
 11
315.6697019087685
 21
196.4884057331562
 31
0.0
  0
LINE
  5
16F
330
1F
100
AcDbEntity
  8
0
100
AcDbLine
 10
315.5558143240685
 20
196.6253919163562
 30
0.0
 11
315.6103236536685
 21
196.5594804980562
 31
0.0
  0
LINE
  5
170
330
1F
100
AcDbEntity
  8
0
100
AcDbLine
 10
315.2991782747683
 20
196.9403258100563
 30
0.0
 11
315.3175813522685
 21
196.9179905432563
 31
0.0
  0
LINE
  5
171
330
1F
100
AcDbEntity
  8
0
100
AcDbLine
 10
315.4872982975685
 20
196.7090424922562
 30
0.0
 11
315.5558143240685
 21
196.6253919163562
 31
0.0
  0
LINE
  5
172
330
1F
100
AcDbEntity
  8
0
100
AcDbLine
 10
315.3175813522685
 20
196.9179905432563
 30
0.0
 11
315.3566664402683
 21
196.8700322104562
 31
0.0
  0
LWPOLYLINE
  5
173
330
1F
100
AcDbEntity
  8
0
100
AcDbPolyline
 90
        4
 70
     0
 43
0.0
 10
315.3566664402683
 20
196.8700322104562
 10
315.3898810782684
 20
196.8290536831562
 10
315.3970483432684
 20
196.8202040693564
 10
315.4872982975685
 20
196.7090424922562
  0
LINE
  5
174
330
1F
100
AcDbEntity
  8
0
100
AcDbLine
 10
316.8126675118685
 20
195.2790252086563
 30
0.0
 11
316.8709160323685
 21
195.2248623798562
 31
0.0
  0
LINE
  5
175
330
1F
100
AcDbEntity
  8
0
100
AcDbLine
 10
316.7559143098683
 20
195.3324322487563
 30
0.0
 11
316.8126675118685
 21
195.2790252086563
 31
0.0
  0
LINE
  5
176
330
1F
100
AcDbEntity
  8
0
100
AcDbLine
 10
316.7006308251684
 20
195.3850684455563
 30
0.0
 11
316.7559143098683
 21
195.3324322487563
 31
0.0
  0
LINE
  5
177
330
1F
100
AcDbEntity
  8
0
100
AcDbLine
 10
316.6467919740685
 20
195.4369173059563
 30
0.0
 11
316.7006308251684
 21
195.3850684455563
 31
0.0
  0
LINE
  5
178
330
1F
100
AcDbEntity
  8
0
100
AcDbLine
 10
316.5943716493684
 20
195.4879645667563
 30
0.0
 11
316.6467919740685
 21
195.4369173059563
 31
0.0
  0
LINE
  5
179
330
1F
100
AcDbEntity
  8
0
100
AcDbLine
 10
316.5433434336685
 20
195.5381978929563
 30
0.0
 11
316.5943716493684
 21
195.4879645667563
 31
0.0
  0
LINE
  5
17A
330
1F
100
AcDbEntity
  8
0
100
AcDbLine
 10
316.4936821098684
 20
195.5876053476563
 30
0.0
 11
316.5433434336685
 21
195.5381978929563
 31
0.0
  0
LINE
  5
17B
330
1F
100
AcDbEntity
  8
0
100
AcDbLine
 10
316.4453618408684
 20
195.6361771339562
 30
0.0
 11
316.4936821098684
 21
195.5876053476563
 31
0.0
  0
LINE
  5
17C
330
1F
100
AcDbEntity
  8
0
100
AcDbLine
 10
316.3983570387684
 20
195.6839047059561
 30
0.0
 11
316.4453618408684
 21
195.6361771339562
 31
0.0
  0
LINE
  5
17D
330
1F
100
AcDbEntity
  8
0
100
AcDbLine
 10
316.3526431666685
 20
195.7307798969562
 30
0.0
 11
316.3983570387684
 21
195.6839047059561
 31
0.0
  0
LINE
  5
17E
330
1F
100
AcDbEntity
  8
0
100
AcDbLine
 10
316.3081953565684
 20
195.7767962733562
 30
0.0
 11
316.3526431666685
 21
195.7307798969562
 31
0.0
  0
LINE
  5
17F
330
1F
100
AcDbEntity
  8
0
100
AcDbLine
 10
316.2649878771683
 20
195.8219496781562
 30
0.0
 11
316.3081953565684
 21
195.7767962733562
 31
0.0
  0
LINE
  5
180
330
1F
100
AcDbEntity
  8
0
100
AcDbLine
 10
316.2229948676684
 20
195.8662374653563
 30
0.0
 11
316.2649878771683
 21
195.8219496781562
 31
0.0
  0
LINE
  5
181
330
1F
100
AcDbEntity
  8
0
100
AcDbLine
 10
316.1622189923685
 20
195.9310494814563
 30
0.0
 11
316.2229948676684
 21
195.8662374653563
 31
0.0
  0
LINE
  5
182
330
1F
100
AcDbEntity
  8
0
100
AcDbLine
 10
316.1040198464684
 20
195.9939135409563
 30
0.0
 11
316.1622189923685
 21
195.9310494814563
 31
0.0
  0
LINE
  5
183
330
1F
100
AcDbEntity
  8
0
100
AcDbLine
 10
316.0483049282684
 20
196.0548337207563
 30
0.0
 11
316.1040198464684
 21
195.9939135409563
 31
0.0
  0
LINE
  5
184
330
1F
100
AcDbEntity
  8
0
100
AcDbLine
 10
315.9949850278683
 20
196.1138182477562
 30
0.0
 11
316.0483049282684
 21
196.0548337207563
 31
0.0
  0
LINE
  5
185
330
1F
100
AcDbEntity
  8
0
100
AcDbLine
 10
315.9439742500683
 20
196.1708788813562
 30
0.0
 11
315.9949850278683
 21
196.1138182477562
 31
0.0
  0
LINE
  5
186
330
1F
100
AcDbEntity
  8
0
100
AcDbLine
 10
315.9112092827684
 20
196.2078573162562
 30
0.0
 11
315.9439742500683
 21
196.1708788813562
 31
0.0
  0
LINE
  5
187
330
1F
100
AcDbEntity
  8
0
100
AcDbLine
 10
317.9438577759684
 20
194.3336113708563
 30
0.0
 11
318.0299894663685
 21
194.2700048152562
 31
0.0
  0
LINE
  5
188
330
1F
100
AcDbEntity
  8
0
100
AcDbLine
 10
317.8597042971685
 20
194.3968124746561
 30
0.0
 11
317.9438577759684
 21
194.3336113708563
 31
0.0
  0
LINE
  5
189
330
1F
100
AcDbEntity
  8
0
100
AcDbLine
 10
317.7774785385684
 20
194.4595913998562
 30
0.0
 11
317.8597042971685
 21
194.3968124746561
 31
0.0
  0
LINE
  5
18A
330
1F
100
AcDbEntity
  8
0
100
AcDbLine
 10
317.6971553910685
 20
194.5219141579562
 30
0.0
 11
317.7774785385684
 21
194.4595913998562
 31
0.0
  0
LINE
  5
18B
330
1F
100
AcDbEntity
  8
0
100
AcDbLine
 10
317.6187038689684
 20
194.5837527421563
 30
0.0
 11
317.6971553910685
 21
194.5219141579562
 31
0.0
  0
LINE
  5
18C
330
1F
100
AcDbEntity
  8
0
100
AcDbLine
 10
317.5420935775685
 20
194.6450802595562
 30
0.0
 11
317.6187038689684
 21
194.5837527421563
 31
0.0
  0
LINE
  5
18D
330
1F
100
AcDbEntity
  8
0
100
AcDbLine
 10
317.4672942170685
 20
194.7058712867563
 30
0.0
 11
317.5420935775685
 21
194.6450802595562
 31
0.0
  0
LINE
  5
18E
330
1F
100
AcDbEntity
  8
0
100
AcDbLine
 10
317.3942759577685
 20
194.7661015263564
 30
0.0
 11
317.4672942170685
 21
194.7058712867563
 31
0.0
  0
LINE
  5
18F
330
1F
100
AcDbEntity
  8
0
100
AcDbLine
 10
317.3230112566685
 20
194.8257452502562
 30
0.0
 11
317.3942759577685
 21
194.7661015263564
 31
0.0
  0
LINE
  5
190
330
1F
100
AcDbEntity
  8
0
100
AcDbLine
 10
317.2534725113685
 20
194.8847765489563
 30
0.0
 11
317.3230112566685
 21
194.8257452502562
 31
0.0
  0
LINE
  5
191
330
1F
100
AcDbEntity
  8
0
100
AcDbLine
 10
317.1856316667684
 20
194.9431713228562
 30
0.0
 11
317.2534725113685
 21
194.8847765489563
 31
0.0
  0
LINE
  5
192
330
1F
100
AcDbEntity
  8
0
100
AcDbLine
 10
317.1194608343685
 20
195.0009069205562
 30
0.0
 11
317.1856316667684
 21
194.9431713228562
 31
0.0
  0
LINE
  5
193
330
1F
100
AcDbEntity
  8
0
100
AcDbLine
 10
317.0549325206684
 20
195.0579619038563
 30
0.0
 11
317.1194608343685
 21
195.0009069205562
 31
0.0
  0
LINE
  5
194
330
1F
100
AcDbEntity
  8
0
100
AcDbLine
 10
316.9920184085684
 20
195.1143171028561
 30
0.0
 11
317.0549325206684
 21
195.0579619038563
 31
0.0
  0
LINE
  5
195
330
1F
100
AcDbEntity
  8
0
100
AcDbLine
 10
316.9306899273683
 20
195.1699551207562
 30
0.0
 11
316.9920184085684
 21
195.1143171028561
 31
0.0
  0
LINE
  5
196
330
1F
100
AcDbEntity
  8
0
100
AcDbLine
 10
316.8709160323685
 20
195.2248623798562
 30
0.0
 11
316.9306899273683
 21
195.1699551207562
 31
0.0
  0
LINE
  5
197
330
1F
100
AcDbEntity
  8
0
100
AcDbLine
 10
338.8975747963684
 20
140.0516674946562
 30
0.0
 11
312.8975747963684
 21
140.0516674946562
 31
0.0
  0
LINE
  5
198
330
1F
100
AcDbEntity
  8
0
100
AcDbLine
 10
318.2547619272684
 20
194.1090270962563
 30
0.0
 11
318.3489449539684
 21
194.0436717491561
 31
0.0
  0
LINE
  5
199
330
1F
100
AcDbEntity
  8
0
100
AcDbLine
 10
318.1631229305685
 20
194.1737948252562
 30
0.0
 11
318.2547619272684
 21
194.1090270962563
 31
0.0
  0
LWPOLYLINE
  5
19A
330
1F
100
AcDbEntity
  8
0
100
AcDbPolyline
 90
        3
 70
     0
 43
0.0
 10
318.0299894663685
 20
194.2700048152562
 10
318.0738090633683
 20
194.2380582341561
 10
318.1631229305685
 20
194.1737948252562
  0
LINE
  5
19B
330
1F
100
AcDbEntity
  8
0
100
AcDbLine
 10
-126.6964594718415
 20
191.7717304856563
 30
0.0
 11
-126.4852019902415
 21
191.9359420234562
 31
0.0
  0
LINE
  5
19C
330
1F
100
AcDbEntity
  8
0
100
AcDbLine
 10
-126.4852019902415
 20
191.9359420234562
 30
0.0
 11
-126.4318133965415
 21
191.9772489027562
 31
0.0
  0
LINE
  5
19D
330
1F
100
AcDbEntity
  8
0
100
AcDbLine
 10
-126.4873475755414
 20
191.9342800039563
 30
0.0
 11
-126.3098009552415
 21
192.0714338276562
 31
0.0
  0
LWPOLYLINE
  5
19E
330
1F
100
AcDbEntity
  8
0
100
AcDbPolyline
 90
       40
 70
     0
 43
0.0
 10
-126.3098009552415
 20
192.0714338276562
 10
-126.0745483027415
 20
192.2518976059562
 10
-125.9352330961415
 20
192.3580744971562
 10
-125.7823225415415
 20
192.4739826462563
 10
-125.6160838299415
 20
192.5992269470563
 10
-125.4367972733415
 20
192.7333908090564
 10
-125.2457549215414
 20
192.8752650572563
 10
-125.0433925991415
 20
193.0242639667563
 10
-124.8301469566414
 20
193.1797981343562
 10
-124.6076242060415
 20
193.3404187252564
 10
-124.3764588839415
 20
193.5053585126562
 10
-124.1370002272415
 20
193.6740545615563
 10
-123.8905895333415
 20
193.8452498284562
 10
-123.6378525607415
 20
194.0181625508563
 10
-123.3790565542415
 20
194.1922586539563
 10
-123.1150386227415
 20
194.3666204724562
 10
-122.8461608991415
 20
194.5406073302564
 10
-122.5727543555415
 20
194.7136080375563
 10
-122.2955833365415
 20
194.8847238486563
 10
-122.0149238899415
 20
195.0533338387564
 10
-121.7310457781415
 20
195.2188373719562
 10
-121.4446920606415
 20
195.3803171451562
 10
-121.1561733532415
 20
195.5371303947564
 10
-120.8656522801415
 20
195.6886959900563
 10
-120.5736823484415
 20
195.8342159431564
 10
-120.2806431905415
 20
195.9730113880562
 10
-119.9866367702415
 20
196.1045182681563
 10
-119.6918357480415
 20
196.2281526100563
 10
-119.3965297566415
 20
196.3432736979562
 10
-119.1010043054415
 20
196.4492775112563
 10
-118.8054785540415
 20
196.5456069026564
 10
-118.5102793895414
 20
196.6317161606563
 10
-118.2158975180415
 20
196.7070743959562
 10
-117.9229120436415
 20
196.7712431610562
 10
-117.6318125429415
 20
196.8239059897563
 10
-117.3432299149415
 20
196.8648776860562
 10
-117.0580087819415
 20
196.8940857237563
 10
-116.7768366138414
 20
196.9116829717562
 10
-116.5002178159416
 20
196.9179782467564
 10
-116.2990674406415
 20
196.9156314117564
  0
LINE
  5
19F
330
1F
100
AcDbEntity
  8
0
100
AcDbLine
 10
-88.74936104624157
 20
190.7507021641564
 30
0.0
 11
-88.60662743144144
 21
190.8289721364563
 31
0.0
  0
LWPOLYLINE
  5
1A0
330
1F
100
AcDbEntity
  8
0
100
AcDbPolyline
 90
       14
 70
     0
 43
0.0
 10
-88.60662743144144
 20
190.8289721364563
 10
-88.46762870754151
 20
190.9041763095563
 10
-88.38011772754157
 20
190.9510307795563
 10
-88.2804266155415
 20
191.0039196710564
 10
-88.1685676958416
 20
191.0626189411562
 10
-88.04454355764142
 20
191.1268970357562
 10
-87.90811708604156
 20
191.1966302914562
 10
-87.75923815444139
 20
191.2715535609562
 10
-87.59794491734147
 20
191.3512832837562
 10
-87.42408688544151
 20
191.4354975609563
 10
-87.23720464434155
 20
191.5239869048562
 10
-87.0377817981414
 20
191.6160590186562
 10
-86.82726134794143
 20
191.7105388954563
 10
-86.60557776524138
 20
191.8068970316563
  0
LINE
  5
1A1
330
1F
100
AcDbEntity
  8
0
100
AcDbLine
 10
-86.60557776524138
 20
191.8068970316563
 30
0.0
 11
-86.37317900824155
 21
191.9043591957564
 31
0.0
  0
LWPOLYLINE
  5
1A2
330
1F
100
AcDbEntity
  8
0
100
AcDbPolyline
 90
        3
 70
     0
 43
0.0
 10
-86.37317900824155
 20
191.9043591957564
 10
-86.13276287174153
 20
192.0012628802563
 10
-85.88518587764156
 20
192.0967907447562
  0
LWPOLYLINE
  5
1A3
330
1F
100
AcDbEntity
  8
0
100
AcDbPolyline
 90
        6
 70
     0
 43
0.0
 10
-85.88518587764156
 20
192.0967907447562
 10
-85.63058398764156
 20
192.1903619414564
 10
-85.37102768244154
 20
192.2807104244562
 10
-85.10761415134152
 20
192.3670378956563
 10
-84.84040724294141
 20
192.4489408265563
 10
-84.57011074804154
 20
192.5258386083563
  0
LINE
  5
1A4
330
1F
100
AcDbEntity
  8
0
100
AcDbLine
 10
-74.85457288324142
 20
182.7930582526563
 30
0.0
 11
-74.64938588774157
 21
182.9877734408563
 31
0.0
  0
LINE
  5
1A5
330
1F
100
AcDbEntity
  8
0
100
AcDbLine
 10
-140.7900747391415
 20
216.6806202571564
 30
0.0
 11
-141.3973767843415
 21
193.4886908260563
 31
0.0
  0
LINE
  5
1A6
330
1F
100
AcDbEntity
  8
0
100
AcDbLine
 10
-126.6250225480414
 20
184.5988890849563
 30
0.0
 11
-126.4318133520414
 21
191.9772506043562
 31
0.0
  0
LINE
  5
1A7
330
1F
100
AcDbEntity
  8
0
100
AcDbLine
 10
-106.6318760485415
 20
184.0753501187563
 30
0.0
 11
-106.4386668756415
 21
191.4537107540562
 31
0.0
  0
LINE
  5
1A8
330
1F
100
AcDbEntity
  8
0
100
AcDbLine
 10
-26.45748695794146
 20
189.6873351065562
 30
0.0
 11
-26.45744484124157
 21
189.6893518138563
 31
0.0
  0
LINE
  5
1A9
330
1F
100
AcDbEntity
  8
0
100
AcDbLine
 10
-25.79806917944143
 20
214.8698924401562
 30
0.0
 11
-26.46342389514143
 21
189.4610209571563
 31
0.0
  0
LINE
  5
1AA
330
1F
100
AcDbEntity
  8
0
100
AcDbLine
 10
-24.30120015854141
 20
214.7306890909562
 30
0.0
 11
-24.30603617034149
 21
214.5460092505561
 31
0.0
  0
LINE
  5
1AB
330
1F
100
AcDbEntity
  8
0
100
AcDbLine
 10
-24.29334707404155
 20
214.7305862883563
 30
0.0
 11
-24.9641307265415
 21
189.1143920799561
 31
0.0
  0
LWPOLYLINE
  5
1AC
330
1F
100
AcDbEntity
  8
0
100
AcDbPolyline
 90
        6
 70
     0
 43
0.0
 10
-26.45746350864147
 20
189.6873347482562
 10
-26.45703555774139
 20
189.6696681428561
 10
-26.45287303304144
 20
189.6393217152563
 10
-26.4444187319416
 20
189.6097344633563
 10
-26.43188499594157
 20
189.5816229572563
 10
-26.41579762734159
 20
189.5558182539562
  0
LINE
  5
1AD
330
1F
100
AcDbEntity
  8
0
100
AcDbLine
 10
74.86635259795844
 20
-81.96889300684383
 30
0.0
 11
74.86635259795844
 21
-87.46889300684383
 31
0.0
  0
LINE
  5
1AE
330
1F
100
AcDbEntity
  8
0
100
AcDbLine
 10
78.11635259795844
 20
-80.96889300684383
 30
0.0
 11
78.11635259795844
 21
-24.49496418204389
 31
0.0
  0
LINE
  5
1AF
330
1F
100
AcDbEntity
  8
0
100
AcDbLine
 10
85.86635259795844
 20
140.051667494656
 30
0.0
 11
85.86635259795844
 21
30.47852835685612
 31
0.0
  0
LINE
  5
1B0
330
1F
100
AcDbEntity
  8
0
100
AcDbLine
 10
85.86635259795844
 20
0.0850823084561886
 30
0.0
 11
85.86635259795844
 21
4.164288755356077
 31
0.0
  0
LINE
  5
1B1
330
1F
100
AcDbEntity
  8
0
100
AcDbLine
 10
85.86635259795844
 20
0.0850823084561886
 30
0.0
 11
85.86635259795844
 21
4.164288755356077
 31
0.0
  0
LINE
  5
1B2
330
1F
100
AcDbEntity
  8
0
100
AcDbLine
 10
109.4663525979586
 20
20.73110699315619
 30
0.0
 11
109.4663525979586
 21
20.53110699315615
 31
0.0
  0
LINE
  5
1B3
330
1F
100
AcDbEntity
  8
0
100
AcDbLine
 10
109.6992378810585
 20
20.73110699315619
 30
0.0
 11
109.6992378810585
 21
20.53110699315614
 31
0.0
  0
LINE
  5
1B4
330
1F
100
AcDbEntity
  8
0
100
AcDbLine
 10
110.6840456340585
 20
20.73110699315619
 30
0.0
 11
110.6840456340585
 21
20.53110699315614
 31
0.0
  0
LINE
  5
1B5
330
1F
100
AcDbEntity
  8
0
100
AcDbLine
 10
110.8663525979584
 20
20.73110699315619
 30
0.0
 11
110.8663525979584
 21
20.53110699315614
 31
0.0
  0
LINE
  5
1B6
330
1F
100
AcDbEntity
  8
0
100
AcDbLine
 10
111.8663525979584
 20
140.051667494656
 30
0.0
 11
111.8663525979584
 21
20.73110699315619
 31
0.0
  0
LINE
  5
1B7
330
1F
100
AcDbEntity
  8
0
100
AcDbLine
 10
111.8663525979584
 20
0.0850823084561655
 30
0.0
 11
111.8663525979584
 21
20.53110699315614
 31
0.0
  0
LINE
  5
1B8
330
1F
100
AcDbEntity
  8
0
100
AcDbLine
 10
111.8663525979584
 20
0.0850823084561655
 30
0.0
 11
111.8663525979584
 21
20.53110699315614
 31
0.0
  0
LINE
  5
1B9
330
1F
100
AcDbEntity
  8
0
100
AcDbLine
 10
119.6163525979584
 20
-80.96889300684387
 30
0.0
 11
119.6163525979584
 21
-24.49468863274404
 31
0.0
  0
LINE
  5
1BA
330
1F
100
AcDbEntity
  8
0
100
AcDbLine
 10
119.6163496897584
 20
-24.48452098664387
 30
0.0
 11
119.6163717161585
 21
-24.47302516774396
 31
0.0
  0
LWPOLYLINE
  5
1BB
330
1F
100
AcDbEntity
  8
0
100
AcDbPolyline
 90
        6
 70
     0
 43
0.0
 10
119.6163717161585
 20
-24.47302516774396
 10
119.6181371880584
 20
-24.38097653204402
 10
119.6227251864584
 20
-24.28904433944393
 10
119.6301296453585
 20
-24.19731509004389
 10
119.6403418590585
 20
-24.10587492654388
 10
119.6521941875585
 20
-24.02290421504397
  0
LINE
  5
1BC
330
1F
100
AcDbEntity
  8
0
100
AcDbLine
 10
122.8663525979584
 20
-81.96889300684387
 30
0.0
 11
122.8663525979584
 21
-87.46889300684387
 31
0.0
  0
LINE
  5
1BD
330
1F
100
AcDbEntity
  8
0
100
AcDbLine
 10
122.8663525979584
 20
-87.46889300684387
 30
0.0
 11
74.86635259795844
 21
-87.46889300684383
 31
0.0
  0
LINE
  5
1BE
330
1F
100
AcDbEntity
  8
0
100
AcDbLine
 10
121.8663525979584
 20
-80.96889300684387
 30
0.0
 11
75.86635259795844
 21
-80.96889300684383
 31
0.0
  0
LINE
  5
1BF
330
1F
100
AcDbEntity
  8
0
100
AcDbLine
 10
67.91813888605861
 20
53.47660064825606
 30
0.0
 11
87.47155830365841
 21
-0.245977674843878
 31
0.0
  0
LINE
  5
1C0
330
1F
100
AcDbEntity
  8
0
100
AcDbLine
 10
67.91813888605861
 20
53.47660064825606
 30
0.0
 11
87.47155830365841
 21
-0.245977674843878
 31
0.0
  0
LINE
  5
1C1
330
1F
100
AcDbEntity
  8
0
100
AcDbLine
 10
76.37537247315845
 20
56.55478193815621
 30
0.0
 11
95.92879188635857
 21
2.83220362715619
 31
0.0
  0
LINE
  5
1C2
330
1F
100
AcDbEntity
  8
0
100
AcDbLine
 10
76.37537247315845
 20
56.55478193815621
 30
0.0
 11
95.92879188635857
 21
2.83220362715619
 31
0.0
  0
LINE
  5
1C3
330
1F
100
AcDbEntity
  8
0
100
AcDbLine
 10
-88.44987324654153
 20
183.1490637217562
 30
0.0
 11
-88.64456875974156
 21
183.3542299839562
 31
0.0
  0
LINE
  5
1C4
330
1F
100
AcDbEntity
  8
0
100
AcDbLine
 10
-106.7862027594415
 20
191.7510466847562
 30
0.0
 11
-106.5586341218416
 21
191.5567665600564
 31
0.0
  0
LINE
  5
1C5
330
1F
100
AcDbEntity
  8
0
100
AcDbLine
 10
-106.5586341218416
 20
191.5567665600564
 30
0.0
 11
-106.1885188989415
 21
191.2375587430564
 31
0.0
  0
LINE
  5
1C6
330
1F
100
AcDbEntity
  8
0
100
AcDbLine
 10
-106.1899613140415
 20
191.2388105155563
 30
0.0
 11
-106.1851264742415
 21
191.2346113934562
 31
0.0
  0
LWPOLYLINE
  5
1C7
330
1F
100
AcDbEntity
  8
0
100
AcDbPolyline
 90
        3
 70
     0
 43
0.0
 10
-26.41579762734159
 20
189.5558182539562
 10
-26.39640464334138
 20
189.5323834515561
 10
-26.3742200038414
 20
189.5116581399561
  0
LINE
  5
1C8
330
1F
100
AcDbEntity
  8
0
100
AcDbLine
 10
111.8663525979584
 20
20.53110699315614
 30
0.0
 11
89.48691788195856
 21
20.53110699315616
 31
0.0
  0
LINE
  5
1C9
330
1F
100
AcDbEntity
  8
0
100
AcDbLine
 10
111.8663525979584
 20
20.73110699315619
 30
0.0
 11
89.41412383515853
 21
20.73110699315621
 31
0.0
  0
LWPOLYLINE
  5
1CA
330
1F
100
AcDbEntity
  8
0
100
AcDbPolyline
 90
        9
 70
     0
 43
0.0
 10
-106.1851264742415
 20
191.2346113934562
 10
-106.1649338142415
 20
191.2185314986562
 10
-106.1432671592415
 20
191.2041464809564
 10
-106.1203490923415
 20
191.1916494123562
 10
-106.0965302736415
 20
191.1812301514563
 10
-106.0719974127414
 20
191.1729408381562
 10
-106.0467342434415
 20
191.1667768327564
 10
-106.0210194052415
 20
191.1628223606563
 10
-105.9961743063416
 20
191.1611378871563
  0
LWPOLYLINE
  5
1CB
330
1F
100
AcDbEntity
  8
0
100
AcDbPolyline
 90
        7
 70
     0
 43
0.0
 10
-74.15765650394155
 20
190.3686049341564
 10
-74.1344464466415
 20
190.3555764474563
 10
-74.10996320054142
 20
190.3445733050562
 10
-74.08448304194144
 20
190.3357697337563
 10
-74.05841512394159
 20
190.3293091247563
 10
-74.03197836744152
 20
190.3252171741563
 10
-74.00720729364139
 20
190.3235408082562
  0
LINE
  5
1CC
330
1F
100
AcDbEntity
  8
0
100
AcDbLine
 10
-74.51717894124158
 20
190.5887521317564
 30
0.0
 11
-74.35846890844141
 21
190.4924554708562
 31
0.0
  0
LINE
  5
1CD
330
1F
100
AcDbEntity
  8
0
100
AcDbLine
 10
-74.35846890844141
 20
190.4924554708562
 30
0.0
 11
-74.24638516234154
 21
190.4236069247563
 31
0.0
  0
LINE
  5
1CE
330
1F
100
AcDbEntity
  8
0
100
AcDbLine
 10
-74.19149233354142
 20
190.3896057066563
 30
0.0
 11
-74.15765650394155
 21
190.3686049341564
 31
0.0
  0
LINE
  5
1CF
330
1F
100
AcDbEntity
  8
0
100
AcDbLine
 10
-74.24638516234154
 20
190.4236069247563
 30
0.0
 11
-74.19149233354142
 21
190.3896057066563
 31
0.0
  0
LWPOLYLINE
  5
1D0
330
1F
100
AcDbEntity
  8
0
100
AcDbPolyline
 90
        9
 70
     0
 43
0.0
 10
-26.37161708674148
 20
189.5095390569563
 10
-26.34758013574151
 20
189.4923551377562
 10
-26.32250099214139
 20
189.4780724149561
 10
-26.29602949894138
 20
189.4659639823562
 10
-26.26798280614139
 20
189.4556026596563
 10
-26.23821031464149
 20
189.4466688064562
 10
-26.20616790874146
 20
189.4388454405562
 10
-26.17146413634146
 20
189.4319825930563
 10
-26.13399897994145
 20
189.4260398055562
  0
LWPOLYLINE
  5
1D1
330
1F
100
AcDbEntity
  8
0
100
AcDbPolyline
 90
        7
 70
     0
 43
0.0
 10
-26.3742200038414
 20
189.5116581399561
 10
-26.35042291204149
 20
189.4941872135562
 10
-26.32553803104156
 20
189.4796398187561
 10
-26.29926061724154
 20
189.4673066763562
 10
-26.27145553214154
 20
189.4567716224562
 10
-26.24199695524158
 20
189.4477066489562
 10
-26.21032593974155
 20
189.4397717563563
  0
LINE
  5
1D2
330
1F
100
AcDbEntity
  8
0
100
AcDbLine
 10
-78.5146216966416
 20
192.4479462260563
 30
0.0
 11
-78.24577468124153
 21
192.3625099041563
 31
0.0
  0
LWPOLYLINE
  5
1D3
330
1F
100
AcDbEntity
  8
0
100
AcDbPolyline
 90
       20
 70
     0
 43
0.0
 10
-78.24577468124153
 20
192.3625099041563
 10
-77.97961063134153
 20
192.2716463345562
 10
-77.7167543158414
 20
192.1759179865562
 10
-77.45791141734139
 20
192.0759547729563
 10
-77.20313159714146
 20
191.9721611654564
 10
-76.95346410814159
 20
191.8653842799563
 10
-76.71090888014146
 20
191.7569899360563
 10
-76.47556350084142
 20
191.6475739717562
 10
-76.24823868674139
 20
191.5380054725563
 10
-76.03154817254153
 20
191.4300819789562
 10
-75.82590765504142
 20
191.3245984313562
 10
-75.6312306904415
 20
191.2220798741562
 10
-75.44888143224148
 20
191.1237833513563
 10
-75.2793087799414
 20
191.0304282992563
 10
-75.12205112854144
 20
190.9421999713564
 10
-74.97694721714151
 20
190.8594111306564
 10
-74.8440186089415
 20
190.7824500735562
 10
-74.7232016885414
 20
190.7115929378563
 10
-74.6142574268415
 20
190.6469506466563
 10
-74.51717894124158
 20
190.5887521317564
  0
LINE
  5
1D4
330
1F
100
AcDbEntity
  8
0
100
AcDbLine
 10
-32.73466462074157
 20
189.2460850789562
 30
0.0
 11
-32.70473324024147
 21
189.2507579638561
 31
0.0
  0
LINE
  5
1D5
330
1F
100
AcDbEntity
  8
0
100
AcDbLine
 10
-32.70568199774152
 20
189.2506096830562
 30
0.0
 11
-32.61473983674159
 21
189.2643217483562
 31
0.0
  0
LINE
  5
1D6
330
1F
100
AcDbEntity
  8
0
100
AcDbLine
 10
-32.61724675624146
 20
189.2639558850562
 30
0.0
 11
-32.52266015774148
 21
189.2775956055561
 31
0.0
  0
LINE
  5
1D7
330
1F
100
AcDbEntity
  8
0
100
AcDbLine
 10
-32.5262735811416
 20
189.2770891344562
 30
0.0
 11
-32.46741395874142
 21
189.2852415051561
 31
0.0
  0
LINE
  5
1D8
330
1F
100
AcDbEntity
  8
0
100
AcDbLine
 10
-32.47151166574145
 20
189.2846794998563
 30
0.0
 11
-32.40625526714143
 21
189.2934274628562
 31
0.0
  0
LINE
  5
1D9
330
1F
100
AcDbEntity
  8
0
100
AcDbLine
 10
-32.41074157364142
 20
189.2928318330562
 30
0.0
 11
-32.33936342914149
 21
189.3020524921562
 31
0.0
  0
LINE
  5
1DA
330
1F
100
AcDbEntity
  8
0
100
AcDbLine
 10
-32.34412461244142
 20
189.3014489841562
 30
0.0
 11
-32.26691728154151
 21
189.3110107971563
 31
0.0
  0
LINE
  5
1DB
330
1F
100
AcDbEntity
  8
0
100
AcDbLine
 10
-32.27188265384143
 20
189.3104121358562
 30
0.0
 11
-32.18916549864139
 21
189.3201769574561
 31
0.0
  0
LINE
  5
1DC
330
1F
100
AcDbEntity
  8
0
100
AcDbLine
 10
-32.19425678314155
 20
189.3195943790563
 30
0.0
 11
-32.10635309834151
 21
189.3294247731562
 31
0.0
  0
LINE
  5
1DD
330
1F
100
AcDbEntity
  8
0
100
AcDbLine
 10
-32.11147250284148
 20
189.3288705479563
 30
0.0
 11
-32.01871170384152
 21
189.3386295767561
 31
0.0
  0
LINE
  5
1DE
330
1F
100
AcDbEntity
  8
0
100
AcDbLine
 10
-32.02378282984159
 20
189.3381123249562
 30
0.0
 11
-31.92649937784154
 21
189.3476639660562
 31
0.0
  0
LINE
  5
1DF
330
1F
100
AcDbEntity
  8
0
100
AcDbLine
 10
-31.9314369643414
 20
189.3471925246563
 30
0.0
 11
-31.82998450914147
 21
189.3564023316562
 31
0.0
  0
LINE
  5
1E0
330
1F
100
AcDbEntity
  8
0
100
AcDbLine
 10
-31.8347200239416
 20
189.3559869776561
 30
0.0
 11
-31.72946466614144
 21
189.3647275063563
 31
0.0
  0
LINE
  5
1E1
330
1F
100
AcDbEntity
  8
0
100
AcDbLine
 10
-31.73398594554146
 20
189.3643711131562
 30
0.0
 11
-31.62525154274158
 21
189.3725247652562
 31
0.0
  0
LINE
  5
1E2
330
1F
100
AcDbEntity
  8
0
100
AcDbLine
 10
-31.62955168874146
 20
189.3722252466561
 30
0.0
 11
-31.51766523684159
 21
189.3796795677563
 31
0.0
  0
LINE
  5
1E3
330
1F
100
AcDbEntity
  8
0
100
AcDbLine
 10
-31.52173461174152
 20
189.3794306755562
 30
0.0
 11
-31.40705031304151
 21
189.3860770555561
 31
0.0
  0
LINE
  5
1E4
330
1F
100
AcDbEntity
  8
0
100
AcDbLine
 10
-31.41092614314152
 20
189.3858661658562
 30
0.0
 11
-31.29373440544146
 21
189.3916080114561
 31
0.0
  0
LINE
  5
1E5
330
1F
100
AcDbEntity
  8
0
100
AcDbLine
 10
-31.29746483894155
 20
189.3914341594561
 30
0.0
 11
-31.17805413044152
 21
189.3961927059563
 31
0.0
  0
LINE
  5
1E6
330
1F
100
AcDbEntity
  8
0
100
AcDbLine
 10
-31.18169590614139
 20
189.3960623529562
 30
0.0
 11
-31.06039076574143
 21
189.3997671386562
 31
0.0
  0
LINE
  5
1E7
330
1F
100
AcDbEntity
  8
0
100
AcDbLine
 10
-31.06405040294158
 20
189.3996792184562
 30
0.0
 11
-30.94109013954153
 21
189.4022705107561
 31
0.0
  0
LWPOLYLINE
  5
1E8
330
1F
100
AcDbEntity
  8
0
100
AcDbPolyline
 90
        9
 70
     0
 43
0.0
 10
-126.8890119837415
 20
191.7082357440564
 10
-126.8641018154415
 20
191.7086182409562
 10
-126.8382144331415
 20
191.7112225631564
 10
-126.8126625796415
 20
191.7160571736563
 10
-126.7877289377415
 20
191.7230525278563
 10
-126.7633969978415
 20
191.7322124194564
 10
-126.7398559596415
 20
191.7434945483563
 10
-126.7174659828415
 20
191.7567276335563
 10
-126.6964594718415
 20
191.7717304856563
  0
LWPOLYLINE
  5
1E9
330
1F
100
AcDbEntity
  8
0
100
AcDbPolyline
 90
        7
 70
     0
 43
0.0
 10
-88.9019625495414
 20
190.7135736979563
 10
-88.87713690354144
 20
190.7139513931563
 10
-88.85052232544149
 20
190.7166541986562
 10
-88.82415214674143
 20
190.7217416948563
 10
-88.79824632794157
 20
190.7291996706563
 10
-88.77322095864156
 20
190.7389063382562
 10
-88.74936104624157
 20
190.7507021641564
  0
LINE
  5
1EA
330
1F
100
AcDbEntity
  8
0
100
AcDbLine
 10
-30.94487735254143
 20
189.4022192078562
 30
0.0
 11
-30.82049895034152
 21
189.4036432444561
 31
0.0
  0
LINE
  5
1EB
330
1F
100
AcDbEntity
  8
0
100
AcDbLine
 10
-30.8245240640415
 20
189.4036186131561
 30
0.0
 11
-30.69901442104151
 21
189.4038288775562
 31
0.0
  0
LWPOLYLINE
  5
1EC
330
1F
100
AcDbEntity
  8
0
100
AcDbPolyline
 90
        4
 70
     0
 43
0.0
 10
-32.77127128764141
 20
189.2436778815563
 10
-32.76415281354139
 20
189.2436182094561
 10
-32.74928591824141
 20
189.2443119862562
 10
-32.73466462074157
 20
189.2460850789562
  0
LINE
  5
1ED
330
1F
100
AcDbEntity
  8
0
100
AcDbLine
 10
-30.70345222214155
 20
189.4038334629563
 30
0.0
 11
-30.57703499734157
 21
189.4028064742563
 31
0.0
  0
LINE
  5
1EE
330
1F
100
AcDbEntity
  8
0
100
AcDbLine
 10
-30.58210383514142
 20
189.4028654139563
 30
0.0
 11
-30.45495039174148
 21
189.4005865382562
 31
0.0
  0
LINE
  5
1EF
330
1F
100
AcDbEntity
  8
0
100
AcDbLine
 10
-88.44987324654153
 20
183.1490637217562
 30
0.0
 11
-74.85457288324142
 21
182.7930582526563
 31
0.0
  0
LINE
  5
1F0
330
1F
100
AcDbEntity
  8
0
100
AcDbLine
 10
-106.8370429032416
 20
183.8806540434562
 30
0.0
 11
-126.4303264727415
 21
184.3937222302564
 31
0.0
  0
LINE
  5
1F1
330
1F
100
AcDbEntity
  8
0
100
AcDbLine
 10
-13.88560451104149
 20
188.4490345154563
 30
0.0
 11
-14.68533036734152
 21
188.4699760739563
 31
0.0
  0
LINE
  5
1F2
330
1F
100
AcDbEntity
  8
0
100
AcDbLine
 10
-19.97566110524144
 20
188.6086110974563
 30
0.0
 11
-15.22728881154148
 21
188.4842705930562
 31
0.0
  0
LINE
  5
1F3
330
1F
100
AcDbEntity
  8
0
100
AcDbLine
 10
-11.7284881741416
 20
188.3926512739563
 30
0.0
 11
40.0966691683584
 21
187.0355617684562
 31
0.0
  0
LINE
  5
1F4
330
1F
100
AcDbEntity
  8
0
100
AcDbLine
 10
-32.77122143584143
 20
189.2436746367562
 30
0.0
 11
-74.00724501914146
 21
190.3234779161562
 31
0.0
  0
LINE
  5
1F5
330
1F
100
AcDbEntity
  8
0
100
AcDbLine
 10
-88.90192817644152
 20
190.7135089210563
 30
0.0
 11
-105.9994722973415
 21
191.1612238704564
 31
0.0
  0
LINE
  5
1F6
330
1F
100
AcDbEntity
  8
0
100
AcDbLine
 10
-126.8857169728415
 20
191.7081494354564
 30
0.0
 11
-140.0345058347415
 21
192.0524625892564
 31
0.0
  0
LINE
  5
1F7
330
1F
100
AcDbEntity
  8
0
100
AcDbLine
 10
-24.9641307265415
 20
189.1143920799561
 30
0.0
 11
-23.06478180904151
 21
189.0646558781561
 31
0.0
  0
LINE
  5
1F8
330
1F
100
AcDbEntity
  8
0
100
AcDbLine
 10
-30.46085144284143
 20
189.4007226234562
 30
0.0
 11
-26.63154528104155
 21
189.3005479169562
 31
0.0
  0
LINE
  5
1F9
330
1F
100
AcDbEntity
  8
0
100
AcDbLine
 10
-25.97638484584149
 20
189.4128845184561
 30
0.0
 11
-24.96642423414141
 21
189.3794241733562
 31
0.0
  0
LWPOLYLINE
  5
1FA
330
1F
100
AcDbEntity
  8
0
100
AcDbPolyline
 90
       12
 70
     0
 43
0.0
 10
-81.39137730574157
 20
192.9323339490564
 10
-81.21369714084153
 20
192.9260579586562
 10
-80.95300064674143
 20
192.9111457459562
 10
-80.68845585224153
 20
192.8891097184562
 10
-80.42065960194145
 20
192.8597017176562
 10
-80.1503644905415
 20
192.8227213031562
 10
-79.8783425542415
 20
192.7781866211563
 10
-79.60516563374154
 20
192.7262043099563
 10
-79.3314621047416
 20
192.6669248361564
 10
-79.05806107554145
 20
192.6005833771563
 10
-78.78560306644158
 20
192.5274628874563
 10
-78.5146216966416
 20
192.4479462260563
  0
LWPOLYLINE
  5
1FB
330
1F
100
AcDbEntity
  8
0
100
AcDbPolyline
 90
       39
 70
     0
 43
0.0
 10
-116.2990677183416
 20
196.9155977841563
 10
-116.1051967824415
 20
196.9077243705563
 10
-115.8298401340414
 20
196.8872487580564
 10
-115.5503914539415
 20
196.8553988730562
 10
-115.2675309655415
 20
196.8118031973564
 10
-114.9820448587416
 20
196.7562370517563
 10
-114.6946377249415
 20
196.6888635600563
 10
-114.4058385850415
 20
196.6099486331562
 10
-114.1161785006416
 20
196.5198250901563
 10
-113.8263003563416
 20
196.4189438756562
 10
-113.5366152346414
 20
196.3078171608564
 10
-113.2473935815415
 20
196.1869992830562
 10
-112.9589112103415
 20
196.0571192534563
 10
-112.6714633696415
 20
195.9188430722564
 10
-112.3852642957415
 20
195.7727564822563
 10
-112.1004591225415
 20
195.6194627552564
 10
-111.8171326826414
 20
195.4595791284563
 10
-111.5356009969414
 20
195.2937682055563
 10
-111.2563315450416
 20
195.1227887872563
 10
-110.9794567047416
 20
194.9472650610563
 10
-110.7052387418414
 20
194.7678730830563
 10
-110.4343141849415
 20
194.5854643347562
 10
-110.1669071981414
 20
194.4006622716564
 10
-109.9032535925414
 20
194.2141093734563
 10
-109.6440153623414
 20
194.0266773542563
 10
-109.3894957371415
 20
193.8389925832562
 10
-109.1400244261415
 20
193.6517150390562
 10
-108.8963312553415
 20
193.4657570850564
 10
-108.6586548206415
 20
193.2816553870562
 10
-108.4276062610415
 20
193.1002410246563
 10
-108.2044600547415
 20
192.9228394633563
 10
-107.9895356810414
 20
192.7500267122562
 10
-107.7834705494415
 20
192.5826360386564
 10
-107.5878638883414
 20
192.4222581719562
 10
-107.4031412299414
 20
192.2695219848563
 10
-107.2297310349416
 20
192.1250564482562
 10
-107.0689247501414
 20
191.9901950694562
 10
-106.9209946783415
 20
191.8653837612563
 10
-106.7862027594415
 20
191.7510466847562
  0
LINE
  5
1FC
330
1F
100
AcDbEntity
  8
0
100
AcDbLine
 10
-26.01248271844156
 20
189.4144696627563
 30
0.0
 11
-25.97638117694146
 21
189.4128873918562
 31
0.0
  0
LINE
  5
1FD
330
1F
100
AcDbEntity
  8
0
100
AcDbLine
 10
-26.05665885704138
 20
189.4174971776563
 30
0.0
 11
-26.00704686544145
 21
189.4141812433563
 31
0.0
  0
LINE
  5
1FE
330
1F
100
AcDbEntity
  8
0
100
AcDbLine
 10
-26.09895183984145
 20
189.4216096731561
 30
0.0
 11
-26.05127667744159
 21
189.4170616347562
 31
0.0
  0
LWPOLYLINE
  5
1FF
330
1F
100
AcDbEntity
  8
0
100
AcDbPolyline
 90
        3
 70
     0
 43
0.0
 10
-26.17599493264152
 20
189.4327977323562
 10
-26.13887897124141
 20
189.4267387144561
 10
-26.09376483974143
 20
189.4210364667562
  0
LINE
  5
200
330
1F
100
AcDbEntity
  8
0
100
AcDbLine
 10
-26.21032593974155
 20
189.4397717563563
 30
0.0
 11
-26.17599493264152
 21
189.4327977323562
 31
0.0
  0
LWPOLYLINE
  5
201
330
1F
100
AcDbEntity
  8
0
100
AcDbPolyline
 90
       13
 70
     0
 43
0.0
 10
-84.57011074804154
 20
192.5258386083563
 10
-84.29737650854145
 20
192.5972059285562
 10
-84.0227875501414
 20
192.6625784504563
 10
-83.74701830234153
 20
192.7215162766563
 10
-83.47061778564148
 20
192.7736572644563
 10
-83.1942156842415
 20
192.8187303251562
 10
-82.91865071494158
 20
192.8565519862562
 10
-82.64456741574145
 20
192.8870137798563
 10
-82.3725540050416
 20
192.9100458925562
 10
-82.10335620544151
 20
192.9256336058563
 10
-81.8376887278414
 20
192.9339887205563
 10
-81.57614045444143
 20
192.9354067672562
 10
-81.39137826634146
 20
192.9323158129562
  0
LINE
  5
202
330
1F
100
AcDbEntity
  8
0
100
AcDbLine
 10
-24.29334707404155
 20
214.7305862883563
 30
0.0
 11
40.77726982435843
 21
213.0266522178562
 31
0.0
  0
LINE
  5
203
330
1F
100
AcDbEntity
  8
0
100
AcDbLine
 10
-25.59551929134159
 20
214.9646505887563
 30
0.0
 11
-24.49589623394149
 21
214.9358559455563
 31
0.0
  0
LINE
  5
204
330
1F
100
AcDbEntity
  8
0
100
AcDbLine
 10
-25.99276452654158
 20
215.0750871005561
 30
0.0
 11
-139.3539051787415
 21
218.0435530386563
 31
0.0
  0
ARC
  5
205
330
1F
100
AcDbEntity
  8
0
100
AcDbCircle
 10
485.514938721629
 20
-81.9688930068437
 30
0.0
 40
1.0
100
AcDbArc
 50
90.0
 51
180.0000000000008
  0
ARC
  5
206
330
1F
100
AcDbEntity
  8
0
100
AcDbCircle
 10
504.4899387216289
 20
-38.9688930068437
 30
0.0
 40
0.6250000000000391
100
AcDbArc
 50
243.9491677187906
 51
253.7397952917145
  0
ARC
  5
207
330
1F
100
AcDbEntity
  8
0
100
AcDbCircle
 10
492.5149393679291
 20
0.0850832178562086
 30
0.0
 40
2.999999878799894
100
AcDbArc
 50
310.7727840039977
 51
359.9999826309981
  0
ARC
  5
208
330
1F
100
AcDbEntity
  8
0
100
AcDbCircle
 10
512.5399387216291
 20
-38.9688930068437
 30
0.0
 40
0.6250000000000545
100
AcDbArc
 50
286.2602047082852
 51
296.0508377127058
  0
ARC
  5
209
330
1F
100
AcDbEntity
  8
0
100
AcDbCircle
 10
508.4914464061291
 20
-18.46034250324374
 30
0.0
 40
21.49999999999978
100
AcDbArc
 50
129.9505835194998
 51
195.0423635501002
  0
CIRCLE
  5
20A
330
1F
100
AcDbEntity
  8
0
100
AcDbCircle
 10
508.514938721629
 20
-18.4688930068437
 30
0.0
 40
21.5
  0
ARC
  5
20B
330
1F
100
AcDbEntity
  8
0
100
AcDbCircle
 10
508.514938721629
 20
-25.16889300684375
 30
0.0
 40
14.99999999999993
100
AcDbArc
 50
253.7397952916998
 51
286.2602047083007
  0
ARC
  5
20C
330
1F
100
AcDbEntity
  8
0
100
AcDbCircle
 10
508.514938721629
 20
11.43110699315616
 30
0.0
 40
9.99999999999999
100
AcDbArc
 50
67.1146195237999
 51
112.8853804761991
  0
ARC
  5
20D
330
1F
100
AcDbEntity
  8
0
100
AcDbCircle
 10
524.514938075429
 20
0.0850832178562086
 30
0.0
 40
2.999999878799964
100
AcDbArc
 50
180.0000173717237
 51
229.2272159985258
  0
ARC
  5
20E
330
1F
100
AcDbEntity
  8
0
100
AcDbCircle
 10
505.014938721629
 20
19.72266896905626
 30
0.0
 40
0.9999999999999167
100
AcDbArc
 50
112.8853804760955
 51
180.0000000000028
  0
ARC
  5
20F
330
1F
100
AcDbEntity
  8
0
100
AcDbCircle
 10
512.014938721629
 20
19.72266896905626
 30
0.0
 40
1.0
100
AcDbArc
 50
0.0
 51
67.1146195239103
  0
ARC
  5
210
330
1F
100
AcDbEntity
  8
0
100
AcDbCircle
 10
532.264935204629
 20
-24.4845222973438
 30
0.0
 40
2.99999955570008
100
AcDbArc
 50
165.7868965716994
 51
179.9999999953016
  0
ARC
  5
211
330
1F
100
AcDbEntity
  8
0
100
AcDbCircle
 10
531.514938721629
 20
-81.9688930068437
 30
0.0
 40
1.0
100
AcDbArc
 50
0.0
 51
90.0
  0
ARC
  5
212
330
1F
100
AcDbEntity
  8
0
100
AcDbCircle
 10
568.514938721629
 20
140.0516674946562
 30
0.0
 40
72.9999999999999
100
AcDbArc
 50
91.50000000000013
 51
180.0000000000001
  0
ARC
  5
213
330
1F
100
AcDbEntity
  8
0
100
AcDbCircle
 10
568.514938721629
 20
140.0516674946562
 30
0.0
 40
46.9999999999999
100
AcDbArc
 50
91.50000000000023
 51
179.9999999999999
  0
ARC
  5
214
330
1F
100
AcDbEntity
  8
0
100
AcDbCircle
 10
532.3986544246288
 20
47.22417168965626
 30
0.0
 40
10.00000000000004
100
AcDbArc
 50
47.11461952379882
 51
92.88538047620037
  0
ARC
  5
215
330
1F
100
AcDbEntity
  8
0
100
AcDbCircle
 10
531.9456114672291
 20
56.21276179485631
 30
0.0
 40
1.000000000000039
100
AcDbArc
 50
92.88538047408322
 51
159.9999999994928
  0
ARC
  5
216
330
1F
100
AcDbEntity
  8
0
100
AcDbCircle
 10
538.5234598127292
 20
53.81862079155621
 30
0.0
 40
0.9999999999998612
100
AcDbArc
 50
340.0000000004905
 51
47.11461952589958
  0
ARC
  5
217
330
1F
100
AcDbEntity
  8
0
100
AcDbCircle
 10
621.160290419529
 20
175.0643303377562
 30
0.0
 40
13.49791142120009
100
AcDbArc
 50
85.25938996519996
 51
85.5930353348994
  0
ARC
  5
218
330
1F
100
AcDbEntity
  8
0
100
AcDbCircle
 10
621.175391575129
 20
175.2625535035563
 30
0.0
 40
13.29911394320005
100
AcDbArc
 50
85.59228137159988
 51
86.31696821399971
  0
ARC
  5
219
330
1F
100
AcDbEntity
  8
0
100
AcDbCircle
 10
621.1847373266289
 20
175.3494702164562
 30
0.0
 40
13.21172660120006
100
AcDbArc
 50
84.18172771310019
 51
85.26285035000053
  0
ARC
  5
21A
330
1F
100
AcDbEntity
  8
0
100
AcDbCircle
 10
621.2144652678292
 20
175.3816573116562
 30
0.0
 40
13.18009945500006
100
AcDbArc
 50
92.3545376883993
 51
98.81899776999995
  0
ARC
  5
21B
330
1F
100
AcDbEntity
  8
0
100
AcDbCircle
 10
621.1941528341292
 20
175.5931241116562
 30
0.0
 40
12.96802114780006
100
AcDbArc
 50
86.305868378501
 51
90.6893871842995
  0
ARC
  5
21C
330
1F
100
AcDbEntity
  8
0
100
AcDbCircle
 10
621.189876724329
 20
175.7825987186563
 30
0.0
 40
12.7785089626001
100
AcDbArc
 50
90.6804372282002
 51
91.49942248120026
  0
ARC
  5
21D
330
1F
100
AcDbEntity
  8
0
100
AcDbCircle
 10
621.191268870529
 20
175.7828839175563
 30
0.0
 40
12.77826036610007
100
AcDbArc
 50
91.50569597799957
 51
92.32452606600104
  0
ARC
  5
21E
330
1F
100
AcDbEntity
  8
0
100
AcDbCircle
 10
621.2459542683289
 20
189.2487603753561
 30
0.0
 40
0.7999999999999701
100
AcDbArc
 50
241.4999999999933
 51
271.500000000001
  0
ARC
  5
21F
330
1F
100
AcDbEntity
  8
0
100
AcDbCircle
 10
622.0613862972289
 20
188.6699075389563
 30
0.0
 40
0.2000000000000451
100
AcDbArc
 50
271.499999999618
 51
312.3171714819958
  0
ARC
  5
220
330
1F
100
AcDbEntity
  8
0
100
AcDbCircle
 10
632.9820460006292
 20
214.7647191237563
 30
0.0
 40
0.1999999999998533
100
AcDbArc
 50
1.499999604383572
 51
91.50000000007567
  0
ARC
  5
221
330
1F
100
AcDbEntity
  8
0
100
AcDbCircle
 10
631.8824229431291
 20
214.7359244805562
 30
0.0
 40
0.2000000000000808
100
AcDbArc
 50
91.50000000000823
 51
181.5000000019159
  0
ARC
  5
222
330
1F
100
AcDbEntity
  8
0
100
AcDbCircle
 10
633.3792912359293
 20
214.8751556355562
 30
0.0
 40
0.2000000000000094
100
AcDbArc
 50
91.49999999926003
 51
181.5079579003144
  0
ARC
  5
223
330
1F
100
AcDbEntity
  8
0
100
AcDbCircle
 10
714.213098833229
 20
184.0805855084564
 30
0.0
 40
0.2000000000001619
100
AcDbArc
 50
181.5000000059042
 51
271.4999999936224
  0
ARC
  5
224
330
1F
100
AcDbEntity
  8
0
100
AcDbCircle
 10
747.3791494268291
 20
193.4519828442562
 30
0.0
 40
1.399999999999954
100
AcDbArc
 50
271.5000000005026
 51
1.500000000794866
  0
ARC
  5
225
330
1F
100
AcDbEntity
  8
0
100
AcDbCircle
 10
733.8063824026292
 20
184.5936536953564
 30
0.0
 40
0.1999999999999941
100
AcDbArc
 50
271.5000000065902
 51
1.499999993907957
  0
ARC
  5
226
330
1F
100
AcDbEntity
  8
0
100
AcDbCircle
 10
746.7718442260291
 20
216.6440327836563
 30
0.0
 40
1.400000000000089
100
AcDbArc
 50
1.499999999298197
 51
91.49999999950181
  0
ARC
  5
227
330
1F
100
AcDbEntity
  8
0
100
AcDbCircle
 10
261.9975747963683
 20
-25.16889300684375
 30
0.0
 40
15.00000000000004
100
AcDbArc
 50
256.3546286729004
 51
283.6451227991002
  0
ARC
  5
228
330
1F
100
AcDbEntity
  8
0
100
AcDbCircle
 10
251.9975747963683
 20
-39.4688930068437
 30
0.0
 40
0.5
100
AcDbArc
 50
180.0
 51
270.0
  0
ARC
  5
229
330
1F
100
AcDbEntity
  8
0
100
AcDbCircle
 10
286.5975747963685
 20
-38.41889300684375
 30
0.0
 40
0.2999999999999545
100
AcDbArc
 50
270.0
 51
0.0000004280840009
  0
ARC
  5
22A
330
1F
100
AcDbEntity
  8
0
100
AcDbCircle
 10
302.1475751796684
 20
-42.96889262884383
 30
0.0
 40
2.999999951599899
100
AcDbArc
 50
359.9999927554904
 51
89.99999997429012
  0
ARC
  5
22B
330
1F
100
AcDbEntity
  8
0
100
AcDbCircle
 10
302.8975747963684
 20
-81.9688930068437
 30
0.0
 40
1.0
100
AcDbArc
 50
89.99999999159398
 51
179.9999999915972
  0
ARC
  5
22C
330
1F
100
AcDbEntity
  8
0
100
AcDbCircle
 10
325.9097369462684
 20
-190.5359902796438
 30
0.0
 40
375.1348680709
100
AcDbArc
 50
89.76932282830002
 51
89.91021170960003
  0
ARC
  5
22D
330
1F
100
AcDbEntity
  8
0
100
AcDbCircle
 10
325.8840765933685
 20
-190.0077963820438
 30
0.0
 40
374.6066726338999
100
AcDbArc
 50
90.0897133210999
 51
90.2426609976999
  0
ARC
  5
22E
330
1F
100
AcDbEntity
  8
0
100
AcDbCircle
 10
325.9899549505685
 20
-171.9572633240437
 30
0.0
 40
356.5559662759001
100
AcDbArc
 50
89.58532928120005
 51
89.74165198070006
  0
ARC
  5
22F
330
1F
100
AcDbEntity
  8
0
100
AcDbCircle
 10
325.7788947503684
 20
-167.4676262564437
 30
0.0
 40
352.0662563440001
100
AcDbArc
 50
90.25731900150002
 51
90.4201241757
  0
ARC
  5
230
330
1F
100
AcDbEntity
  8
0
100
AcDbCircle
 10
326.2296059868684
 20
-139.2353256172437
 30
0.0
 40
323.8331482416
100
AcDbArc
 50
89.38645171930025
 51
89.56332882010027
  0
ARC
  5
231
330
1F
100
AcDbEntity
  8
0
100
AcDbCircle
 10
325.5136267606683
 20
-133.5763462042437
 30
0.0
 40
318.1739375597001
100
AcDbArc
 50
90.43516965490004
 51
90.61522633980006
  0
ARC
  5
232
330
1F
100
AcDbEntity
  8
0
100
AcDbCircle
 10
258.9975747963683
 20
11.43110699315616
 30
0.0
 40
10.00000000000001
100
AcDbArc
 50
67.11461953849947
 51
112.8853804615005
  0
ARC
  5
233
330
1F
100
AcDbEntity
  8
0
100
AcDbCircle
 10
255.4975747963683
 20
19.72266896905626
 30
0.0
 40
0.999999999999901
100
AcDbArc
 50
112.885380329496
 51
180.0000000000006
  0
ARC
  5
234
330
1F
100
AcDbEntity
  8
0
100
AcDbCircle
 10
262.4975747963683
 20
19.72266896905626
 30
0.0
 40
1.0
100
AcDbArc
 50
0.0
 51
67.1146196705032
  0
ARC
  5
235
330
1F
100
AcDbEntity
  8
0
100
AcDbCircle
 10
251.9975747963683
 20
2.5311069931563
 30
0.0
 40
0.5
100
AcDbArc
 50
90.0
 51
180.0000000000001
  0
ARC
  5
236
330
1F
100
AcDbEntity
  8
0
100
AcDbCircle
 10
286.5975747963685
 20
1.481106993156345
 30
0.0
 40
0.2999999999999545
100
AcDbArc
 50
0.0
 51
90.00000042808537
  0
ARC
  5
237
330
1F
100
AcDbEntity
  8
0
100
AcDbCircle
 10
309.8975748877685
 20
6.031106902956253
 30
0.0
 40
2.999999982899908
100
AcDbArc
 50
270.000000000698
 51
0.0000000006991792
  0
ARC
  5
238
330
1F
100
AcDbEntity
  8
0
100
AcDbCircle
 10
325.8899578689684
 20
200.0311441858562
 30
0.0
 40
12.99231737130006
100
AcDbArc
 50
180.000164017895
 51
219.6861065779944
  0
ARC
  5
239
330
1F
100
AcDbEntity
  8
0
100
AcDbCircle
 10
325.9051917237684
 20
200.0311441858562
 30
0.0
 40
12.99231737130006
100
AcDbArc
 50
320.3138934209
 51
359.9998359809996
  0
ARC
  5
23A
330
1F
100
AcDbEntity
  8
0
100
AcDbCircle
 10
325.8838650695684
 20
201.7346559046562
 30
0.0
 40
13.01364970490007
100
AcDbArc
 50
359.9983335219778
 51
0.5011991029772865
  0
ARC
  5
23B
330
1F
100
AcDbEntity
  8
0
100
AcDbCircle
 10
325.9112844629685
 20
201.7346559048563
 30
0.0
 40
13.0136496447001
100
AcDbArc
 50
179.4988522573001
 51
180.0016664789005
  0
ARC
  5
23C
330
1F
100
AcDbEntity
  8
0
100
AcDbCircle
 10
325.8905501638685
 20
201.7352586077564
 30
0.0
 40
12.99291537719999
100
AcDbArc
 50
180.0043269197019
 51
219.6965007628015
  0
ARC
  5
23D
330
1F
100
AcDbEntity
  8
0
100
AcDbCircle
 10
325.9045994288683
 20
201.7352586077564
 30
0.0
 40
12.9929153771999
100
AcDbArc
 50
320.3034992371005
 51
359.9956730801998
  0
ARC
  5
23E
330
1F
100
AcDbEntity
  8
0
100
AcDbCircle
 10
325.9047254050683
 20
202.0798142613562
 30
0.0
 40
12.99284939410004
100
AcDbArc
 50
320.283793185801
 51
0.0002044826009287
  0
ARC
  5
23F
330
1F
100
AcDbEntity
  8
0
100
AcDbCircle
 10
325.8904079697684
 20
202.0798042669562
 30
0.0
 40
12.99283317610006
100
AcDbArc
 50
179.9997954414646
 51
219.7134616845646
  0
ARC
  5
240
330
1F
100
AcDbEntity
  8
0
100
AcDbCircle
 10
325.8976906767684
 20
205.1216347244563
 30
0.0
 40
13.41340187590005
100
AcDbArc
 50
256.4529479956996
 51
281.9076515741999
  0
ARC
  5
241
330
1F
100
AcDbEntity
  8
0
100
AcDbCircle
 10
325.8397534105684
 20
204.9341102803562
 30
0.0
 40
13.21752912819993
100
AcDbArc
 50
225.1612246694001
 51
256.5066951154005
  0
ARC
  5
242
330
1F
100
AcDbEntity
  8
0
100
AcDbCircle
 10
325.9725913902685
 20
205.0652286663562
 30
0.0
 40
13.4041704169
100
AcDbArc
 50
224.5315213224993
 51
225.1537822438998
  0
ARC
  5
243
330
1F
100
AcDbEntity
  8
0
100
AcDbCircle
 10
325.8962410741685
 20
555.3591076284563
 30
0.0
 40
371.4785221224001
100
AcDbArc
 50
269.7549975181001
 51
270.0002057095
  0
ARC
  5
244
330
1F
100
AcDbEntity
  8
0
100
AcDbCircle
 10
325.9045954651685
 20
552.6861963986562
 30
0.0
 40
368.805610957
100
AcDbArc
 50
269.9989093043001
 51
270.2474791802
  0
ARC
  5
245
330
1F
100
AcDbEntity
  8
0
100
AcDbCircle
 10
325.7288568046683
 20
518.7231573637562
 30
0.0
 40
334.8421893225
100
AcDbArc
 50
269.3643917906001
 51
269.7507575493001
  0
ARC
  5
246
330
1F
100
AcDbEntity
  8
0
100
AcDbCircle
 10
326.1242709121684
 20
508.5441523838563
 30
0.0
 40
324.6629586151
100
AcDbArc
 50
270.2468570941998
 51
270.7630993347997
  0
ARC
  5
247
330
1F
100
AcDbEntity
  8
0
100
AcDbCircle
 10
325.1147625018684
 20
459.1110595981563
 30
0.0
 40
275.2269498296
100
AcDbArc
 50
269.2113150518001
 51
269.3346065965999
  0
ARC
  5
248
330
1F
100
AcDbEntity
  8
0
100
AcDbCircle
 10
349.6475744033685
 20
-42.96889261934371
 30
0.0
 40
2.99999995040005
100
AcDbArc
 50
89.99999249400429
 51
179.9999998948021
  0
ARC
  5
249
330
1F
100
AcDbEntity
  8
0
100
AcDbCircle
 10
348.8975747963684
 20
-81.9688930068437
 30
0.0
 40
1.0
100
AcDbArc
 50
0.0000000000008142
 51
90.0
  0
ARC
  5
24A
330
1F
100
AcDbEntity
  8
0
100
AcDbCircle
 10
416.6975747963684
 20
-39.46034250324374
 30
0.0
 40
0.5
100
AcDbArc
 50
270.0
 51
0.0000000000008142
  0
ARC
  5
24B
330
1F
100
AcDbEntity
  8
0
100
AcDbCircle
 10
386.1063211541684
 20
-20.84110424004371
 30
0.0
 40
22.00000000000002
100
AcDbArc
 50
76.6133985089005
 51
82.71094285230004
  0
ARC
  5
24C
330
1F
100
AcDbEntity
  8
0
100
AcDbCircle
 10
409.6951394690684
 20
47.19968528195614
 30
0.0
 40
10.02448670349994
100
AcDbArc
 50
78.65442394179989
 51
89.9860806861012
  0
ARC
  5
24D
330
1F
100
AcDbEntity
  8
0
100
AcDbCircle
 10
409.7000101236683
 20
47.19968528185632
 30
0.0
 40
10.02448670369998
100
AcDbArc
 50
90.01391931390079
 51
101.3455759773006
  0
ARC
  5
24E
330
1F
100
AcDbEntity
  8
0
100
AcDbCircle
 10
395.6838164001683
 20
-24.76454973514387
 30
0.0
 40
4.486242132499917
100
AcDbArc
 50
179.9721840907051
 51
193.5253955912046
  0
ARC
  5
24F
330
1F
100
AcDbEntity
  8
0
100
AcDbCircle
 10
395.5569759413684
 20
-24.78836973564376
 30
0.0
 40
4.357353344399875
100
AcDbArc
 50
193.6109391106987
 51
206.7524744818981
  0
ARC
  5
250
330
1F
100
AcDbEntity
  8
0
100
AcDbCircle
 10
341.8975746462684
 20
6.031106845056229
 30
0.0
 40
2.999999971900024
100
AcDbArc
 50
180.0
 51
270.0000000021018
  0
ARC
  5
251
330
1F
100
AcDbEntity
  8
0
100
AcDbCircle
 10
416.6975747963684
 20
2.539657496756263
 30
0.0
 40
0.5
100
AcDbArc
 50
0.0
 51
90.0
  0
ARC
  5
252
330
1F
100
AcDbEntity
  8
0
100
AcDbCircle
 10
336.3461026264683
 20
197.2170514644563
 30
0.0
 40
0.3020463622000371
100
AcDbArc
 50
305.987566248724
 51
325.3011459285555
  0
ARC
  5
253
330
1F
100
AcDbEntity
  8
0
100
AcDbCircle
 10
-139.9978581072415
 20
193.4519828442563
 30
0.0
 40
1.400000000000025
100
AcDbArc
 50
178.4999999992054
 51
268.499999999501
  0
ARC
  5
254
330
1F
100
AcDbEntity
  8
0
100
AcDbCircle
 10
-106.8318075136415
 20
184.0805855084564
 30
0.0
 40
0.1999999999999461
100
AcDbArc
 50
268.5000000064003
 51
358.4999999941013
  0
ARC
  5
255
330
1F
100
AcDbEntity
  8
0
100
AcDbCircle
 10
-126.4250910830415
 20
184.5936536953564
 30
0.0
 40
0.1999999999999759
100
AcDbArc
 50
178.5000000060829
 51
268.4999999935113
  0
ARC
  5
256
330
1F
100
AcDbEntity
  8
0
100
AcDbCircle
 10
-139.3905529064415
 20
216.6440327836563
 30
0.0
 40
1.399999999999993
100
AcDbArc
 50
88.50000000049803
 51
178.500000000704
  0
ARC
  5
257
330
1F
100
AcDbEntity
  8
0
100
AcDbCircle
 10
-13.77892924784146
 20
175.0636450263562
 30
0.0
 40
13.4986001087001
100
AcDbArc
 50
94.40687427410042
 51
94.74348703399971
  0
ARC
  5
258
330
1F
100
AcDbEntity
  8
0
100
AcDbCircle
 10
-13.79415008184151
 20
175.2633533211562
 30
0.0
 40
13.29831269610001
100
AcDbArc
 50
93.68843923330037
 51
94.40760448760025
  0
ARC
  5
259
330
1F
100
AcDbEntity
  8
0
100
AcDbCircle
 10
-13.79571592194156
 20
175.2657785784563
 30
0.0
 40
13.29577070959999
100
AcDbArc
 50
94.7434277405005
 51
95.81476059729974
  0
ARC
  5
25A
330
1F
100
AcDbEntity
  8
0
100
AcDbCircle
 10
-13.82173434534138
 20
175.4985739909561
 30
0.0
 40
13.06281289290008
100
AcDbArc
 50
81.15186750979963
 51
87.68133795020005
  0
ARC
  5
25B
330
1F
100
AcDbEntity
  8
0
100
AcDbCircle
 10
-13.81103865584146
 20
175.5237293670561
 30
0.0
 40
13.03738953059996
100
AcDbArc
 50
89.32946711480051
 51
93.68798503000042
  0
ARC
  5
25C
330
1F
100
AcDbEntity
  8
0
100
AcDbCircle
 10
-13.80859626094139
 20
175.7826140198563
 30
0.0
 40
12.77849403689991
100
AcDbArc
 50
88.50759298040002
 51
89.32683320739987
  0
ARC
  5
25D
330
1F
100
AcDbEntity
  8
0
100
AcDbCircle
 10
-13.80998697884138
 20
175.7829936686562
 30
0.0
 40
12.77815081400001
100
AcDbArc
 50
87.68237333689959
 51
88.50131493850009
  0
ARC
  5
25E
330
1F
100
AcDbEntity
  8
0
100
AcDbCircle
 10
-13.8646629487414
 20
189.2487603753561
 30
0.0
 40
0.800000000000078
100
AcDbArc
 50
268.5000000000068
 51
298.5000000000014
  0
ARC
  5
25F
330
1F
100
AcDbEntity
  8
0
100
AcDbCircle
 10
-14.6800949776416
 20
188.6699075389563
 30
0.0
 40
0.1999999999999419
100
AcDbArc
 50
227.6828285179855
 51
268.5000000004114
  0
ARC
  5
260
330
1F
100
AcDbEntity
  8
0
100
AcDbCircle
 10
-25.60075468104151
 20
214.7647191237563
 30
0.0
 40
0.2000000000000748
100
AcDbArc
 50
88.50000000002166
 51
178.5000003956189
  0
ARC
  5
261
330
1F
100
AcDbEntity
  8
0
100
AcDbCircle
 10
-24.5011316235416
 20
214.7359244805561
 30
0.0
 40
0.2000000000000261
100
AcDbArc
 50
358.499999998085
 51
88.5000000000239
  0
ARC
  5
262
330
1F
100
AcDbEntity
  8
0
100
AcDbCircle
 10
-25.99799991634154
 20
214.8751556355562
 30
0.0
 40
0.200000000000106
100
AcDbArc
 50
358.4920420998248
 51
88.50000000060855
  0
ARC
  5
263
330
1F
100
AcDbEntity
  8
0
100
AcDbCircle
 10
75.11635611505858
 20
-24.48452229734393
 30
0.0
 40
2.999999555700015
100
AcDbArc
 50
359.9999999999999
 51
14.21310342360207
  0
ARC
  5
264
330
1F
100
AcDbEntity
  8
0
100
AcDbCircle
 10
75.86635259795844
 20
-81.96889300684383
 30
0.0
 40
1.0
100
AcDbArc
 50
90.0
 51
180.0
  0
ARC
  5
265
330
1F
100
AcDbEntity
  8
0
100
AcDbCircle
 10
38.86635259795844
 20
140.0516674946561
 30
0.0
 40
73.0
100
AcDbArc
 50
0.0000000000000223
 51
88.49999999999996
  0
ARC
  5
266
330
1F
100
AcDbEntity
  8
0
100
AcDbCircle
 10
38.86635259795844
 20
140.0516674946561
 30
0.0
 40
47.0
100
AcDbArc
 50
0.0000000000000346
 51
88.50000000000006
  0
ARC
  5
267
330
1F
100
AcDbEntity
  8
0
100
AcDbCircle
 10
74.98263689495843
 20
47.22417168965614
 30
0.0
 40
10.00000000000006
100
AcDbArc
 50
87.11461952379972
 51
132.8853804762003
  0
ARC
  5
268
330
1F
100
AcDbEntity
  8
0
100
AcDbCircle
 10
75.43567985235859
 20
56.21276179485618
 30
0.0
 40
1.000000000000119
100
AcDbArc
 50
20.0000000005006
 51
87.11461952589669
  0
ARC
  5
269
330
1F
100
AcDbEntity
  8
0
100
AcDbCircle
 10
68.85783150685847
 20
53.81862079155609
 30
0.0
 40
1.000000000000036
100
AcDbArc
 50
132.8853804742043
 51
199.9999999995025
  0
CIRCLE
  5
26A
330
1F
100
AcDbEntity
  8
0
100
AcDbCircle
 10
98.88984491345855
 20
-18.46034250324388
 30
0.0
 40
21.5
  0
ARC
  5
26B
330
1F
100
AcDbEntity
  8
0
100
AcDbCircle
 10
98.86635259795844
 20
-18.46889300684385
 30
0.0
 40
21.49999999999998
100
AcDbArc
 50
122.1428571429
 51
277.4374596037999
  0
ARC
  5
26C
330
1F
100
AcDbEntity
  8
0
100
AcDbCircle
 10
101.1813798737585
 20
-24.75628306254399
 30
0.0
 40
14.99999999999994
100
AcDbArc
 50
273.7397952916996
 51
306.2602047083001
  0
ARC
  5
26D
330
1F
100
AcDbEntity
  8
0
100
AcDbCircle
 10
82.86635324415852
 20
0.0850832178560782
 30
0.0
 40
2.99999987880011
100
AcDbArc
 50
310.7727840049003
 51
359.9999826317018
  0
ARC
  5
26E
330
1F
100
AcDbEntity
  8
0
100
AcDbCircle
 10
114.8663519516585
 20
0.0850832178560498
 30
0.0
 40
2.999999878799964
100
AcDbArc
 50
180.0000173717237
 51
223.6826003821202
  0
ARC
  5
26F
330
1F
100
AcDbEntity
  8
0
100
AcDbCircle
 10
121.8663525979584
 20
-81.96889300684387
 30
0.0
 40
1.0
100
AcDbArc
 50
359.9999999999992
 51
90.0
  0
ARC
  5
270
330
1F
100
AcDbEntity
  8
0
100
AcDbCircle
 10
109.6835206502585
 20
-36.34741015244383
 30
0.0
 40
0.6250000000000957
100
AcDbArc
 50
306.2602047083042
 51
315.087617075703
  0
ARC
  5
271
330
1F
100
AcDbEntity
  8
0
100
AcDbCircle
 10
102.1189950529586
 20
-39.10067230624387
 30
0.0
 40
0.6249999999999323
100
AcDbArc
 50
264.9123783041021
 51
273.73979529169
  0
SPLINE
  5
272
330
1F
100
AcDbEntity
  8
0
100
AcDbSpline
210
0.0
220
0.0
230
1.0
 70
    12
 71
     3
 72
     8
 73
     4
 74
     0
 42
0.000000001
 43
0.1
 12
1.0
 22
0.0
 32
0.0
 13
1.0
 23
0.0
 33
0.0
 40
0.0
 40
0.0
 40
0.0
 40
0.0
 40
2233.126131977294
 40
2233.126131977294
 40
2233.126131977294
 40
2233.126131977294
 10
634.0118960031289
 20
189.3005247585563
 30
0.0
 41
1.0
 10
633.9931209678291
 20
189.3000966643563
 30
0.0
 41
1.0
 10
633.9740066359288
 20
189.3024921146562
 30
0.0
 41
1.0
 10
633.956055765929
 20
189.3080104004562
 30
0.0
 41
1.0
  0
SPLINE
  5
273
330
1F
100
AcDbEntity
  8
0
100
AcDbSpline
210
0.0
220
0.0
230
1.0
 70
    12
 71
     3
 72
     9
 73
     5
 74
     0
 42
0.000000001
 43
0.1
 12
1.0
 22
0.0
 32
0.0
 13
1.0
 23
0.0
 33
0.0
 40
0.0
 40
0.0
 40
0.0
 40
0.0
 40
1584.328195535097
 40
3512.870088451726
 40
3512.870088451726
 40
3512.870088451726
 40
3512.870088451726
 10
633.956055765929
 20
189.3080104004562
 30
0.0
 41
1.0
 10
633.9274332594289
 20
189.3168092592562
 30
0.0
 41
1.0
 10
633.868114810329
 20
189.3557542223562
 30
0.0
 41
1.0
 10
633.8456693861292
 20
189.4245826216563
 30
0.0
 41
1.0
 10
633.8447152315291
 20
189.4610203139562
 30
0.0
 41
1.0
  0
SPLINE
  5
274
330
1F
100
AcDbEntity
  8
0
100
AcDbSpline
210
0.0
220
0.0
230
1.0
 70
    12
 71
     3
 72
     8
 73
     4
 74
     0
 42
0.000000001
 43
0.1
 12
1.0
 22
0.0
 32
0.0
 13
1.0
 23
0.0
 33
0.0
 40
0.0
 40
0.0
 40
0.0
 40
0.0
 40
2233.32736531222
 40
2233.32736531222
 40
2233.32736531222
 40
2233.32736531222
 10
634.0488721469289
 20
189.3048922652563
 30
0.0
 41
1.0
 10
634.0367315132291
 20
189.3023155435562
 30
0.0
 41
1.0
 10
634.0243038409292
 20
189.3008076726562
 30
0.0
 41
1.0
 10
634.0118960031289
 20
189.3005247585563
 30
0.0
 41
1.0
  0
LINE
  5
275
330
1F
100
AcDbEntity
  8
0
100
AcDbLine
 10
619.1097794937289
 20
188.3926512739563
 30
0.0
 11
619.1937781118293
 21
188.4059363726562
 31
0.0
  0
LINE
  5
276
330
1F
100
AcDbEntity
  8
0
100
AcDbLine
 10
622.5240572313289
 20
188.4931356860563
 30
0.0
 11
622.608580131129
 21
188.4842705930562
 31
0.0
  0
LINE
  5
277
330
1F
100
AcDbEntity
  8
0
100
AcDbLine
 10
627.3569524248289
 20
188.6086110974563
 30
0.0
 11
627.4335140034289
 21
188.6287830828562
 31
0.0
  0
SPLINE
  5
278
330
1F
100
AcDbEntity
  8
0
100
AcDbSpline
210
0.0
220
0.0
230
1.0
 70
    12
 71
     3
 72
     9
 73
     5
 74
     0
 42
0.000000001
 43
0.1
 12
1.0
 22
0.0
 32
0.0
 13
1.0
 23
0.0
 33
0.0
 40
0.0
 40
0.0
 40
0.0
 40
0.0
 40
464.4113364968159
 40
3479.049881641633
 40
3479.049881641633
 40
3479.049881641633
 40
3479.049881641633
 10
627.4335140034289
 20
188.6287830828562
 30
0.0
 41
1.0
 10
627.5646751601291
 20
188.6629630377563
 30
0.0
 41
1.0
 10
628.5503777010292
 20
188.9057514490562
 30
0.0
 41
1.0
 10
629.5665320792289
 20
189.0416242851563
 30
0.0
 41
1.0
 10
630.4460731286292
 20
189.0646558781561
 30
0.0
 41
1.0
  0
SPLINE
  5
279
330
1F
100
AcDbEntity
  8
0
100
AcDbSpline
210
0.0
220
0.0
230
1.0
 70
    12
 71
     3
 72
    12
 73
     8
 74
     0
 42
0.000000001
 43
0.1
 12
1.0
 22
0.0
 32
0.0
 13
1.0
 23
0.0
 33
0.0
 40
0.0
 40
0.0
 40
0.0
 40
0.0
 40
646.5926853321904
 40
1275.383111001219
 40
2474.688379665618
 40
3731.695141125545
 40
5152.928973679593
 40
5152.928973679593
 40
5152.928973679593
 40
5152.928973679593
 10
405.1975747963684
 20
55.01569129325617
 30
0.0
 41
1.0
 10
405.1975747963684
 20
55.16176078775629
 30
0.0
 41
1.0
 10
405.2434704167683
 20
55.45178158695626
 30
0.0
 41
1.0
 10
405.4923091907685
 20
55.96023307635619
 30
0.0
 41
1.0
 10
406.0241525029685
 20
56.44316352355622
 30
0.0
 41
1.0
 10
406.8256002308685
 20
56.81048137495623
 30
0.0
 41
1.0
 10
407.4131414366684
 20
56.96503635605632
 30
0.0
 41
1.0
 10
407.7279178154683
 20
57.0282754925563
 30
0.0
 41
1.0
  0
SPLINE
  5
27A
330
1F
100
AcDbEntity
  8
0
100
AcDbSpline
210
0.0
220
0.0
230
1.0
 70
    12
 71
     3
 72
    12
 73
     8
 74
     0
 42
0.000000001
 43
0.1
 12
1.0
 22
0.0
 32
0.0
 13
1.0
 23
0.0
 33
0.0
 40
0.0
 40
0.0
 40
0.0
 40
0.0
 40
1446.794869788638
 40
2726.386137140552
 40
3947.194593759582
 40
4587.242259618893
 40
5245.48510594708
 40
5245.48510594708
 40
5245.48510594708
 40
5245.48510594708
 10
411.6672304352685
 20
57.02827576215623
 30
0.0
 41
1.0
 10
411.9820144634684
 20
56.96503514865617
 30
0.0
 41
1.0
 10
412.5695623208685
 20
56.81046866595625
 30
0.0
 41
1.0
 10
413.3710139124685
 20
56.44315642795618
 30
0.0
 41
1.0
 10
413.9028451707684
 20
55.96023422215626
 30
0.0
 41
1.0
 10
414.1516812046684
 20
55.45179077235616
 30
0.0
 41
1.0
 10
414.1975747963684
 20
55.16176902025632
 30
0.0
 41
1.0
 10
414.1975747963684
 20
55.01569129325617
 30
0.0
 41
1.0
  0
SPLINE
  5
27B
330
1F
100
AcDbEntity
  8
0
100
AcDbSpline
210
0.0
220
0.0
230
1.0
 70
    12
 71
     3
 72
    14
 73
    10
 74
     0
 42
0.000000001
 43
0.1
 12
1.0
 22
0.0
 32
0.0
 13
1.0
 23
0.0
 33
0.0
 40
0.0
 40
0.0
 40
0.0
 40
0.0
 40
443.9738968090748
 40
992.414071438288
 40
1694.000245055828
 40
2555.451192555388
 40
3561.458338216548
 40
4684.37684837028
 40
7134.017517306385
 40
7134.017517306385
 40
7134.017517306385
 40
7134.017517306385
 10
414.1975697297685
 20
55.01569139565618
 30
0.0
 41
1.0
 10
414.1975880337684
 20
54.9114803899563
 30
0.0
 41
1.0
 10
414.1208065866683
 20
54.67780237355623
 30
0.0
 41
1.0
 10
413.8372917182685
 20
54.38876665565613
 30
0.0
 41
1.0
 10
413.4115544061685
 20
54.12963543745627
 30
0.0
 41
1.0
 10
412.8501892275685
 20
53.90410245265616
 30
0.0
 41
1.0
 10
412.1720408316685
 20
53.71860829115622
 30
0.0
 41
1.0
 10
411.1131515019683
 20
53.52941633635623
 30
0.0
 41
1.0
 10
410.2725624772684
 20
53.47660064825618
 30
0.0
 41
1.0
 10
409.6975747963684
 20
53.47660064825618
 30
0.0
 41
1.0
  0
SPLINE
  5
27C
330
1F
100
AcDbEntity
  8
0
100
AcDbSpline
210
0.0
220
0.0
230
1.0
 70
    12
 71
     3
 72
    19
 73
    15
 74
     0
 42
0.000000001
 43
0.1
 12
1.0
 22
0.0
 32
0.0
 13
1.0
 23
0.0
 33
0.0
 40
0.0
 40
0.0
 40
0.0
 40
0.0
 40
1771.949593928525
 40
2497.110988364707
 40
3103.396960563959
 40
3991.578309685374
 40
4372.710435169986
 40
4798.730739684383
 40
5319.83262483728
 40
5956.89567225569
 40
6711.961957306517
 40
7576.189526590461
 40
9564.30226477243
 40
11753.33732906781
 40
11753.33732906781
 40
11753.33732906781
 40
11753.33732906781
 10
411.6672200516684
 20
57.02827041125624
 30
0.0
 41
1.0
 10
411.9972260228685
 20
56.96198161915618
 30
0.0
 41
1.0
 10
412.4586463710684
 20
56.84139278295629
 30
0.0
 41
1.0
 10
412.9983598301685
 20
56.59494940405625
 30
0.0
 41
1.0
 10
413.3492290819684
 20
56.36930907715623
 30
0.0
 41
1.0
 10
413.6027995570685
 20
56.06644714525623
 30
0.0
 41
1.0
 10
413.5810081815684
 20
55.73056875265615
 30
0.0
 41
1.0
 10
413.4484993720685
 20
55.5083790449562
 30
0.0
 41
1.0
 10
413.2223320893684
 20
55.3059017358562
 30
0.0
 41
1.0
 10
412.9078237812685
 20
55.12055121715616
 30
0.0
 41
1.0
 10
412.5114657505685
 20
54.95496140385626
 30
0.0
 41
1.0
 10
411.8546376505685
 20
54.75650215905625
 30
0.0
 41
1.0
 10
410.9074112609685
 20
54.59416007285631
 30
0.0
 41
1.0
 10
410.1134018626685
 20
54.55133735845629
 30
0.0
 41
1.0
 10
409.6975747963684
 20
54.55133735845629
 30
0.0
 41
1.0
  0
SPLINE
  5
27D
330
1F
100
AcDbEntity
  8
0
100
AcDbSpline
210
0.0
220
0.0
230
1.0
 70
    12
 71
     3
 72
    19
 73
    15
 74
     0
 42
0.000000001
 43
0.1
 12
1.0
 22
0.0
 32
0.0
 13
1.0
 23
0.0
 33
0.0
 40
0.0
 40
0.0
 40
0.0
 40
0.0
 40
2154.16823610375
 40
4109.492451980324
 40
4959.016654880824
 40
5700.970312892815
 40
6326.801696446441
 40
6838.658731949567
 40
7257.186229993164
 40
7631.783874947934
 40
8505.232780085771
 40
9101.366368546174
 40
9814.18856593732
 40
11555.1108794129
 40
11555.1108794129
 40
11555.1108794129
 40
11555.1108794129
 10
409.6975747963684
 20
54.55133735845629
 30
0.0
 41
1.0
 10
409.2813504275684
 20
54.55133735845629
 30
0.0
 41
1.0
 10
408.4867980366685
 20
54.5942286680563
 30
0.0
 41
1.0
 10
407.5390790937684
 20
54.75680432195622
 30
0.0
 41
1.0
 10
406.8822590786685
 20
54.95545864495625
 30
0.0
 41
1.0
 10
406.4861404895685
 20
55.1211308688562
 30
0.0
 41
1.0
 10
406.1719542817684
 20
55.3065314427563
 30
0.0
 41
1.0
 10
405.9461208435685
 20
55.50902407035619
 30
0.0
 41
1.0
 10
405.8139308985685
 20
55.73121883145632
 30
0.0
 41
1.0
 10
405.7925943281684
 20
56.06708759705634
 30
0.0
 41
1.0
 10
406.0464291462683
 20
56.36971007395618
 30
0.0
 41
1.0
 10
406.3973982590685
 20
56.59526651735632
 30
0.0
 41
1.0
 10
406.9369492533685
 20
56.84151097805625
 30
0.0
 41
1.0
 10
407.3981322723685
 20
56.96202107395629
 30
0.0
 41
1.0
 10
407.7279208209684
 20
57.02827446865626
 30
0.0
 41
1.0
  0
SPLINE
  5
27E
330
1F
100
AcDbEntity
  8
0
100
AcDbSpline
210
0.0
220
0.0
230
1.0
 70
    12
 71
     3
 72
    14
 73
    10
 74
     0
 42
0.000000001
 43
0.1
 12
1.0
 22
0.0
 32
0.0
 13
1.0
 23
0.0
 33
0.0
 40
0.0
 40
0.0
 40
0.0
 40
0.0
 40
2406.411316232684
 40
3509.053224044089
 40
4496.532565810633
 40
5341.83879407767
 40
6030.173058314616
 40
6568.258702061345
 40
7003.908925162271
 40
7003.908925162271
 40
7003.908925162271
 40
7003.908925162271
 10
409.6975747963684
 20
53.47660064825618
 30
0.0
 41
1.0
 10
409.1222530668683
 20
53.47660064825618
 30
0.0
 41
1.0
 10
408.2812822552685
 20
53.52946459665623
 30
0.0
 41
1.0
 10
407.2220886551684
 20
53.71883403405627
 30
0.0
 41
1.0
 10
406.5440760968684
 20
53.90439654925626
 30
0.0
 41
1.0
 10
405.9829994323684
 20
54.12993544295614
 30
0.0
 41
1.0
 10
405.5575880391684
 20
54.38899396105626
 30
0.0
 41
1.0
 10
405.2742934645685
 20
54.6779035685563
 30
0.0
 41
1.0
 10
405.1976205472683
 20
54.91142379135613
 30
0.0
 41
1.0
 10
405.1975798948683
 20
55.01557847975619
 30
0.0
 41
1.0
  0
SPLINE
  5
27F
330
1F
100
AcDbEntity
  8
0
100
AcDbSpline
210
0.0
220
0.0
230
1.0
 70
    12
 71
     3
 72
     9
 73
     5
 74
     0
 42
0.000000001
 43
0.1
 12
1.0
 22
0.0
 32
0.0
 13
1.0
 23
0.0
 33
0.0
 40
0.0
 40
0.0
 40
0.0
 40
0.0
 40
613.160061309906
 40
2580.497459636129
 40
2580.497459636129
 40
2580.497459636129
 40
2580.497459636129
 10
414.2475747963683
 20
1.743048843656197
 30
0.0
 41
1.0
 10
414.2475747963683
 20
1.723928309456142
 30
0.0
 41
1.0
 10
414.2432205112684
 20
1.643457063256164
 30
0.0
 41
1.0
 10
414.2218437810684
 20
1.564421902556205
 30
0.0
 41
1.0
 10
414.1992728921684
 20
1.507376203156127
 30
0.0
 41
1.0
  0
SPLINE
  5
280
330
1F
100
AcDbEntity
  8
0
100
AcDbSpline
210
0.0
220
0.0
230
1.0
 70
    12
 71
     3
 72
    17
 73
    13
 74
     0
 42
0.000000001
 43
0.1
 12
1.0
 22
0.0
 32
0.0
 13
1.0
 23
0.0
 33
0.0
 40
0.0
 40
0.0
 40
0.0
 40
0.0
 40
373.9735447730181
 40
842.8973190591709
 40
2056.903018993144
 40
3562.09573104066
 40
5222.969273578203
 40
6883.841066409775
 40
8389.061172062902
 40
9603.094466165798
 40
10072.02531553168
 40
10446.00580063095
 40
10446.00580063095
 40
10446.00580063095
 40
10446.00580063095
 10
414.1992728921684
 20
1.507376203156127
 30
0.0
 41
1.0
 10
414.1551505204684
 20
1.395861252556188
 30
0.0
 41
1.0
 10
414.0024161677684
 20
1.166342699056258
 30
0.0
 41
1.0
 10
413.5152321075684
 20
0.7174576123561565
 30
0.0
 41
1.0
 10
412.6022486015684
 20
0.2264506045562484
 30
0.0
 41
1.0
 10
411.2486124780685
 20
-0.1738232400437028
 30
0.0
 41
1.0
 10
409.6976011560685
 20
-0.3215546812436969
 30
0.0
 41
1.0
 10
408.1465807025684
 20
-0.1738300862436972
 30
0.0
 41
1.0
 10
406.7929251582684
 20
0.2264394563562746
 30
0.0
 41
1.0
 10
405.8799224359684
 20
0.7174539732561698
 30
0.0
 41
1.0
 10
405.3927277515684
 20
1.166347397756226
 30
0.0
 41
1.0
 10
405.2399929798685
 20
1.395871920356285
 30
0.0
 41
1.0
 10
405.1958722992683
 20
1.507389933456352
 30
0.0
 41
1.0
  0
SPLINE
  5
281
330
1F
100
AcDbEntity
  8
0
100
AcDbSpline
210
0.0
220
0.0
230
1.0
 70
    12
 71
     3
 72
     9
 73
     5
 74
     0
 42
0.000000001
 43
0.1
 12
1.0
 22
0.0
 32
0.0
 13
1.0
 23
0.0
 33
0.0
 40
0.0
 40
0.0
 40
0.0
 40
0.0
 40
669.6190756708394
 40
2524.264650607543
 40
2524.264650607543
 40
2524.264650607543
 40
2524.264650607543
 10
405.1958722992683
 20
1.507389933456352
 30
0.0
 41
1.0
 10
405.1880216058685
 20
1.52723309365615
 30
0.0
 41
1.0
 10
405.1613456882685
 20
1.603098604456136
 30
0.0
 41
1.0
 10
405.1475747963684
 20
1.683944121156173
 30
0.0
 41
1.0
 10
405.1475747963684
 20
1.743048843656197
 30
0.0
 41
1.0
  0
SPLINE
  5
282
330
1F
100
AcDbEntity
  8
0
100
AcDbSpline
210
0.0
220
0.0
230
1.0
 70
    12
 71
     3
 72
     8
 73
     4
 74
     0
 42
0.000000001
 43
0.1
 12
1.0
 22
0.0
 32
0.0
 13
1.0
 23
0.0
 33
0.0
 40
0.0
 40
0.0
 40
0.0
 40
0.0
 40
1548.342726137759
 40
1548.342726137759
 40
1548.342726137759
 40
1548.342726137759
 10
405.1475747963684
 20
1.743048843656197
 30
0.0
 41
1.0
 10
405.1475747963684
 20
1.817010618556196
 30
0.0
 41
1.0
 10
405.1644968799685
 20
1.892639086656345
 30
0.0
 41
1.0
 10
405.1958812356684
 20
1.959611964456144
 30
0.0
 41
1.0
  0
SPLINE
  5
283
330
1F
100
AcDbEntity
  8
0
100
AcDbSpline
210
0.0
220
0.0
230
1.0
 70
    12
 71
     3
 72
     8
 73
     4
 74
     0
 42
0.000000001
 43
0.1
 12
1.0
 22
0.0
 32
0.0
 13
1.0
 23
0.0
 33
0.0
 40
0.0
 40
0.0
 40
0.0
 40
0.0
 40
1582.875802663947
 40
1582.875802663947
 40
1582.875802663947
 40
1582.875802663947
 10
414.1992727795684
 20
1.959599408056192
 30
0.0
 41
1.0
 10
414.2306531296683
 20
1.892629518956255
 30
0.0
 41
1.0
 10
414.2475747963683
 20
1.81700621255618
 30
0.0
 41
1.0
 10
414.2475747963683
 20
1.743048843656197
 30
0.0
 41
1.0
  0
LINE
  5
284
330
1F
100
AcDbEntity
  8
0
100
AcDbLine
 10
263.5475747963685
 20
3.0311069931563
 30
0.0
 11
263.4992852325684
 21
3.020932904256142
 31
0.0
  0
SPLINE
  5
285
330
1F
100
AcDbEntity
  8
0
100
AcDbSpline
210
0.0
220
0.0
230
1.0
 70
    12
 71
     3
 72
     9
 73
     5
 74
     0
 42
0.000000001
 43
0.1
 12
1.0
 22
0.0
 32
0.0
 13
1.0
 23
0.0
 33
0.0
 40
0.0
 40
0.0
 40
0.0
 40
0.0
 40
798.4163958161745
 40
1596.897770041371
 40
1596.897770041371
 40
1596.897770041371
 40
1596.897770041371
 10
263.4992852325684
 20
3.020932904256142
 30
0.0
 41
1.0
 10
262.0223752671684
 20
2.711905952856341
 30
0.0
 41
1.0
 10
258.9976627313683
 20
2.376385669156207
 30
0.0
 41
1.0
 10
255.9729428159685
 20
2.711877787556205
 30
0.0
 41
1.0
 10
254.4959111565684
 20
3.020922733756152
 30
0.0
 41
1.0
  0
LINE
  5
286
330
1F
100
AcDbEntity
  8
0
100
AcDbLine
 10
254.4959111565684
 20
3.020922733756152
 30
0.0
 11
254.4475747963684
 21
3.0311069931563
 31
0.0
  0
SPLINE
  5
287
330
1F
100
AcDbEntity
  8
0
100
AcDbSpline
210
0.0
220
0.0
230
1.0
 70
    12
 71
     3
 72
     9
 73
     5
 74
     0
 42
0.000000001
 43
0.1
 12
1.0
 22
0.0
 32
0.0
 13
1.0
 23
0.0
 33
0.0
 40
0.0
 40
0.0
 40
0.0
 40
0.0
 40
880.9753269841858
 40
1761.968324396303
 40
1761.968324396303
 40
1761.968324396303
 40
1761.968324396303
 10
257.2975747963685
 20
-39.9688930068437
 30
0.0
 41
1.0
 10
258.8642253666685
 20
-39.62222350924367
 30
0.0
 41
1.0
 10
261.9975583152684
 20
-39.27554705834382
 30
0.0
 41
1.0
 10
265.1308920332685
 20
-39.62221655594385
 30
0.0
 41
1.0
 10
266.6975747963684
 20
-39.9688930068437
 30
0.0
 41
1.0
  0
SPLINE
  5
288
330
1F
100
AcDbEntity
  8
0
100
AcDbSpline
210
0.0
220
0.0
230
1.0
 70
    12
 71
     3
 72
    23
 73
    19
 74
     0
 42
0.000000001
 43
0.1
 12
1.0
 22
0.0
 32
0.0
 13
1.0
 23
0.0
 33
0.0
 40
0.0
 40
0.0
 40
0.0
 40
0.0
 40
703.9382134355774
 40
1407.881829297901
 40
2111.855405198623
 40
2815.86438073715
 40
3519.910915307159
 40
4223.991857117567
 40
4928.099328943555
 40
5632.22140399313
 40
6336.343476789819
 40
7040.450942983585
 40
7744.531876908883
 40
8448.578401340892
 40
9152.587367867867
 40
9856.560934757035
 40
10560.50454498714
 40
11264.44275616982
 40
11264.44275616982
 40
11264.44275616982
 40
11264.44275616982
 10
338.8975747963684
 20
205.0480078139562
 30
0.0
 41
1.0
 10
338.8975747963684
 20
205.8972517521563
 30
0.0
 41
1.0
 10
338.7299651595683
 20
207.6004563469562
 30
0.0
 41
1.0
 10
337.9853751847684
 20
210.0533832889562
 30
0.0
 41
1.0
 10
336.7762633421685
 20
212.3149381290561
 30
0.0
 41
1.0
 10
335.1490928391684
 20
214.2969391866563
 30
0.0
 41
1.0
 10
333.1664039419684
 20
215.9235554692561
 30
0.0
 41
1.0
 10
330.9044074516685
 20
217.1322063883563
 30
0.0
 41
1.0
 10
328.4500288859683
 20
217.8764896907562
 30
0.0
 41
1.0
 10
325.8975747038685
 20
218.1278052085563
 30
0.0
 41
1.0
 10
323.3451205329684
 20
217.8764896523562
 30
0.0
 41
1.0
 10
320.8907419952684
 20
217.1322063267562
 30
0.0
 41
1.0
 10
318.6287455431684
 20
215.9235553974563
 30
0.0
 41
1.0
 10
316.6460566883684
 20
214.2969391176562
 30
0.0
 41
1.0
 10
315.0188862193684
 20
212.3149380772563
 30
0.0
 41
1.0
 10
313.8097743971684
 20
210.0533832597562
 30
0.0
 41
1.0
 10
313.0651844317683
 20
207.6004563354563
 30
0.0
 41
1.0
 10
312.8975747963684
 20
205.8972517499562
 30
0.0
 41
1.0
 10
312.8975747963684
 20
205.0480078139562
 30
0.0
 41
1.0
  0
LINE
  5
289
330
1F
100
AcDbEntity
  8
0
100
AcDbLine
 10
324.3077666125685
 20
183.8839817490561
 30
0.0
 11
324.2722639220685
 21
183.8841362096562
 31
0.0
  0
LINE
  5
28A
330
1F
100
AcDbEntity
  8
0
100
AcDbLine
 10
322.0143758963684
 20
183.9015714678562
 30
0.0
 11
321.9185396401683
 21
183.9026693337562
 31
0.0
  0
LINE
  5
28B
330
1F
100
AcDbEntity
  8
0
100
AcDbLine
 10
321.3263421396684
 20
183.9101842658563
 30
0.0
 11
321.2947045922683
 21
183.9106225885562
 31
0.0
  0
SPLINE
  5
28C
330
1F
100
AcDbEntity
  8
0
100
AcDbSpline
210
0.0
220
0.0
230
1.0
 70
    12
 71
     3
 72
     9
 73
     5
 74
     0
 42
0.000000001
 43
0.1
 12
1.0
 22
0.0
 32
0.0
 13
1.0
 23
0.0
 33
0.0
 40
0.0
 40
0.0
 40
0.0
 40
0.0
 40
499.0955312810617
 40
1729.569552342922
 40
1729.569552342922
 40
1729.569552342922
 40
1729.569552342922
 10
321.2947045922683
 20
183.9106225885562
 30
0.0
 41
1.0
 10
320.9589418130683
 20
183.9152949937563
 30
0.0
 41
1.0
 10
319.7954367161685
 20
183.9339788562563
 30
0.0
 41
1.0
 10
318.6319644547684
 20
183.9606829046563
 30
0.0
 41
1.0
 10
317.8046960489685
 20
183.9922989018562
 30
0.0
 41
1.0
  0
SPLINE
  5
28D
330
1F
100
AcDbEntity
  8
0
100
AcDbSpline
210
0.0
220
0.0
230
1.0
 70
    12
 71
     3
 72
    15
 73
    11
 74
     0
 42
0.000000001
 43
0.1
 12
1.0
 22
0.0
 32
0.0
 13
1.0
 23
0.0
 33
0.0
 40
0.0
 40
0.0
 40
0.0
 40
0.0
 40
2095.473653750129
 40
3630.950139544119
 40
4183.141564421739
 40
4599.382551757122
 40
4766.959050904546
 40
4929.719818339526
 40
5164.997817650083
 40
5676.530438192535
 40
5676.530438192535
 40
5676.530438192535
 40
5676.530438192535
 10
317.8046960489685
 20
183.9922989018562
 30
0.0
 41
1.0
 10
317.5552563927683
 20
184.0018318218563
 30
0.0
 41
1.0
 10
317.1231466170684
 20
184.0207324427563
 30
0.0
 41
1.0
 10
316.6256440618683
 20
184.0511383410562
 30
0.0
 41
1.0
 10
316.3287037295684
 20
184.0793801160562
 30
0.0
 41
1.0
 10
316.1944308939685
 20
184.0969723060562
 30
0.0
 41
1.0
 10
316.1071634023685
 20
184.1143539369561
 30
0.0
 41
1.0
 10
316.0422734729684
 20
184.1329505532563
 30
0.0
 41
1.0
 10
315.9444935661684
 20
184.1824991203562
 30
0.0
 41
1.0
 10
315.8975747963684
 20
184.2761836563564
 30
0.0
 41
1.0
 10
315.8975747963684
 20
184.3371196018563
 30
0.0
 41
1.0
  0
SPLINE
  5
28E
330
1F
100
AcDbEntity
  8
0
100
AcDbSpline
210
0.0
220
0.0
230
1.0
 70
    12
 71
     3
 72
    15
 73
    11
 74
     0
 42
0.000000001
 43
0.1
 12
1.0
 22
0.0
 32
0.0
 13
1.0
 23
0.0
 33
0.0
 40
0.0
 40
0.0
 40
0.0
 40
0.0
 40
541.8186149485065
 40
791.0162837334009
 40
963.4118927847479
 40
1140.907764744718
 40
1581.787357495333
 40
2166.664324190879
 40
3793.028889721777
 40
6012.538808198135
 40
6012.538808198135
 40
6012.538808198135
 40
6012.538808198135
 10
335.8975747963684
 20
184.3371196019561
 30
0.0
 41
1.0
 10
335.8975747963684
 20
184.2761830367563
 30
0.0
 41
1.0
 10
335.8506540480685
 20
184.1824997193562
 30
0.0
 41
1.0
 10
335.7528751945683
 20
184.1329504449564
 30
0.0
 41
1.0
 10
335.6879861187683
 20
184.1143538801562
 30
0.0
 41
1.0
 10
335.6007187753685
 20
184.0969723683563
 30
0.0
 41
1.0
 10
335.4664463017684
 20
184.0793801476561
 30
0.0
 41
1.0
 10
335.1695068878685
 20
184.0511384724562
 30
0.0
 41
1.0
 10
334.6720058777685
 20
184.0207325854562
 30
0.0
 41
1.0
 10
334.2398974469684
 20
184.0018320058562
 30
0.0
 41
1.0
 10
333.9904585303684
 20
183.9922990957562
 30
0.0
 41
1.0
  0
SPLINE
  5
28F
330
1F
100
AcDbEntity
  8
0
100
AcDbSpline
210
0.0
220
0.0
230
1.0
 70
    12
 71
     3
 72
     9
 73
     5
 74
     0
 42
0.000000001
 43
0.1
 12
1.0
 22
0.0
 32
0.0
 13
1.0
 23
0.0
 33
0.0
 40
0.0
 40
0.0
 40
0.0
 40
0.0
 40
372.9245118883103
 40
1795.827173430486
 40
1795.827173430486
 40
1795.827173430486
 40
1795.827173430486
 10
333.9904585303684
 20
183.9922990957562
 30
0.0
 41
1.0
 10
333.7468116529685
 20
183.9829875424562
 30
0.0
 41
1.0
 10
332.5732872721685
 20
183.9443940723563
 30
0.0
 41
1.0
 10
331.3992635294685
 20
183.9230190940561
 30
0.0
 41
1.0
 10
330.4690327082685
 20
183.9101873748562
 30
0.0
 41
1.0
  0
LINE
  5
290
330
1F
100
AcDbEntity
  8
0
100
AcDbLine
 10
329.8765041853685
 20
183.9026681019564
 30
0.0
 11
329.8045670389683
 21
183.9018410598562
 31
0.0
  0
LINE
  5
291
330
1F
100
AcDbEntity
  8
0
100
AcDbLine
 10
327.5229655057685
 20
183.8841365588562
 30
0.0
 11
327.4975823694683
 21
183.8840257622562
 31
0.0
  0
SPLINE
  5
292
330
1F
100
AcDbEntity
  8
0
100
AcDbSpline
210
0.0
220
0.0
230
1.0
 70
    12
 71
     3
 72
    19
 73
    15
 74
     0
 42
0.000000001
 43
0.1
 12
1.0
 22
0.0
 32
0.0
 13
1.0
 23
0.0
 33
0.0
 40
0.0
 40
0.0
 40
0.0
 40
0.0
 40
44.77136015826005
 40
157.1185228471884
 40
340.5136944356744
 40
594.6126285730318
 40
918.2861117421411
 40
1309.912649925793
 40
1767.392546100083
 40
2288.286725540955
 40
3508.607466026085
 40
4944.717238265101
 40
6565.227657201774
 40
8335.303093143159
 40
8335.303093143159
 40
8335.303093143159
 40
8335.303093143159
 10
315.8975770549685
 20
184.3371196018563
 30
0.0
 41
1.0
 10
315.8975712177685
 20
184.3482443399562
 30
0.0
 41
1.0
 10
315.9478291660685
 20
184.3637779000562
 30
0.0
 41
1.0
 10
316.0191069587684
 20
184.3794233530562
 30
0.0
 41
1.0
 10
316.1610765813684
 20
184.3977337760562
 30
0.0
 41
1.0
 10
316.3465668770684
 20
184.4154362228562
 30
0.0
 41
1.0
 10
316.5878768212685
 20
184.4333279475563
 30
0.0
 41
1.0
 10
316.8783879940684
 20
184.4507126270562
 30
0.0
 41
1.0
 10
317.2185185760684
 20
184.4676224396562
 30
0.0
 41
1.0
 10
317.7643185225684
 20
184.4904987506563
 30
0.0
 41
1.0
 10
318.5534486738684
 20
184.5161252010562
 30
0.0
 41
1.0
 10
319.6158580347685
 20
184.5419924658563
 30
0.0
 41
1.0
 10
320.8150056395684
 20
184.5636391278563
 30
0.0
 41
1.0
 10
321.6574270658684
 20
184.5745193267562
 30
0.0
 41
1.0
 10
322.0972280815683
 20
184.5792490040562
 30
0.0
 41
1.0
  0
LINE
  5
293
330
1F
100
AcDbEntity
  8
0
100
AcDbLine
 10
323.0970733498684
 20
184.5884142766563
 30
0.0
 11
323.1973744086683
 21
184.5891654814563
 31
0.0
  0
LINE
  5
294
330
1F
100
AcDbEntity
  8
0
100
AcDbLine
 10
324.1977480452683
 20
184.5950795662563
 30
0.0
 11
324.2186837098684
 21
184.5951735021563
 31
0.0
  0
LINE
  5
295
330
1F
100
AcDbEntity
  8
0
100
AcDbLine
 10
324.2186837098684
 20
184.5951735021563
 30
0.0
 11
324.2975346534683
 21
184.5955165591563
 31
0.0
  0
LINE
  5
296
330
1F
100
AcDbEntity
  8
0
100
AcDbLine
 10
325.2975203884685
 20
184.5984170389563
 30
0.0
 11
325.3975722426685
 21
184.5985613500563
 31
0.0
  0
LINE
  5
297
330
1F
100
AcDbEntity
  8
0
100
AcDbLine
 10
325.3975722426685
 20
184.5985613500563
 30
0.0
 11
325.4938487180684
 21
184.5986754068563
 31
0.0
  0
LINE
  5
298
330
1F
100
AcDbEntity
  8
0
100
AcDbLine
 10
325.4938487180684
 20
184.5986754068563
 30
0.0
 11
325.8975747963684
 21
184.5988890849562
 31
0.0
  0
LINE
  5
299
330
1F
100
AcDbEntity
  8
0
100
AcDbLine
 10
325.8975747963684
 20
184.5988890849562
 30
0.0
 11
326.3975847937684
 21
184.5985614146562
 31
0.0
  0
LINE
  5
29A
330
1F
100
AcDbEntity
  8
0
100
AcDbLine
 10
326.3975847937684
 20
184.5985614146562
 30
0.0
 11
326.4976110440684
 21
184.5984171620562
 31
0.0
  0
LINE
  5
29B
330
1F
100
AcDbEntity
  8
0
100
AcDbLine
 10
327.4200544135683
 20
184.5958374605561
 30
0.0
 11
327.4975460294684
 21
184.5955168209562
 31
0.0
  0
LINE
  5
29C
330
1F
100
AcDbEntity
  8
0
100
AcDbLine
 10
327.4975460294684
 20
184.5955168209562
 30
0.0
 11
327.5976687523685
 21
184.5950783359563
 31
0.0
  0
LINE
  5
29D
330
1F
100
AcDbEntity
  8
0
100
AcDbLine
 10
328.5704596461685
 20
184.5893648782562
 30
0.0
 11
328.5973981759685
 21
184.5891682095562
 31
0.0
  0
LINE
  5
29E
330
1F
100
AcDbEntity
  8
0
100
AcDbLine
 10
328.5973981759685
 20
184.5891682095562
 30
0.0
 11
328.6976278060683
 21
184.5884177499563
 31
0.0
  0
SPLINE
  5
29F
330
1F
100
AcDbEntity
  8
0
100
AcDbSpline
210
0.0
220
0.0
230
1.0
 70
    12
 71
     3
 72
    19
 73
    15
 74
     0
 42
0.000000001
 43
0.1
 12
1.0
 22
0.0
 32
0.0
 13
1.0
 23
0.0
 33
0.0
 40
0.0
 40
0.0
 40
0.0
 40
0.0
 40
1848.911760185203
 40
3541.711653534428
 40
5041.971704705054
 40
6317.02261473126
 40
6861.296387373453
 40
7339.358586498837
 40
7748.608192905133
 40
8086.901306794947
 40
8352.513032720453
 40
8544.234475419198
 40
8661.75136921921
 40
8708.628718432356
 40
8708.628718432356
 40
8708.628718432356
 40
8708.628718432356
 10
329.6972867791685
 20
184.5792557251561
 30
0.0
 41
1.0
 10
330.1370259281684
 20
184.5745269568563
 30
0.0
 41
1.0
 10
330.9793561299684
 20
184.5636511842563
 30
0.0
 41
1.0
 10
332.1784071111683
 20
184.5420109434563
 30
0.0
 41
1.0
 10
333.2408293441683
 20
184.5161488525562
 30
0.0
 41
1.0
 10
334.0300261649684
 20
184.4905290239562
 30
0.0
 41
1.0
 10
334.5759318555683
 20
184.4676533287563
 30
0.0
 41
1.0
 10
334.9161489285684
 20
184.4507474198563
 30
0.0
 41
1.0
 10
335.2067623162684
 20
184.4333602123563
 30
0.0
 41
1.0
 10
335.4481699381683
 20
184.4154735319562
 30
0.0
 41
1.0
 10
335.6337835654683
 20
184.3977592554563
 30
0.0
 41
1.0
 10
335.7758209694684
 20
184.3794745664563
 30
0.0
 41
1.0
 10
335.8472516891684
 20
184.3637712026562
 30
0.0
 41
1.0
 10
335.8975150050685
 20
184.3483009612562
 30
0.0
 41
1.0
 10
335.8975724477684
 20
184.3371513085563
 30
0.0
 41
1.0
  0
LINE
  5
2A0
330
1F
100
AcDbEntity
  8
0
100
AcDbLine
 10
330.4481978295685
 20
183.9099885121561
 30
0.0
 11
330.4687589993684
 21
183.9102715278561
 31
0.0
  0
LINE
  5
2A1
330
1F
100
AcDbEntity
  8
0
100
AcDbLine
 10
321.3263849502684
 20
183.9102716057562
 30
0.0
 11
321.3475605855683
 21
183.9099801566563
 31
0.0
  0
SPLINE
  5
2A2
330
1F
100
AcDbEntity
  8
0
100
AcDbSpline
210
0.0
220
0.0
230
1.0
 70
    12
 71
     3
 72
    12
 73
     8
 74
     0
 42
0.000000001
 43
0.1
 12
1.0
 22
0.0
 32
0.0
 13
1.0
 23
0.0
 33
0.0
 40
0.0
 40
0.0
 40
0.0
 40
0.0
 40
171.7258369228257
 40
460.1778370795223
 40
891.4153480704574
 40
2173.200012769299
 40
3988.195197683781
 40
3988.195197683781
 40
3988.195197683781
 40
3988.195197683781
 10
336.5944251900685
 20
197.0451121025562
 30
0.0
 41
1.0
 10
336.5944242438684
 20
197.0480518505562
 30
0.0
 41
1.0
 10
336.5808579423685
 20
197.0418272263562
 30
0.0
 41
1.0
 10
336.5746276708685
 20
197.0321585961563
 30
0.0
 41
1.0
 10
336.5483454741684
 20
197.0062530037562
 30
0.0
 41
1.0
 10
336.5119898128685
 20
196.9604807649562
 30
0.0
 41
1.0
 10
336.4776141015684
 20
196.9191936075563
 30
0.0
 41
1.0
 10
336.4580507569685
 20
196.8950552743563
 30
0.0
 41
1.0
  0
SPLINE
  5
2A3
330
1F
100
AcDbEntity
  8
0
100
AcDbSpline
210
0.0
220
0.0
230
1.0
 70
    12
 71
     3
 72
    13
 73
     9
 74
     0
 42
0.000000001
 43
0.1
 12
1.0
 22
0.0
 32
0.0
 13
1.0
 23
0.0
 33
0.0
 40
0.0
 40
0.0
 40
0.0
 40
0.0
 40
289.3783373200491
 40
709.8876129490327
 40
1219.73451398524
 40
1796.442964981066
 40
3109.461227965041
 40
4601.61435284567
 40
4601.61435284567
 40
4601.61435284567
 40
4601.61435284567
 10
336.4580507569685
 20
196.8950552743563
 30
0.0
 41
1.0
 10
336.3341702555683
 20
196.7422046816562
 30
0.0
 41
1.0
 10
336.0305539021683
 20
196.3669399457563
 30
0.0
 41
1.0
 10
335.4759209221684
 20
195.7496409356563
 30
0.0
 41
1.0
 10
334.7390033790684
 20
195.0361534241563
 30
0.0
 41
1.0
 10
333.4740399698685
 20
194.0028746374562
 30
0.0
 41
1.0
 10
331.4862667438683
 20
192.8154705998563
 30
0.0
 41
1.0
 10
329.6580035891684
 20
192.2062968562561
 30
0.0
 41
1.0
 10
328.6653430574684
 20
191.9968699577562
 30
0.0
 41
1.0
  0
SPLINE
  5
2A4
330
1F
100
AcDbEntity
  8
0
100
AcDbSpline
210
0.0
220
0.0
230
1.0
 70
    12
 71
     3
 72
    12
 73
     8
 74
     0
 42
0.000000001
 43
0.1
 12
1.0
 22
0.0
 32
0.0
 13
1.0
 23
0.0
 33
0.0
 40
0.0
 40
0.0
 40
0.0
 40
0.0
 40
1711.018521895404
 40
2915.48687975878
 40
3319.570872236196
 40
3590.206549024505
 40
3754.217705528481
 40
3754.217705528481
 40
3754.217705528481
 40
3754.217705528481
 10
315.3344225311685
 20
196.8983532407563
 30
0.0
 41
1.0
 10
315.3152349051684
 20
196.9220185811562
 30
0.0
 41
1.0
 10
315.2815749699685
 20
196.9624504585563
 30
0.0
 41
1.0
 10
315.2459135341685
 20
197.0071885346563
 30
0.0
 41
1.0
 10
315.2202491578685
 20
197.0324754677563
 30
0.0
 41
1.0
 10
315.2140434522685
 20
197.0418534092562
 30
0.0
 41
1.0
 10
315.2007474723684
 20
197.0480324130563
 30
0.0
 41
1.0
 10
315.2007244026684
 20
197.0451121025562
 30
0.0
 41
1.0
  0
SPLINE
  5
2A5
330
1F
100
AcDbEntity
  8
0
100
AcDbSpline
210
0.0
220
0.0
230
1.0
 70
    12
 71
     3
 72
    10
 73
     6
 74
     0
 42
0.000000001
 43
0.1
 12
1.0
 22
0.0
 32
0.0
 13
1.0
 23
0.0
 33
0.0
 40
0.0
 40
0.0
 40
0.0
 40
0.0
 40
240.3279694297263
 40
727.0747143393723
 40
2426.390620932158
 40
2426.390620932158
 40
2426.390620932158
 40
2426.390620932158
 10
315.2007244026684
 20
197.0451121025562
 30
0.0
 41
1.0
 10
315.2007259587683
 20
197.0399050697563
 30
0.0
 41
1.0
 10
315.2078893657683
 20
197.0251065227562
 30
0.0
 41
1.0
 10
315.2305543356683
 20
196.9785223696563
 30
0.0
 41
1.0
 10
315.2558497524685
 20
196.9378291312562
 30
0.0
 41
1.0
 10
315.2750797399685
 20
196.9064321193562
 30
0.0
 41
1.0
  0
SPLINE
  5
2A6
330
1F
100
AcDbEntity
  8
0
100
AcDbSpline
210
0.0
220
0.0
230
1.0
 70
    12
 71
     3
 72
     9
 73
     5
 74
     0
 42
0.000000001
 43
0.1
 12
1.0
 22
0.0
 32
0.0
 13
1.0
 23
0.0
 33
0.0
 40
0.0
 40
0.0
 40
0.0
 40
0.0
 40
693.0069070308559
 40
1717.622872923215
 40
1717.622872923215
 40
1717.622872923215
 40
1717.622872923215
 10
315.2750797399685
 20
196.9064321193562
 30
0.0
 41
1.0
 10
315.3506213048684
 20
196.7830945766561
 30
0.0
 41
1.0
 10
315.5509849411685
 20
196.4855467085563
 30
0.0
 41
1.0
 10
315.7650245972684
 20
196.1977917257561
 30
0.0
 41
1.0
 10
315.8972588432684
 20
196.0297381259563
 30
0.0
 41
1.0
  0
SPLINE
  5
2A7
330
1F
100
AcDbEntity
  8
0
100
AcDbSpline
210
0.0
220
0.0
230
1.0
 70
    12
 71
     3
 72
     9
 73
     5
 74
     0
 42
0.000000001
 43
0.1
 12
1.0
 22
0.0
 32
0.0
 13
1.0
 23
0.0
 33
0.0
 40
0.0
 40
0.0
 40
0.0
 40
0.0
 40
1088.476177057688
 40
1821.01105337313
 40
1821.01105337313
 40
1821.01105337313
 40
1821.01105337313
 10
335.8978210946684
 20
196.0296494108563
 30
0.0
 41
1.0
 10
336.0308585862683
 20
196.1987211347562
 30
0.0
 41
1.0
 10
336.2457037828685
 20
196.4876834312563
 30
0.0
 41
1.0
 10
336.4468033533685
 20
196.7864931651563
 30
0.0
 41
1.0
 10
336.5222831346684
 20
196.9100476877563
 30
0.0
 41
1.0
  0
SPLINE
  5
2A8
330
1F
100
AcDbEntity
  8
0
100
AcDbSpline
210
0.0
220
0.0
230
1.0
 70
    12
 71
     3
 72
    10
 73
     6
 74
     0
 42
0.000000001
 43
0.1
 12
1.0
 22
0.0
 32
0.0
 13
1.0
 23
0.0
 33
0.0
 40
0.0
 40
0.0
 40
0.0
 40
0.0
 40
1801.471823470209
 40
2319.108159327267
 40
2578.115157948991
 40
2578.115157948991
 40
2578.115157948991
 40
2578.115157948991
 10
336.5222831346684
 20
196.9100476877563
 30
0.0
 41
1.0
 10
336.5409182110684
 20
196.9405518561562
 30
0.0
 41
1.0
 10
336.5654201722684
 20
196.9801101984563
 30
0.0
 41
1.0
 10
336.5874260649684
 20
197.0255030016563
 30
0.0
 41
1.0
 10
336.5943867863684
 20
197.0399728696561
 30
0.0
 41
1.0
 10
336.5944251900685
 20
197.0451121025562
 30
0.0
 41
1.0
  0
SPLINE
  5
2A9
330
1F
100
AcDbEntity
  8
0
100
AcDbSpline
210
0.0
220
0.0
230
1.0
 70
    12
 71
     3
 72
    21
 73
    17
 74
     0
 42
0.000000001
 43
0.1
 12
1.0
 22
0.0
 32
0.0
 13
1.0
 23
0.0
 33
0.0
 40
0.0
 40
0.0
 40
0.0
 40
0.0
 40
609.6432681583502
 40
1219.311294688162
 40
1829.00891179835
 40
2438.743154888865
 40
3048.517783318849
 40
3658.331220457123
 40
4872.160906659824
 40
6085.990597734686
 40
6695.80403487296
 40
7305.578660379647
 40
7915.31290249573
 40
8525.010546890018
 40
9134.678432127172
 40
9744.321261791065
 40
9744.321261791065
 40
9744.321261791065
 40
9744.321261791065
 10
314.2975747963685
 20
205.0846555415562
 30
0.0
 41
1.0
 10
314.2975747963685
 20
205.8423866776564
 30
0.0
 41
1.0
 10
314.4471239612685
 20
207.3620829633562
 30
0.0
 41
1.0
 10
315.1114881096685
 20
209.5507380540562
 30
0.0
 41
1.0
 10
316.1904248384685
 20
211.5686667126563
 30
0.0
 41
1.0
 10
317.6421857134685
 20
213.3371306236563
 30
0.0
 41
1.0
 10
319.4120328987685
 20
214.7885879580563
 30
0.0
 41
1.0
 10
322.0932577800684
 20
216.2230614568562
 30
0.0
 41
1.0
 10
325.8975758028685
 20
216.9852548993563
 30
0.0
 41
1.0
 10
329.7018938693684
 20
216.2230610418562
 30
0.0
 41
1.0
 10
332.3831182799684
 20
214.7885866768563
 30
0.0
 41
1.0
 10
334.1529653218684
 20
213.3371292252561
 30
0.0
 41
1.0
 10
335.6047260458683
 20
211.5686651045562
 30
0.0
 41
1.0
 10
336.6836619582684
 20
209.5507361586563
 30
0.0
 41
1.0
 10
337.3480255422685
 20
207.3620816731561
 30
0.0
 41
1.0
 10
337.4975747963683
 20
205.8423861322563
 30
0.0
 41
1.0
 10
337.4975747963683
 20
205.0846555415562
 30
0.0
 41
1.0
  0
SPLINE
  5
2AA
330
1F
100
AcDbEntity
  8
0
100
AcDbSpline
210
0.0
220
0.0
230
1.0
 70
    12
 71
     3
 72
    21
 73
    17
 74
     0
 42
0.000000001
 43
0.1
 12
1.0
 22
0.0
 32
0.0
 13
1.0
 23
0.0
 33
0.0
 40
0.0
 40
0.0
 40
0.0
 40
0.0
 40
614.6784439490002
 40
1229.381850754215
 40
1844.115092534817
 40
2458.88526279765
 40
3073.696151951218
 40
3688.546170342603
 40
4912.401138819647
 40
6136.256112209091
 40
6751.106130600476
 40
7365.917016806603
 40
7980.687186086956
 40
8595.420455377003
 40
9210.123719722593
 40
9824.801721555516
 40
9824.801721555516
 40
9824.801721555516
 40
9824.801721555516
 10
337.4975747963683
 20
205.0846555415562
 30
0.0
 41
1.0
 10
337.4975747963683
 20
204.3269244055562
 30
0.0
 41
1.0
 10
337.3480256314683
 20
202.8072281198563
 30
0.0
 41
1.0
 10
336.6836614830684
 20
200.6185730291563
 30
0.0
 41
1.0
 10
335.6047247542683
 20
198.6006443704562
 30
0.0
 41
1.0
 10
334.1529638792683
 20
196.8321804595562
 30
0.0
 41
1.0
 10
332.3831166938685
 20
195.3807231250562
 30
0.0
 41
1.0
 10
329.7018918125684
 20
193.9462496263563
 30
0.0
 41
1.0
 10
325.8975737897683
 20
193.1840561838562
 30
0.0
 41
1.0
 10
322.0932557232684
 20
193.9462500413563
 30
0.0
 41
1.0
 10
319.4120313126684
 20
195.3807244063562
 30
0.0
 41
1.0
 10
317.6421842707684
 20
196.8321818579561
 30
0.0
 41
1.0
 10
316.1904235468685
 20
198.6006459786563
 30
0.0
 41
1.0
 10
315.1114876344684
 20
200.6185749245562
 30
0.0
 41
1.0
 10
314.4471240503685
 20
202.8072294100562
 30
0.0
 41
1.0
 10
314.2975747963685
 20
204.3269249509563
 30
0.0
 41
1.0
 10
314.2975747963685
 20
205.0846555415562
 30
0.0
 41
1.0
  0
SPLINE
  5
2AB
330
1F
100
AcDbEntity
  8
0
100
AcDbSpline
210
0.0
220
0.0
230
1.0
 70
    12
 71
     3
 72
    23
 73
    19
 74
     0
 42
0.000000001
 43
0.1
 12
1.0
 22
0.0
 32
0.0
 13
1.0
 23
0.0
 33
0.0
 40
0.0
 40
0.0
 40
0.0
 40
0.0
 40
696.048990708824
 40
1392.038805569438
 40
2088.07206833005
 40
2784.167994488861
 40
3480.298371760297
 40
4176.503097003356
 40
4872.733506030401
 40
5569.004122688227
 40
6265.287801785761
 40
6961.557661006987
 40
7657.826832965887
 40
8354.042258114792
 40
9050.238572469965
 40
9746.460817889896
 40
10442.67293036755
 40
11138.77352144472
 40
11138.77352144472
 40
11138.77352144472
 40
11138.77352144472
 10
338.8975747963684
 20
205.0480078139562
 30
0.0
 41
1.0
 10
338.8975747963684
 20
204.1988233502561
 30
0.0
 41
1.0
 10
338.7299776006685
 20
202.4958175655563
 30
0.0
 41
1.0
 10
337.9855121680685
 20
200.0431926095562
 30
0.0
 41
1.0
 10
336.7766276028685
 20
197.7819143887561
 30
0.0
 41
1.0
 10
335.1497274750684
 20
195.8000853212563
 30
0.0
 41
1.0
 10
333.1673168578684
 20
194.1734859870562
 30
0.0
 41
1.0
 10
330.9055717670685
 20
192.9647407112561
 30
0.0
 41
1.0
 10
328.4513537584685
 20
192.2202653067563
 30
0.0
 41
1.0
 10
325.8989750781684
 20
191.9686956042563
 30
0.0
 41
1.0
 10
323.3464941203683
 20
192.2197277677562
 30
0.0
 41
1.0
 10
320.8919839957684
 20
192.9637374812562
 30
0.0
 41
1.0
 10
318.6297919719684
 20
194.1721461197562
 30
0.0
 41
1.0
 10
316.6468668786683
 20
195.7986091917562
 30
0.0
 41
1.0
 10
315.0193815847683
 20
197.7805583442562
 30
0.0
 41
1.0
 10
313.8099669979683
 20
200.0422758767563
 30
0.0
 41
1.0
 10
313.0652145038684
 20
202.4954188977563
 30
0.0
 41
1.0
 10
312.8975747963684
 20
204.1987603973562
 30
0.0
 41
1.0
 10
312.8975747963684
 20
205.0480078139562
 30
0.0
 41
1.0
  0
SPLINE
  5
2AC
330
1F
100
AcDbEntity
  8
0
100
AcDbSpline
210
0.0
220
0.0
230
1.0
 70
    12
 71
     3
 72
    55
 73
    51
 74
     0
 42
0.000000001
 43
0.1
 12
1.0
 22
0.0
 32
0.0
 13
1.0
 23
0.0
 33
0.0
 40
0.0
 40
0.0
 40
0.0
 40
0.0
 40
8.895363450607285
 40
35.52622569324252
 40
79.76435943020759
 40
141.3779846590795
 40
220.0645287038476
 40
315.4376672568307
 40
554.4225932667487
 40
854.2026272416838
 40
1210.097267513833
 40
1617.186968182097
 40
2070.589460016631
 40
3097.895573735805
 40
4258.437689606758
 40
5524.54865469357
 40
6874.220171095639
 40
8290.088581915885
 40
9758.487263280307
 40
12811.46454409455
 40
14380.4363215044
 40
15969.31288200776
 40
16769.93210175022
 40
17573.70739764222
 40
18379.78792601693
 40
19187.08353419243
 40
19994.37846698249
 40
20800.45957864462
 40
21604.234648129
 40
22404.85349564199
 40
23993.73024417879
 40
25562.70197170222
 40
28615.67964777044
 40
30084.07849414381
 40
31499.94731173028
 40
32849.61910442639
 40
34115.7302920834
 40
35276.27333660933
 40
36303.58008350235
 40
36756.98300896504
 40
37164.0732200098
 40
37519.96844740679
 40
37819.74899175822
 40
38058.73431685953
 40
38154.10757053503
 40
38232.79436784934
 40
38294.40806215173
 40
38338.64632252345
 40
38365.27720011576
 40
38374.17258659087
 40
38374.17258659087
 40
38374.17258659087
 40
38374.17258659087
 10
302.1475747963684
 20
-39.9688930068437
 30
0.0
 41
1.0
 10
302.1519730363684
 20
-39.96794744134377
 30
0.0
 41
1.0
 10
302.1632959370684
 20
-39.95151697054371
 30
0.0
 41
1.0
 10
302.1962992647684
 20
-39.92999458184386
 30
0.0
 41
1.0
 10
302.2460443764685
 20
-39.88396477854371
 30
0.0
 41
1.0
 10
302.3177080563685
 20
-39.82465454184376
 30
0.0
 41
1.0
 10
302.4082946717683
 20
-39.74700788304381
 30
0.0
 41
1.0
 10
302.5675599846684
 20
-39.61192526284367
 30
0.0
 41
1.0
 10
302.8119065631683
 20
-39.40414684014377
 30
0.0
 41
1.0
 10
303.1568812619685
 20
-39.11139661744369
 30
0.0
 41
1.0
 10
303.5668201515684
 20
-38.76377286294382
 30
0.0
 41
1.0
 10
304.0362914316684
 20
-38.36623757314374
 30
0.0
 41
1.0
 10
304.7653782962684
 20
-37.74983676104375
 30
0.0
 41
1.0
 10
305.7867116711684
 20
-36.88890755534385
 30
0.0
 41
1.0
 10
307.1251493200684
 20
-35.76645002234386
 30
0.0
 41
1.0
 10
308.5926803607683
 20
-34.54421852564383
 30
0.0
 41
1.0
 10
310.1654684395685
 20
-33.24663720984381
 30
0.0
 41
1.0
 10
311.8257501240685
 20
-31.89433648134377
 30
0.0
 41
1.0
 10
314.1713129802683
 20
-30.01980240074386
 30
0.0
 41
1.0
 10
316.6134923401685
 20
-28.14064133464376
 30
0.0
 41
1.0
 10
319.1921521820684
 20
-26.34622178964378
 30
0.0
 41
1.0
 10
320.9019670575685
 20
-25.29935840164376
 30
0.0
 41
1.0
 10
322.3487868091684
 20
-24.57890594504374
 30
0.0
 41
1.0
 10
323.4846540477683
 20
-24.13052428034371
 30
0.0
 41
1.0
 10
324.6719653939683
 20
-23.82255044074373
 30
0.0
 41
1.0
 10
325.8975702019684
 20
-23.71056387434373
 30
0.0
 41
1.0
 10
327.1231753919685
 20
-23.82254907014385
 30
0.0
 41
1.0
 10
328.3104870347684
 20
-24.1305213299438
 30
0.0
 41
1.0
 10
329.4463543265683
 20
-24.57890281034383
 30
0.0
 41
1.0
 10
330.8931749426683
 20
-25.29935306464381
 30
0.0
 41
1.0
 10
332.6029891446685
 20
-26.34621751874374
 30
0.0
 41
1.0
 10
335.1816495819685
 20
-28.14063653114385
 30
0.0
 41
1.0
 10
337.6238302155684
 20
-30.01979642714377
 30
0.0
 41
1.0
 10
339.9693931956683
 20
-31.89433113444375
 30
0.0
 41
1.0
 10
341.6296752218684
 20
-33.24663212284372
 30
0.0
 41
1.0
 10
343.2024635679684
 20
-34.54421383764384
 30
0.0
 41
1.0
 10
344.6699951434684
 20
-35.76644582624385
 30
0.0
 41
1.0
 10
346.0084335388685
 20
-36.88890386754383
 30
0.0
 41
1.0
 10
347.0297676814685
 20
-37.7498337473437
 30
0.0
 41
1.0
 10
347.7588551735685
 20
-38.36623501334384
 30
0.0
 41
1.0
 10
348.2283270149685
 20
-38.76377092824373
 30
0.0
 41
1.0
 10
348.6382666085685
 20
-39.11139483324382
 30
0.0
 41
1.0
 10
348.9832416658685
 20
-39.4041466014437
 30
0.0
 41
1.0
 10
349.2275891812685
 20
-39.61192283914374
 30
0.0
 41
1.0
 10
349.3868539255684
 20
-39.74700965774377
 30
0.0
 41
1.0
 10
349.4774425691685
 20
-39.82464802344384
 30
0.0
 41
1.0
 10
349.5491016215685
 20
-39.88398033724366
 30
0.0
 41
1.0
 10
349.5988577532685
 20
-39.92996025504385
 30
0.0
 41
1.0
 10
349.6318418503683
 20
-39.95157071734366
 30
0.0
 41
1.0
 10
349.6431847887684
 20
-39.96790987314375
 30
0.0
 41
1.0
 10
349.6475747963684
 20
-39.9688930068437
 30
0.0
 41
1.0
  0
SPLINE
  5
2AD
330
1F
100
AcDbEntity
  8
0
100
AcDbSpline
210
0.0
220
0.0
230
1.0
 70
    12
 71
     3
 72
    12
 73
     8
 74
     0
 42
0.000000001
 43
0.1
 12
1.0
 22
0.0
 32
0.0
 13
1.0
 23
0.0
 33
0.0
 40
0.0
 40
0.0
 40
0.0
 40
0.0
 40
1059.953239024799
 40
2119.533009971422
 40
3178.070240941111
 40
3707.854598915328
 40
4237.579802394293
 40
4237.579802394293
 40
4237.579802394293
 40
4237.579802394293
 10
312.8975748408684
 20
6.031106933056208
 30
0.0
 41
1.0
 10
313.8437992441684
 20
5.27056138025614
 30
0.0
 41
1.0
 10
315.7828715897683
 20
3.805546425256125
 30
0.0
 41
1.0
 10
318.8849518199684
 20
1.888737020656208
 30
0.0
 41
1.0
 10
321.7001678593683
 20
0.7002203713561812
 30
0.0
 41
1.0
 10
324.0755621021685
 20
0.176521568156204
 30
0.0
 41
1.0
 10
325.2908680988685
 20
0.0848965765562752
 30
0.0
 41
1.0
 10
325.8975747963684
 20
0.0850823084563217
 30
0.0
 41
1.0
  0
SPLINE
  5
2AE
330
1F
100
AcDbEntity
  8
0
100
AcDbSpline
210
0.0
220
0.0
230
1.0
 70
    12
 71
     3
 72
    22
 73
    18
 74
     0
 42
0.000000001
 43
0.1
 12
1.0
 22
0.0
 32
0.0
 13
1.0
 23
0.0
 33
0.0
 40
0.0
 40
0.0
 40
0.0
 40
0.0
 40
2212.13866462758
 40
4365.95322042175
 40
6409.37834603382
 40
8289.808532997271
 40
9148.884813196844
 40
9940.04559918524
 40
10650.52489737744
 40
11265.62417041158
 40
11769.11665542879
 40
11973.798050286
 40
12144.4444482008
 40
12279.2596375764
 40
12376.72815724284
 40
12435.69450428776
 40
12455.43232647406
 40
12455.43232647406
 40
12455.43232647406
 40
12455.43232647406
 10
325.8975747963684
 20
-2.186833036243797
 30
0.0
 41
1.0
 10
326.9051340772685
 20
-2.186812743743758
 30
0.0
 41
1.0
 10
328.8963741904684
 20
-2.042476912043867
 30
0.0
 41
1.0
 10
331.7608147038684
 20
-1.445724348543763
 30
0.0
 41
1.0
 10
334.3995150298683
 20
-0.596121828343712
 30
0.0
 41
1.0
 10
336.4160870859685
 20
0.232284763456164
 30
0.0
 41
1.0
 10
337.8760546934684
 20
0.9067249610561703
 30
0.0
 41
1.0
 10
338.8415179042684
 20
1.380217370456194
 30
0.0
 41
1.0
 10
339.6989486863683
 20
1.821132904656224
 30
0.0
 41
1.0
 10
340.4338900644684
 20
2.213465133856289
 30
0.0
 41
1.0
 10
340.9622442338684
 20
2.503512997456255
 30
0.0
 41
1.0
 10
341.3116229479683
 20
2.698810967856161
 30
0.0
 41
1.0
 10
341.5142813879684
 20
2.812544012156195
 30
0.0
 41
1.0
 10
341.6733695170685
 20
2.903856827456138
 30
0.0
 41
1.0
 10
341.7898855057683
 20
2.967746574956209
 30
0.0
 41
1.0
 10
341.8572953570683
 20
3.010770337856229
 30
0.0
 41
1.0
 10
341.8907365552684
 20
3.025270852556332
 30
0.0
 41
1.0
 10
341.8975746730684
 20
3.031106898256212
 30
0.0
 41
1.0
  0
SPLINE
  5
2AF
330
1F
100
AcDbEntity
  8
0
100
AcDbSpline
210
0.0
220
0.0
230
1.0
 70
    12
 71
     3
 72
    27
 73
    23
 74
     0
 42
0.000000001
 43
0.1
 12
1.0
 22
0.0
 32
0.0
 13
1.0
 23
0.0
 33
0.0
 40
0.0
 40
0.0
 40
0.0
 40
0.0
 40
2981.384051764443
 40
5855.04487822786
 40
8548.093101082335
 40
9808.673750117428
 40
11000.24039302845
 40
12112.06674182352
 40
13131.11487887134
 40
14041.90251983679
 40
14826.71263694514
 40
15165.86506633632
 40
15466.22113319533
 40
15725.36815856874
 40
15941.02653702835
 40
16111.13432880404
 40
16178.55093323415
 40
16233.96564989694
 40
16277.22326581784
 40
16308.21092452093
 40
16326.83481549998
 40
16333.05004573363
 40
16333.05004573363
 40
16333.05004573363
 40
16333.05004573363
 10
325.8975747963684
 20
0.0850823084563217
 30
0.0
 41
1.0
 10
326.7836658006684
 20
0.0851003963562107
 30
0.0
 41
1.0
 10
328.5287789633685
 20
0.2792378114561416
 30
0.0
 41
1.0
 10
330.9631106499685
 20
1.042995771356345
 30
0.0
 41
1.0
 10
332.8012308400685
 20
1.913264263756218
 30
0.0
 41
1.0
 10
334.1331209114685
 20
2.66510637845613
 30
0.0
 41
1.0
 10
335.0350785878684
 20
3.220974777656238
 30
0.0
 41
1.0
 10
335.8592043880685
 20
3.765148246256331
 30
0.0
 41
1.0
 10
336.6007605458685
 20
4.282320104756309
 30
0.0
 41
1.0
 10
337.2529842115684
 20
4.75731997175626
 30
0.0
 41
1.0
 10
337.7360008432684
 20
5.121236795856248
 30
0.0
 41
1.0
 10
338.0715718116685
 20
5.379294880356156
 30
0.0
 41
1.0
 10
338.2824017822684
 20
5.543260688456257
 30
0.0
 41
1.0
 10
338.4636358626685
 20
5.685518942356339
 30
0.0
 41
1.0
 10
338.6138888128685
 20
5.804467165056167
 30
0.0
 41
1.0
 10
338.7194047825685
 20
5.888317185056167
 30
0.0
 41
1.0
 10
338.7872014136685
 20
5.942730248656289
 30
0.0
 41
1.0
 10
338.8261991903685
 20
5.973449377256202
 30
0.0
 41
1.0
 10
338.8550600116685
 20
5.997901112856198
 30
0.0
 41
1.0
 10
338.8793175983685
 20
6.014396616456224
 30
0.0
 41
1.0
 10
338.8874468419685
 20
6.026166127656325
 30
0.0
 41
1.0
 10
338.8981820243685
 20
6.02936235635616
 30
0.0
 41
1.0
 10
338.8975747101683
 20
6.031106883556276
 30
0.0
 41
1.0
  0
SPLINE
  5
2B0
330
1F
100
AcDbEntity
  8
0
100
AcDbSpline
210
0.0
220
0.0
230
1.0
 70
    12
 71
     3
 72
    11
 73
     7
 74
     0
 42
0.000000001
 43
0.1
 12
1.0
 22
0.0
 32
0.0
 13
1.0
 23
0.0
 33
0.0
 40
0.0
 40
0.0
 40
0.0
 40
0.0
 40
867.9743662978508
 40
1735.746111949263
 40
2603.088737475943
 40
3469.953477886691
 40
3469.953477886691
 40
3469.953477886691
 40
3469.953477886691
 10
309.8975748635685
 20
3.031106944156136
 30
0.0
 41
1.0
 10
311.1282151953685
 20
2.325834938756316
 30
0.0
 41
1.0
 10
313.6299163575684
 20
0.9839146476563201
 30
0.0
 41
1.0
 10
317.5412888490685
 20
-0.707122626843784
 30
0.0
 41
1.0
 10
321.6404942052684
 20
-1.893236152343661
 30
0.0
 41
1.0
 10
324.4809790710685
 20
-2.187046489943668
 30
0.0
 41
1.0
 10
325.8975747963684
 20
-2.186833036243797
 30
0.0
 41
1.0
  0
SPLINE
  5
2B1
330
1F
100
AcDbEntity
  8
0
100
AcDbSpline
210
0.0
220
0.0
230
1.0
 70
    12
 71
     3
 72
    57
 73
    53
 74
     0
 42
0.000000001
 43
0.1
 12
1.0
 22
0.0
 32
0.0
 13
1.0
 23
0.0
 33
0.0
 40
0.0
 40
0.0
 40
0.0
 40
0.0
 40
9.201359449006077
 40
36.74895336387206
 40
82.517158887304
 40
146.2732809136356
 40
227.718241152109
 40
326.4639248247399
 40
574.0404399819982
 40
884.8631204436633
 40
1254.221141239198
 40
1677.136592069875
 40
2148.641927970703
 40
3218.564668074886
 40
4429.456851996163
 40
5752.612462235134
 40
7165.060362622485
 40
8648.589369699544
 40
10188.80289164572
 40
11774.2564054086
 40
13395.77666303219
 40
15045.92170080731
 40
16718.48269589276
 40
17561.92396378074
 40
18409.22486444269
 40
19259.50519722767
 40
20111.23839825795
 40
20962.97058970392
 40
21813.25146147016
 40
22660.55121176911
 40
23503.99289394867
 40
25176.55414243575
 40
26826.69950601298
 40
28448.21980385905
 40
30033.67349862311
 40
31573.887080903
 40
33057.41653042737
 40
34469.86471237209
 40
35793.02073690264
 40
37003.91394247497
 40
38073.83738245035
 40
38545.34314873174
 40
38968.25917072167
 40
39337.61780289894
 40
39648.44101831962
 40
39896.01793167945
 40
39994.76373601953
 40
40076.20895770414
 40
40139.96515213094
 40
40185.73348636632
 40
40213.28110441467
 40
40222.48248397492
 40
40222.48248397492
 40
40222.48248397492
 40
40222.48248397492
 10
305.1475747963684
 20
-42.9688930068437
 30
0.0
 41
1.0
 10
305.1492264230685
 20
-42.9649211503438
 30
0.0
 41
1.0
 10
305.1637145500683
 20
-42.95404750394368
 30
0.0
 41
1.0
 10
305.1866637445685
 20
-42.92357379024384
 30
0.0
 41
1.0
 10
305.2312026999684
 20
-42.87701005034387
 30
0.0
 41
1.0
 10
305.2902650353685
 20
-42.81024879684378
 30
0.0
 41
1.0
 10
305.3669130211683
 20
-42.72572853734368
 30
0.0
 41
1.0
 10
305.5007235404685
 20
-42.57714973444376
 30
0.0
 41
1.0
 10
305.7066234568683
 20
-42.34912814354379
 30
0.0
 41
1.0
 10
305.9972923355683
 20
-42.02722988964365
 30
0.0
 41
1.0
 10
306.3431482295684
 20
-41.6447091175437
 30
0.0
 41
1.0
 10
306.7396444500685
 20
-41.20670957354378
 30
0.0
 41
1.0
 10
307.3564624270684
 20
-40.52638461934384
 30
0.0
 41
1.0
 10
308.2220475304684
 20
-39.57436750364377
 30
0.0
 41
1.0
 10
309.3585098820683
 20
-38.33053625664365
 30
0.0
 41
1.0
 10
310.6074453562685
 20
-36.97257838304381
 30
0.0
 41
1.0
 10
311.9490847419684
 20
-35.52673624724366
 30
0.0
 41
1.0
 10
313.3689725486684
 20
-34.01511642854371
 30
0.0
 41
1.0
 10
314.8576411385684
 20
-32.45721045064374
 30
0.0
 41
1.0
 10
316.4108809359684
 20
-30.87199867094387
 30
0.0
 41
1.0
 10
318.0310387440684
 20
-29.28064732024382
 30
0.0
 41
1.0
 10
319.7308364077685
 20
-27.71397936554376
 30
0.0
 41
1.0
 10
321.2368796486685
 20
-26.47458817174379
 30
0.0
 41
1.0
 10
322.5366911079684
 20
-25.58736572504381
 30
0.0
 41
1.0
 10
323.5787488078684
 20
-25.01175322984386
 30
0.0
 41
1.0
 10
324.7013222031685
 20
-24.59225281004387
 30
0.0
 41
1.0
 10
325.8975704190684
 20
-24.43061829724365
 30
0.0
 41
1.0
 10
327.0938188752684
 20
-24.59225173344385
 30
0.0
 41
1.0
 10
328.2163926039684
 20
-25.01174886004378
 30
0.0
 41
1.0
 10
329.2584516857685
 20
-25.5873589279438
 30
0.0
 41
1.0
 10
330.5582621528683
 20
-26.47458244454378
 30
0.0
 41
1.0
 10
332.0643078832684
 20
-27.71397131444382
 30
0.0
 41
1.0
 10
333.7641022439684
 20
-29.28064335624367
 30
0.0
 41
1.0
 10
335.3842635985684
 20
-30.87199136714366
 30
0.0
 41
1.0
 10
336.9375027147685
 20
-32.45720405414386
 30
0.0
 41
1.0
 10
338.4261715191685
 20
-34.01511024874367
 30
0.0
 41
1.0
 10
339.8460595371685
 20
-35.52673037844374
 30
0.0
 41
1.0
 10
341.1876992188684
 20
-36.97257296644375
 30
0.0
 41
1.0
 10
342.4366352275683
 20
-38.33053143794382
 30
0.0
 41
1.0
 10
343.5730983182684
 20
-39.57436336084379
 30
0.0
 41
1.0
 10
344.4386840908685
 20
-40.52638122664371
 30
0.0
 41
1.0
 10
345.0555026062684
 20
-41.20670676764371
 30
0.0
 41
1.0
 10
345.4519993405684
 20
-41.64470686374375
 30
0.0
 41
1.0
 10
345.7978557685685
 20
-42.02722823274371
 30
0.0
 41
1.0
 10
346.0885251396685
 20
-42.34912702714382
 30
0.0
 41
1.0
 10
346.2944253359685
 20
-42.5771489999438
 30
0.0
 41
1.0
 10
346.4282362059685
 20
-42.72572802714376
 30
0.0
 41
1.0
 10
346.5048840953684
 20
-42.81024855484384
 30
0.0
 41
1.0
 10
346.5639471379684
 20
-42.87700973774372
 30
0.0
 41
1.0
 10
346.6084848831683
 20
-42.92357408084376
 30
0.0
 41
1.0
 10
346.6314364065684
 20
-42.95404691344379
 30
0.0
 41
1.0
 10
346.6459221905684
 20
-42.96492154794373
 30
0.0
 41
1.0
 10
346.6475747963684
 20
-42.9688930068437
 30
0.0
 41
1.0
  0
SPLINE
  5
2B2
330
1F
100
AcDbEntity
  8
0
100
AcDbSpline
210
0.0
220
0.0
230
1.0
 70
    12
 71
     3
 72
     9
 73
     5
 74
     0
 42
0.000000001
 43
0.1
 12
1.0
 22
0.0
 32
0.0
 13
1.0
 23
0.0
 33
0.0
 40
0.0
 40
0.0
 40
0.0
 40
0.0
 40
698.7159524393601
 40
1272.727778553347
 40
1272.727778553347
 40
1272.727778553347
 40
1272.727778553347
 10
-26.46342389514143
 20
189.4610209571563
 30
0.0
 41
1.0
 10
-26.46437826094143
 20
189.4245751986561
 30
0.0
 41
1.0
 10
-26.48683290304143
 20
189.3557288140562
 30
0.0
 41
1.0
 10
-26.54617715444147
 20
189.3167899635561
 30
0.0
 41
1.0
 10
-26.57480869424148
 20
189.3079969706561
 30
0.0
 41
1.0
  0
SPLINE
  5
2B3
330
1F
100
AcDbEntity
  8
0
100
AcDbSpline
210
0.0
220
0.0
230
1.0
 70
    12
 71
     3
 72
     8
 73
     4
 74
     0
 42
0.000000001
 43
0.1
 12
1.0
 22
0.0
 32
0.0
 13
1.0
 23
0.0
 33
0.0
 40
0.0
 40
0.0
 40
0.0
 40
0.0
 40
697.1136581942753
 40
697.1136581942753
 40
697.1136581942753
 40
697.1136581942753
 10
-26.57480869424148
 20
189.3079969706561
 30
0.0
 41
1.0
 10
-26.59274875754159
 20
189.3024874224563
 30
0.0
 41
1.0
 10
-26.61184958814147
 20
189.3000963680563
 30
0.0
 41
1.0
 10
-26.63061171384152
 20
189.3005248936563
 30
0.0
 41
1.0
  0
SPLINE
  5
2B4
330
1F
100
AcDbEntity
  8
0
100
AcDbSpline
210
0.0
220
0.0
230
1.0
 70
    12
 71
     3
 72
     8
 73
     4
 74
     0
 42
0.000000001
 43
0.1
 12
1.0
 22
0.0
 32
0.0
 13
1.0
 23
0.0
 33
0.0
 40
0.0
 40
0.0
 40
0.0
 40
0.0
 40
697.1959916461115
 40
697.1959916461115
 40
697.1959916461115
 40
697.1959916461115
 10
-26.63061171384152
 20
189.3005248936563
 30
0.0
 41
1.0
 10
-26.64301720884146
 20
189.3008082341562
 30
0.0
 41
1.0
 10
-26.65544247534149
 20
189.3023160278562
 30
0.0
 41
1.0
 10
-26.66758082734145
 20
189.3048922652563
 30
0.0
 41
1.0
  0
LINE
  5
2B5
330
1F
100
AcDbEntity
  8
0
100
AcDbLine
 10
-15.22728881154148
 20
188.4842705930562
 30
0.0
 11
-15.14274496854159
 21
188.4931377824562
 31
0.0
  0
LINE
  5
2B6
330
1F
100
AcDbEntity
  8
0
100
AcDbLine
 10
-11.81246519224146
 20
188.4059330603563
 30
0.0
 11
-11.7284881741416
 21
188.3926512739563
 31
0.0
  0
SPLINE
  5
2B7
330
1F
100
AcDbEntity
  8
0
100
AcDbSpline
210
0.0
220
0.0
230
1.0
 70
    12
 71
     3
 72
     9
 73
     5
 74
     0
 42
0.000000001
 43
0.1
 12
1.0
 22
0.0
 32
0.0
 13
1.0
 23
0.0
 33
0.0
 40
0.0
 40
0.0
 40
0.0
 40
0.0
 40
421.8897995957468
 40
1252.293488858897
 40
1252.293488858897
 40
1252.293488858897
 40
1252.293488858897
 10
-23.06478180904151
 20
189.0646558781561
 30
0.0
 41
1.0
 10
-22.72280807054153
 20
189.0557009806562
 30
0.0
 41
1.0
 10
-21.70866584824148
 20
188.9878108480561
 30
0.0
 41
1.0
 10
-20.70597811314155
 20
188.7990663067562
 30
0.0
 41
1.0
 10
-20.05438285844139
 20
188.6293458854561
 30
0.0
 41
1.0
  0
LINE
  5
2B8
330
1F
100
AcDbEntity
  8
0
100
AcDbLine
 10
-20.05438285844139
 20
188.6293458854561
 30
0.0
 11
-19.97566110524144
 21
188.6086110974563
 31
0.0
  0
ELLIPSE
  5
2B9
330
1F
100
AcDbEntity
  8
0
100
AcDbEllipse
 10
391.1975747963684
 20
-18.46034250324374
 30
0.0
 11
-9.608576607099996
 21
21.4617974654
 31
0.0
210
0.0
220
0.0
230
1.0
 40
0.133330115
 41
1.906983664579587
 42
3.082132909279586
  0
LINE
  5
2BA
330
1F
100
AcDbEntity
  8
0
100
AcDbLine
 10
682.0306772060292
 20
182.9877734417562
 30
0.0
 11
681.8326805026056
 21
190.5489624908444
 31
0.0
  0
LINE
  5
2BB
330
1F
100
AcDbEntity
  8
0
100
AcDbLine
 10
696.0258797557292
 20
183.3542507180562
 30
0.0
 11
695.8278863524467
 21
190.9153137398425
 31
0.0
  0
LINE
  5
2BC
330
1F
100
AcDbEntity
  8
0
100
AcDbLine
 10
-88.64458843614148
 20
183.3542507180562
 30
0.0
 11
-88.44659173268928
 21
190.9154397682348
 31
0.0
  0
LINE
  5
2BD
330
1F
100
AcDbEntity
  8
0
100
AcDbLine
 10
-74.64938588644145
 20
182.9877734417562
 30
0.0
 11
-74.4513924830344
 21
190.5488364682915
 31
0.0
  0
LINE
  5
2BE
330
1F
100
AcDbEntity
  8
中心线层
100
AcDbLine
 10
98.86635259795844
 20
-93.85461901491378
 30
0.0
 11
98.86635259795844
 21
148.3114016268782
 31
0.0
  0
ARC
  5
2BF
330
1F
100
AcDbEntity
  8
中心线层
100
AcDbCircle
 10
38.86635259795844
 20
140.0516674946561
 30
0.0
 40
60.0
100
AcDbArc
 50
0.0000000000000271
 51
88.50000000000006
  0
LINE
  5
2C0
330
1F
100
AcDbEntity
  8
中心线层
100
AcDbLine
 10
40.43696949643078
 20
200.0311069931895
 30
0.0
 11
-141.0920830326681
 21
205.147388833951
 31
0.0
  0
LINE
  5
2C1
330
1F
100
AcDbEntity
  8
中心线层
100
AcDbLine
 10
325.8975747963684
 20
204.7350410637562
 30
0.0
 11
325.8975747963684
 21
-96.73431245090323
 31
0.0
  0
LINE
  5
2C2
330
1F
100
AcDbEntity
  8
中心线层
100
AcDbLine
 10
428.9979926019626
 20
-18.4688930068437
 30
0.0
 11
240.1511893611458
 21
-18.4688930068437
 31
0.0
  0
LINE
  5
2C3
330
1F
100
AcDbEntity
  8
中心线层
100
AcDbLine
 10
508.514938721629
 20
-96.75480117090315
 30
0.0
 11
508.514938721629
 21
157.3326922125759
 31
0.0
  0
ARC
  5
2C4
330
1F
100
AcDbEntity
  8
中心线层
100
AcDbCircle
 10
568.514938721629
 20
140.0516674946562
 30
0.0
 40
59.9999999999999
100
AcDbArc
 50
91.50000000000023
 51
179.9999999999999
  0
LINE
  5
2C5
330
1F
100
AcDbEntity
  8
中心线层
100
AcDbLine
 10
566.9443218231565
 20
200.0311069931896
 30
0.0
 11
748.4733743523047
 21
205.1473888339523
 31
0.0
  0
DIMENSION
  5
2CF
330
1F
100
AcDbEntity
  8
尺寸线层
100
AcDbDimension
280
     0
  2
*X3
 10
349.8975383076684
 20
-128.2508901485672
 30
0.0
 11
325.8975747963684
 21
-128.2508901485672
 31
0.0
 70
    32
 71
     5
 42
-1.0
 73
     0
 74
     0
 75
     0
  3
标准
100
AcDbAlignedDimension
 13
301.8976112850685
 23
-87.4688930068437
 33
0.0
 14
349.8975383076684
 24
-87.4688930068437
 34
0.0
 50
180.0
100
AcDbRotatedDimension
1001
CAXA_DRAFT_DIMARROWREVERSE
1070
     0
1001
ACAD
1000
DSTYLE
1002
{
1070
    69
1070
     1
1070
     3
1000
%%C<>
1070
   284
1070
     8
1070
   173
1070
     1
1002
}
1001
CAXA_DRAFT_DIMARCLENSTYLE
1070
     1
1001
CAXA_DRAFT_DDTSTY_2011R3
1070
     0
  0
DIMENSION
  5
2D9
330
1F
100
AcDbEntity
  8
尺寸线层
100
AcDbDimension
280
     0
  2
*X4
 10
417.1975747963684
 20
-160.5518476565158
 30
0.0
 11
330.3258025957117
 21
-160.5518476565158
 31
0.0
 70
   160
 71
     5
 42
-1.0
 73
     0
 74
     0
 75
     0
  3
标准
100
AcDbAlignedDimension
 13
251.4975747963683
 23
-39.4688930068437
 33
0.0
 14
417.1975747963684
 24
-39.46033497854387
 34
0.0
 50
180.0
100
AcDbRotatedDimension
1001
CAXA_DRAFT_DIMARROWREVERSE
1070
     0
1001
ACAD
1000
DSTYLE
1002
{
1070
    69
1070
     1
1070
   284
1070
     8
1070
   173
1070
     1
1002
}
1001
CAXA_DRAFT_DIMARCLENSTYLE
1070
     1
1001
CAXA_DRAFT_DDTSTY_2011R3
1070
     0
  0
DIMENSION
  5
2E3
330
1F
100
AcDbEntity
  8
尺寸线层
100
AcDbDimension
280
     0
  2
*X5
 10
192.1088503168468
 20
218.0435530386224
 30
0.0
 11
192.1088503168468
 21
65.28733001588907
 31
0.0
 70
    32
  1
305.5
 71
     5
 42
-1.0
 73
     0
 74
     0
 75
     0
  3
标准
100
AcDbAlignedDimension
 13
122.8663525979584
 23
-87.46889300684387
 33
0.0
 14
-139.3539051788226
 24
218.0435530386224
 34
0.0
 50
90.0
100
AcDbRotatedDimension
1001
CAXA_DRAFT_DIMARROWREVERSE
1070
     0
1001
ACAD
1000
DSTYLE
1002
{
1070
    69
1070
     1
1070
   284
1070
     8
1070
   173
1070
     1
1002
}
1001
CAXA_DRAFT_DIMARCLENSTYLE
1070
     1
1001
CAXA_DRAFT_DDTSTY_2011R3
1070
     0
  0
DIMENSION
  5
2ED
330
1F
100
AcDbEntity
  8
尺寸线层
100
AcDbDimension
280
     0
  2
*X6
 10
521.514938721629
 20
98.08865659097583
 30
0.0
 11
471.0959516456057
 21
98.08865659097583
 31
0.0
 70
   160
 71
     5
 42
-1.0
 73
     0
 74
     0
 75
     0
  3
标准
100
AcDbAlignedDimension
 13
495.514938721629
 23
98.46119901598814
 33
0.0
 14
521.514938721629
 24
95.85340204090235
 34
0.0
100
AcDbRotatedDimension
1001
CAXA_DRAFT_DIMARROWREVERSE
1070
     0
1001
ACAD
1000
DSTYLE
1002
{
1070
    69
1070
     1
1070
     3
1000
%%C<>
1070
   284
1070
     8
1070
   173
1070
     1
1002
}
1001
CAXA_DRAFT_DIMARCLENSTYLE
1070
     1
1001
CAXA_DRAFT_DDTSTY_2011R3
1070
     0
  0
LINE
  5
2EE
330
1F
100
AcDbEntity
  8
中心线层
100
AcDbLine
 10
689.1068093258084
 20
180.1720401049797
 30
0.0
 11
688.7517525825967
 21
193.73111009027
 31
0.0
  0
LINE
  5
2EF
330
1F
100
AcDbEntity
  8
中心线层
100
AcDbLine
 10
724.0882714628394
 20
181.3381476269292
 30
0.0
 11
723.7380006099183
 21
194.7144518388832
 31
0.0
  0
DIMENSION
  5
2F9
330
1F
100
AcDbEntity
  8
尺寸线层
100
AcDbDimension
280
     0
  2
*X7
 10
689.0335143844791
 20
237.4399587788669
 30
0.0
 11
598.774226553054
 21
237.4399587788669
 31
0.0
 70
    32
  1
180.5
 71
     5
 42
-1.0
 73
     0
 74
     0
 75
     0
  3
标准
100
AcDbAlignedDimension
 13
508.514938721629
 23
157.3326922125759
 33
0.0
 14
689.0335143844791
 24
182.9710609872062
 34
0.0
 50
-0.000000000000009
100
AcDbRotatedDimension
1001
CAXA_DRAFT_DIMARROWREVERSE
1070
     0
1001
ACAD
1000
DSTYLE
1002
{
1070
    69
1070
     1
1070
   284
1070
     8
1070
   173
1070
     1
1002
}
1001
CAXA_DRAFT_DIMARCLENSTYLE
1070
     1
1001
CAXA_DRAFT_DDTSTY_2011R3
1070
     0
  0
DIMENSION
  5
303
330
1F
100
AcDbEntity
  8
尺寸线层
100
AcDbDimension
280
     0
  2
*X8
 10
724.014976007579
 20
270.7607659332505
 30
0.0
 11
616.264957364604
 21
270.7607659332505
 31
0.0
 70
    32
 71
     5
 42
-1.0
 73
     0
 74
     0
 75
     0
  3
标准
100
AcDbAlignedDimension
 13
508.514938721629
 23
157.3326922125759
 33
0.0
 14
724.014976007579
 24
184.1371881368563
 34
0.0
100
AcDbRotatedDimension
1001
CAXA_DRAFT_DIMARROWREVERSE
1070
     0
1001
ACAD
1000
DSTYLE
1002
{
1070
    69
1070
     1
1070
   284
1070
     8
1070
   173
1070
     1
1002
}
1001
CAXA_DRAFT_DIMARCLENSTYLE
1070
     1
1001
CAXA_DRAFT_DDTSTY_2011R3
1070
     0
  0
DIMENSION
  5
30D
330
1F
100
AcDbEntity
  8
尺寸线层
100
AcDbDimension
280
     0
  2
*X9
 10
748.7786696817291
 20
-128.2508901485672
 30
0.0
 11
616.6468042016791
 21
-128.2508901485671
 31
0.0
 70
    32
  1
264.3
 71
     5
 42
-1.0
 73
     0
 74
     0
 75
     0
  3
标准
100
AcDbAlignedDimension
 13
484.514938721629
 23
-87.4688930068437
 33
0.0
 14
748.7786696817291
 24
193.4886305718562
 34
0.0
 50
-0.0000000000000123
100
AcDbRotatedDimension
1001
CAXA_DRAFT_DIMARROWREVERSE
1070
     0
1001
ACAD
1000
DSTYLE
1002
{
1070
    69
1070
     1
1070
   284
1070
     8
1070
   173
1070
     1
1002
}
1001
CAXA_DRAFT_DIMARCLENSTYLE
1070
     1
1001
CAXA_DRAFT_DDTSTY_2011R3
1070
     0
  0
DIMENSION
  5
317
330
1F
100
AcDbEntity
  8
尺寸线层
100
AcDbDimension
280
     0
  2
*X10
 10
231.0786921951996
 20
3.031106993156307
 30
0.0
 11
231.0786921951996
 21
-18.4688930068437
 31
0.0
 70
    32
 71
     5
 42
-1.0
 73
     0
 74
     0
 75
     0
  3
标准
100
AcDbAlignedDimension
 13
286.8975747963684
 23
-39.9688930068437
 33
0.0
 14
286.8975747963684
 24
3.0311069931563
 34
0.0
 50
270.0
100
AcDbRotatedDimension
1001
CAXA_DRAFT_DIMARROWREVERSE
1070
     0
1001
ACAD
1000
DSTYLE
1002
{
1070
    69
1070
     1
1070
     3
1000
%%C<>
1070
   284
1070
     8
1070
   173
1070
     1
1002
}
1001
CAXA_DRAFT_DIMARCLENSTYLE
1070
     1
1001
CAXA_DRAFT_DDTSTY_2011R3
1070
     0
  0
VIEWPORT
  5
31A
330
1B
100
AcDbEntity
 67
     1
  8
0
100
AcDbViewport
 10
0.0
 20
0.0
 30
0.0
 40
300.0
 41
220.0
 68
     1
 69
     1
 12
0.0
 22
0.0
 13
0.0
 23
0.0
 14
0.5
 24
0.5
 15
0.0
 25
0.0
 16
0.0
 26
0.0
 36
1.0
 17
0.0
 27
0.0
 37
0.0
 42
50.0
 43
0.0
 44
0.0
 45
1.0
 50
0.0
 51
0.0
 72
   100
 90
   557152
  1

281
     0
 71
     1
 74
     0
110
0.0
120
0.0
130
0.0
111
1.0
121
0.0
131
0.0
112
0.0
122
1.0
132
0.0
 79
     0
146
0.0
170
     0
 61
     5
292
     1
282
     1
141
0.0
142
0.0
 63
   256
  0
ENDSEC
  0
SECTION
  2
OBJECTS
  0
DICTIONARY
  5
C
330
0
100
AcDbDictionary
281
     1
  3
ACAD_GROUP
350
D
  3
ACAD_LAYOUT
350
1A
  3
ACAD_MATERIAL
350
3B
  3
ACAD_MLEADERSTYLE
350
326
  3
ACAD_MLINESTYLE
350
17
  3
ACAD_PLOTSETTINGS
350
19
  3
ACAD_PLOTSTYLENAME
350
E
  3
ACAD_TABLESTYLE
350
325
  3
ACAD_VISUALSTYLE
350
2A
  3
CAXA_DRAFT_BOMSTYLE
350
B9
  3
CAXA_DRAFT_CUTSSTYLE
350
AF
  3
CAXA_DRAFT_CUTSSTYLEOVERRIDE
350
B2
  3
CAXA_DRAFT_DATATABLE*Model_Space
350
BC
  3
CAXA_DRAFT_DATATABLE*Paper_Space
350
318
  3
CAXA_DRAFT_DATUMSTYLE
350
AA
  3
CAXA_DRAFT_DATUMSTYLEOVERRIDE
350
AD
  3
CAXA_DRAFT_DIMSTYLE_ANGTXTVPOS
350
31B
  3
CAXA_DRAFT_DIMSTYLE_ISDISPZEROTOL
350
31F
  3
CAXA_DRAFT_DIMSTYLE_ISFILLDFM
350
31D
  3
CAXA_DRAFT_DIMSTYLE_SYMBOLCOLOR
350
321
  3
CAXA_DRAFT_DRAFTDATA
350
323
  3
CAXA_DRAFT_FILEVERSION
350
84
  3
CAXA_DRAFT_GEOTOLSTYLE
350
A5
  3
CAXA_DRAFT_GEOTOLSTYLEOVERRIDE
350
A8
  3
CAXA_DRAFT_LEADERSTYLE
350
98
  3
CAXA_DRAFT_PARTNOSTYLE
350
B4
  3
CAXA_DRAFT_PARTNOSTYLEOVERRIDE
350
B7
  3
CAXA_DRAFT_ROUGHSTYLE
350
A0
  3
CAXA_DRAFT_ROUGHSTYLEOVERRIDE
350
A3
  3
CAXA_DRAFT_WELDSTYLE
350
9B
  3
CAXA_DRAFT_WELDSTYLEOVERRIDE
350
9E
  0
DICTIONARY
  5
D
102
{ACAD_REACTORS
330
C
102
}
330
C
100
AcDbDictionary
281
     1
  0
DICTIONARY
  5
1A
102
{ACAD_REACTORS
330
C
102
}
330
C
100
AcDbDictionary
281
     1
  3
Layout1
350
1E
  3
Model
350
22
  0
DICTIONARY
  5
3B
102
{ACAD_REACTORS
330
C
102
}
330
C
100
AcDbDictionary
281
     1
  3
ByBlock
350
3D
  3
ByLayer
350
3C
  3
Global
350
3E
  0
DICTIONARY
  5
326
102
{ACAD_REACTORS
330
C
102
}
330
C
100
AcDbDictionary
281
     1
  0
DICTIONARY
  5
17
102
{ACAD_REACTORS
330
C
102
}
330
C
100
AcDbDictionary
281
     1
  3
Standard
350
18
  0
DICTIONARY
  5
19
102
{ACAD_REACTORS
330
C
102
}
330
C
100
AcDbDictionary
281
     1
  0
ACDBDICTIONARYWDFLT
  5
E
102
{ACAD_REACTORS
330
C
102
}
330
C
100
AcDbDictionary
281
     1
  3
Normal
350
F
100
AcDbDictionaryWithDefault
340
F
  0
DICTIONARY
  5
325
102
{ACAD_REACTORS
330
C
102
}
330
C
100
AcDbDictionary
281
     1
  0
DICTIONARY
  5
2A
102
{ACAD_REACTORS
330
C
102
}
330
C
100
AcDbDictionary
281
     1
  3
2dWireframe
350
2F
  3
3D Hidden
350
31
  3
3dWireframe
350
30
  3
Basic
350
32
  3
Brighten
350
36
  3
ColorChange
350
3A
  3
Conceptual
350
34
  3
Dim
350
35
  3
Facepattern
350
39
  3
Flat
350
2B
  3
FlatWithEdges
350
2C
  3
Gouraud
350
2D
  3
GouraudWithEdges
350
2E
  3
Linepattern
350
38
  3
Realistic
350
33
  3
Thicken
350
37
  0
DICTIONARY
  5
B9
102
{ACAD_REACTORS
330
C
102
}
330
C
100
AcDbDictionary
281
     1
  3
CAXA_DRAFT_CURRENTBOMSTYLE
350
BA
  3
标准
350
BB
  0
DICTIONARY
  5
AF
102
{ACAD_REACTORS
330
C
102
}
330
C
100
AcDbDictionary
281
     1
  3
CAXA_DRAFT_CURRENTCUTSSTYLE
350
B0
  3
标准
350
B1
  0
DICTIONARY
  5
B2
102
{ACAD_REACTORS
330
C
102
}
330
C
100
AcDbDictionary
281
     1
  3
CAXA_DRAFT_CUTSSTYLEOVERRIDE
350
B3
  0
DICTIONARY
  5
BC
102
{ACAD_REACTORS
330
C
102
}
330
C
100
AcDbDictionary
281
     1
  3
CAXA_DRAFT_DATATABLE*Model_Space
350
BD
  0
DICTIONARY
  5
318
102
{ACAD_REACTORS
330
C
102
}
330
C
100
AcDbDictionary
281
     1
  3
CAXA_DRAFT_DATATABLE*Paper_Space
350
319
  0
DICTIONARY
  5
AA
102
{ACAD_REACTORS
330
C
102
}
330
C
100
AcDbDictionary
281
     1
  3
CAXA_DRAFT_CURRENTDATUMSTYLE
350
AB
  3
标准
350
AC
  0
DICTIONARY
  5
AD
102
{ACAD_REACTORS
330
C
102
}
330
C
100
AcDbDictionary
281
     1
  3
CAXA_DRAFT_DATUMSTYLEOVERRIDE
350
AE
  0
DICTIONARY
  5
31B
102
{ACAD_REACTORS
330
C
102
}
330
C
100
AcDbDictionary
281
     1
  3
CAXA_DRAFT_DIMSTYLE_ANGTXTVPOS
350
31C
  0
DICTIONARY
  5
31F
102
{ACAD_REACTORS
330
C
102
}
330
C
100
AcDbDictionary
281
     1
  3
CAXA_DRAFT_DIMSTYLE_ISDISPZEROTOL
350
320
  0
DICTIONARY
  5
31D
102
{ACAD_REACTORS
330
C
102
}
330
C
100
AcDbDictionary
281
     1
  3
CAXA_DRAFT_DIMSTYLE_ISFILLDFM
350
31E
  0
DICTIONARY
  5
321
102
{ACAD_REACTORS
330
C
102
}
330
C
100
AcDbDictionary
281
     1
  3
CAXA_DRAFT_DIMSTYLE_SYMBOLCOLOR
350
322
  0
DICTIONARY
  5
323
102
{ACAD_REACTORS
330
C
102
}
330
C
100
AcDbDictionary
281
     1
  3
CAXA_DRAFT_DRAFTDATA
350
324
  0
DICTIONARY
  5
84
102
{ACAD_REACTORS
330
C
102
}
330
C
100
AcDbDictionary
281
     1
  3
CAXA_DRAFT_FILEVERSION
350
85
  0
DICTIONARY
  5
A5
102
{ACAD_REACTORS
330
C
102
}
330
C
100
AcDbDictionary
281
     1
  3
CAXA_DRAFT_CURRENTGEOTOLSTYLE
350
A6
  3
标准
350
A7
  0
DICTIONARY
  5
A8
102
{ACAD_REACTORS
330
C
102
}
330
C
100
AcDbDictionary
281
     1
  3
CAXA_DRAFT_GEOTOLSTYLEOVERRIDE
350
A9
  0
DICTIONARY
  5
98
102
{ACAD_REACTORS
330
C
102
}
330
C
100
AcDbDictionary
281
     1
  3
CAXA_DRAFT_CURRENTLEADERSTYLE
350
99
  3
标准
350
9A
  0
DICTIONARY
  5
B4
102
{ACAD_REACTORS
330
C
102
}
330
C
100
AcDbDictionary
281
     1
  3
CAXA_DRAFT_CURRENTPARTNOSTYLE
350
B5
  3
标准
350
B6
  0
DICTIONARY
  5
B7
102
{ACAD_REACTORS
330
C
102
}
330
C
100
AcDbDictionary
281
     1
  3
CAXA_DRAFT_PARTNOSTYLEOVERRIDE
350
B8
  0
DICTIONARY
  5
A0
102
{ACAD_REACTORS
330
C
102
}
330
C
100
AcDbDictionary
281
     1
  3
CAXA_DRAFT_CURRENTROUGHSTYLE
350
A1
  3
标准
350
A2
  0
DICTIONARY
  5
A3
102
{ACAD_REACTORS
330
C
102
}
330
C
100
AcDbDictionary
281
     1
  3
CAXA_DRAFT_ROUGHSTYLEOVERRIDE
350
A4
  0
DICTIONARY
  5
9B
102
{ACAD_REACTORS
330
C
102
}
330
C
100
AcDbDictionary
281
     1
  3
CAXA_DRAFT_CURRENTWELDSTYLE
350
9C
  3
标准
350
9D
  0
DICTIONARY
  5
9E
102
{ACAD_REACTORS
330
C
102
}
330
C
100
AcDbDictionary
281
     1
  3
CAXA_DRAFT_WELDSTYLEOVERRIDE
350
9F
  0
LAYOUT
  5
1E
102
{ACAD_REACTORS
330
1A
102
}
330
1A
100
AcDbPlotSettings
  1

  2
none_device
  4
ISO_A3_(420.00_x_297.00_MM)
  6

 40
7.5
 41
20.0
 42
7.5
 43
20.0
 44
420.0
 45
297.0
 46
0.0
 47
0.0
 48
0.0
 49
0.0
140
0.0
141
0.0
142
1.0
143
1.0
 70
   672
 72
     1
 73
     1
 74
     5
  7

 75
    16
 76
     0
 77
     2
 78
   300
147
1.0
148
0.0
149
0.0
100
AcDbLayout
  1
Layout1
 70
     1
 71
     1
 10
0.0
 20
0.0
 11
420.0
 21
297.0
 12
0.0
 22
0.0
 32
0.0
 14
1.000000000000000E+20
 24
1.000000000000000E+20
 34
1.000000000000000E+20
 15
-1.000000000000000E+20
 25
-1.000000000000000E+20
 35
-1.000000000000000E+20
146
0.0
 13
0.0
 23
0.0
 33
0.0
 16
1.0
 26
0.0
 36
0.0
 17
0.0
 27
1.0
 37
0.0
 76
     0
330
1B
331
31A
  0
LAYOUT
  5
22
102
{ACAD_REACTORS
330
1A
102
}
330
1A
100
AcDbPlotSettings
  1

  2
none_device
  4

  6

 40
0.0
 41
0.0
 42
0.0
 43
0.0
 44
0.0
 45
0.0
 46
0.0
 47
0.0
 48
0.0
 49
0.0
140
0.0
141
0.0
142
1.0
143
1.0
 70
  1712
 72
     0
 73
     0
 74
     0
  7

 75
     0
 76
     0
 77
     2
 78
   300
147
1.0
148
0.0
149
0.0
100
AcDbLayout
  1
Model
 70
     1
 71
     0
 10
-148.5
 20
-105.0
 11
148.5
 21
105.0
 12
0.0
 22
0.0
 32
0.0
 14
-244.051257030454
 24
-176.7058895903847
 34
0.0
 15
851.4325483500413
 25
292.5398078671194
 35
0.0
146
0.0
 13
0.0
 23
0.0
 33
0.0
 16
1.0
 26
0.0
 36
0.0
 17
0.0
 27
1.0
 37
0.0
 76
     0
330
1F
331
29
  0
MATERIAL
  5
3D
102
{ACAD_REACTORS
330
3B
102
}
330
3B
100
AcDbMaterial
  1
ByBlock
 72
     1
 94
      127
  0
MATERIAL
  5
3C
102
{ACAD_REACTORS
330
3B
102
}
330
3B
100
AcDbMaterial
  1
ByLayer
 72
     1
 94
      127
  0
MATERIAL
  5
3E
102
{ACAD_REACTORS
330
3B
102
}
330
3B
100
AcDbMaterial
  1
Global
 72
     1
 94
      127
  0
MLINESTYLE
  5
18
102
{ACAD_REACTORS
330
17
102
}
330
17
100
AcDbMlineStyle
  2
Standard
 70
     0
  3

 62
   256
 51
90.0
 52
90.0
 71
     2
 49
0.5
 62
   256
  6
BYLAYER
 49
-0.5
 62
   256
  6
BYLAYER
  0
ACDBPLACEHOLDER
  5
F
102
{ACAD_REACTORS
330
E
102
}
330
E
  0
VISUALSTYLE
  5
2F
102
{ACAD_REACTORS
330
2A
102
}
330
2A
100
AcDbVisualStyle
  2
2dWireframe
 70
     4
177
     2
291
     0
 71
     0
176
     1
 72
     2
176
     1
 73
     0
176
     1
 90
        0
176
     1
 40
-0.6
176
     1
 41
-30.0
176
     1
 62
     5
 63
     7
421
 16777215
176
     1
 74
     1
176
     1
 91
        4
176
     1
 64
     7
176
     1
 65
   257
176
     1
 75
     1
176
     1
175
     1
176
     1
 42
1.0
176
     1
 92
        0
176
     1
 66
   257
176
     1
 43
1.0
176
     1
 76
     1
176
     1
 77
     6
176
     1
 78
     2
176
     1
 67
     7
176
     1
 79
     5
176
     1
170
     0
176
     1
171
     0
176
     1
290
     0
176
     1
 93
        1
176
     1
 44
0.0
176
     1
173
     0
176
     1
  0
VISUALSTYLE
  5
31
102
{ACAD_REACTORS
330
2A
102
}
330
2A
100
AcDbVisualStyle
  2
3D Hidden
 70
     6
177
     2
291
     0
 71
     1
176
     1
 72
     2
176
     1
 73
     2
176
     1
 90
        0
176
     1
 40
-0.6
176
     1
 41
-30.0
176
     1
 62
     5
 63
     7
421
 16777215
176
     1
 74
     2
176
     1
 91
        2
176
     1
 64
     7
176
     1
 65
   257
176
     1
 75
     2
176
     1
175
     1
176
     1
 42
40.0
176
     1
 92
        0
176
     1
 66
   257
176
     1
 43
1.0
176
     1
 76
     1
176
     1
 77
     6
176
     1
 78
     2
176
     1
 67
     7
176
     1
 79
     3
176
     1
170
     0
176
     1
171
     0
176
     1
290
     0
176
     1
 93
        1
176
     1
 44
0.0
176
     1
173
     0
176
     1
  0
VISUALSTYLE
  5
30
102
{ACAD_REACTORS
330
2A
102
}
330
2A
100
AcDbVisualStyle
  2
3dWireframe
 70
     5
177
     2
291
     0
 71
     0
176
     1
 72
     2
176
     1
 73
     0
176
     1
 90
        0
176
     1
 40
-0.6
176
     1
 41
-30.0
176
     1
 62
     5
 63
     7
421
 16777215
176
     1
 74
     1
176
     1
 91
        4
176
     1
 64
     7
176
     1
 65
   257
176
     1
 75
     1
176
     1
175
     1
176
     1
 42
1.0
176
     1
 92
        0
176
     1
 66
   257
176
     1
 43
1.0
176
     1
 76
     1
176
     1
 77
     6
176
     1
 78
     2
176
     1
 67
     7
176
     1
 79
     5
176
     1
170
     0
176
     1
171
     0
176
     1
290
     0
176
     1
 93
        1
176
     1
 44
0.0
176
     1
173
     0
176
     1
  0
VISUALSTYLE
  5
32
102
{ACAD_REACTORS
330
2A
102
}
330
2A
100
AcDbVisualStyle
  2
Basic
 70
     7
177
     2
291
     1
 71
     1
176
     1
 72
     0
176
     1
 73
     1
176
     1
 90
        0
176
     1
 40
-0.6
176
     1
 41
-30.0
176
     1
 62
     5
 63
     7
421
 16777215
176
     1
 74
     0
176
     1
 91
        4
176
     1
 64
     7
176
     1
 65
   257
176
     1
 75
     1
176
     1
175
     1
176
     1
 42
1.0
176
     1
 92
        8
176
     1
 66
     7
176
     1
 43
1.0
176
     1
 76
     1
176
     1
 77
     6
176
     1
 78
     2
176
     1
 67
     7
176
     1
 79
     5
176
     1
170
     0
176
     1
171
     0
176
     1
290
     0
176
     1
 93
        1
176
     1
 44
0.0
176
     1
173
     0
176
     1
  0
VISUALSTYLE
  5
36
102
{ACAD_REACTORS
330
2A
102
}
330
2A
100
AcDbVisualStyle
  2
Brighten
 70
    12
177
     2
291
     1
 71
     2
176
     1
 72
     2
176
     1
 73
     0
176
     1
 90
        0
176
     1
 40
-0.6
176
     1
 41
-30.0
176
     1
 62
     5
 63
     7
421
 16777215
176
     1
 74
     1
176
     1
 91
        4
176
     1
 64
     7
176
     1
 65
   257
176
     1
 75
     1
176
     1
175
     1
176
     1
 42
1.0
176
     1
 92
        8
176
     1
 66
     7
176
     1
 43
1.0
176
     1
 76
     1
176
     1
 77
     6
176
     1
 78
     2
176
     1
 67
     7
176
     1
 79
     5
176
     1
170
     0
176
     1
171
     0
176
     1
290
     0
176
     1
 93
        1
176
     1
 44
50.0
176
     1
173
     0
176
     1
  0
VISUALSTYLE
  5
3A
102
{ACAD_REACTORS
330
2A
102
}
330
2A
100
AcDbVisualStyle
  2
ColorChange
 70
    16
177
     2
291
     1
 71
     2
176
     1
 72
     2
176
     1
 73
     3
176
     1
 90
        0
176
     1
 40
-0.6
176
     1
 41
-30.0
176
     1
 62
     5
 63
     8
421
  8421504
176
     1
 74
     1
176
     1
 91
        4
176
     1
 64
     7
176
     1
 65
   257
176
     1
 75
     1
176
     1
175
     1
176
     1
 42
1.0
176
     1
 92
        8
176
     1
 66
     8
424
  8421504
176
     1
 43
1.0
176
     1
 76
     1
176
     1
 77
     6
176
     1
 78
     2
176
     1
 67
     7
176
     1
 79
     5
176
     1
170
     0
176
     1
171
     0
176
     1
290
     0
176
     1
 93
        1
176
     1
 44
0.0
176
     1
173
     0
176
     1
  0
VISUALSTYLE
  5
34
102
{ACAD_REACTORS
330
2A
102
}
330
2A
100
AcDbVisualStyle
  2
Conceptual
 70
     9
177
     2
291
     0
 71
     3
176
     1
 72
     2
176
     1
 73
     0
176
     1
 90
        0
176
     1
 40
-0.6
176
     1
 41
-30.0
176
     1
 62
     5
 63
     7
421
 16777215
176
     1
 74
     2
176
     1
 91
        2
176
     1
 64
     7
176
     1
 65
   257
176
     1
 75
     1
176
     1
175
     1
176
     1
 42
40.0
176
     1
 92
        8
176
     1
 66
     7
176
     1
 43
1.0
176
     1
 76
     1
176
     1
 77
     6
176
     1
 78
     2
176
     1
 67
     7
176
     1
 79
     3
176
     1
170
     0
176
     1
171
     0
176
     1
290
     0
176
     1
 93
        1
176
     1
 44
0.0
176
     1
173
     0
176
     1
  0
VISUALSTYLE
  5
35
102
{ACAD_REACTORS
330
2A
102
}
330
2A
100
AcDbVisualStyle
  2
Dim
 70
    11
177
     2
291
     1
 71
     2
176
     1
 72
     2
176
     1
 73
     0
176
     1
 90
        0
176
     1
 40
-0.6
176
     1
 41
-30.0
176
     1
 62
     5
 63
     7
421
 16777215
176
     1
 74
     1
176
     1
 91
        4
176
     1
 64
     7
176
     1
 65
   257
176
     1
 75
     1
176
     1
175
     1
176
     1
 42
1.0
176
     1
 92
        8
176
     1
 66
     7
176
     1
 43
1.0
176
     1
 76
     1
176
     1
 77
     6
176
     1
 78
     2
176
     1
 67
     7
176
     1
 79
     5
176
     1
170
     0
176
     1
171
     0
176
     1
290
     0
176
     1
 93
        1
176
     1
 44
-50.0
176
     1
173
     0
176
     1
  0
VISUALSTYLE
  5
39
102
{ACAD_REACTORS
330
2A
102
}
330
2A
100
AcDbVisualStyle
  2
Facepattern
 70
    15
177
     2
291
     1
 71
     2
176
     1
 72
     2
176
     1
 73
     0
176
     1
 90
        0
176
     1
 40
-0.6
176
     1
 41
-30.0
176
     1
 62
     5
 63
     7
421
 16777215
176
     1
 74
     1
176
     1
 91
        4
176
     1
 64
     7
176
     1
 65
   257
176
     1
 75
     1
176
     1
175
     1
176
     1
 42
1.0
176
     1
 92
        8
176
     1
 66
     7
176
     1
 43
1.0
176
     1
 76
     1
176
     1
 77
     6
176
     1
 78
     2
176
     1
 67
     7
176
     1
 79
     5
176
     1
170
     0
176
     1
171
     0
176
     1
290
     0
176
     1
 93
        1
176
     1
 44
0.0
176
     1
173
     0
176
     1
  0
VISUALSTYLE
  5
2B
102
{ACAD_REACTORS
330
2A
102
}
330
2A
100
AcDbVisualStyle
  2
Flat
 70
     0
177
     2
291
     1
 71
     2
176
     1
 72
     1
176
     1
 73
     1
176
     1
 90
        2
176
     1
 40
-0.6
176
     1
 41
30.0
176
     1
 62
     5
 63
     7
421
 16777215
176
     1
 74
     0
176
     1
 91
        4
176
     1
 64
     7
176
     1
 65
   257
176
     1
 75
     1
176
     1
175
     1
176
     1
 42
1.0
176
     1
 92
        8
176
     1
 66
     7
176
     1
 43
1.0
176
     1
 76
     1
176
     1
 77
     6
176
     1
 78
     2
176
     1
 67
     7
176
     1
 79
     5
176
     1
170
     0
176
     1
171
     0
176
     1
290
     0
176
     1
 93
       13
176
     1
 44
0.0
176
     1
173
     0
176
     1
  0
VISUALSTYLE
  5
2C
102
{ACAD_REACTORS
330
2A
102
}
330
2A
100
AcDbVisualStyle
  2
FlatWithEdges
 70
     1
177
     2
291
     1
 71
     2
176
     1
 72
     1
176
     1
 73
     1
176
     1
 90
        2
176
     1
 40
-0.6
176
     1
 41
30.0
176
     1
 62
     5
 63
     7
421
 16777215
176
     1
 74
     1
176
     1
 91
        4
176
     1
 64
     7
176
     1
 65
   257
176
     1
 75
     1
176
     1
175
     1
176
     1
 42
1.0
176
     1
 92
        0
176
     1
 66
   257
176
     1
 43
1.0
176
     1
 76
     1
176
     1
 77
     6
176
     1
 78
     2
176
     1
 67
     7
176
     1
 79
     5
176
     1
170
     0
176
     1
171
     0
176
     1
290
     0
176
     1
 93
       13
176
     1
 44
0.0
176
     1
173
     0
176
     1
  0
VISUALSTYLE
  5
2D
102
{ACAD_REACTORS
330
2A
102
}
330
2A
100
AcDbVisualStyle
  2
Gouraud
 70
     2
177
     2
291
     1
 71
     2
176
     1
 72
     2
176
     1
 73
     1
176
     1
 90
        2
176
     1
 40
-0.6
176
     1
 41
30.0
176
     1
 62
     5
 63
     7
421
 16777215
176
     1
 74
     0
176
     1
 91
        4
176
     1
 64
     7
176
     1
 65
   257
176
     1
 75
     1
176
     1
175
     1
176
     1
 42
1.0
176
     1
 92
        0
176
     1
 66
     7
176
     1
 43
1.0
176
     1
 76
     1
176
     1
 77
     6
176
     1
 78
     2
176
     1
 67
     7
176
     1
 79
     5
176
     1
170
     0
176
     1
171
     0
176
     1
290
     0
176
     1
 93
       13
176
     1
 44
0.0
176
     1
173
     0
176
     1
  0
VISUALSTYLE
  5
2E
102
{ACAD_REACTORS
330
2A
102
}
330
2A
100
AcDbVisualStyle
  2
GouraudWithEdges
 70
     3
177
     2
291
     1
 71
     2
176
     1
 72
     2
176
     1
 73
     1
176
     1
 90
        2
176
     1
 40
-0.6
176
     1
 41
30.0
176
     1
 62
     5
 63
     7
421
 16777215
176
     1
 74
     1
176
     1
 91
        4
176
     1
 64
     7
176
     1
 65
   257
176
     1
 75
     1
176
     1
175
     1
176
     1
 42
1.0
176
     1
 92
        0
176
     1
 66
   257
176
     1
 43
1.0
176
     1
 76
     1
176
     1
 77
     6
176
     1
 78
     2
176
     1
 67
     7
176
     1
 79
     5
176
     1
170
     0
176
     1
171
     0
176
     1
290
     0
176
     1
 93
       13
176
     1
 44
0.0
176
     1
173
     0
176
     1
  0
VISUALSTYLE
  5
38
102
{ACAD_REACTORS
330
2A
102
}
330
2A
100
AcDbVisualStyle
  2
Linepattern
 70
    14
177
     2
291
     1
 71
     2
176
     1
 72
     2
176
     1
 73
     0
176
     1
 90
        0
176
     1
 40
-0.6
176
     1
 41
-30.0
176
     1
 62
     5
 63
     7
421
 16777215
176
     1
 74
     1
176
     1
 91
        4
176
     1
 64
     7
176
     1
 65
   257
176
     1
 75
     7
176
     1
175
     7
176
     1
 42
1.0
176
     1
 92
        8
176
     1
 66
     7
176
     1
 43
1.0
176
     1
 76
     1
176
     1
 77
     6
176
     1
 78
     2
176
     1
 67
     7
176
     1
 79
     5
176
     1
170
     0
176
     1
171
     0
176
     1
290
     0
176
     1
 93
        1
176
     1
 44
0.0
176
     1
173
     0
176
     1
  0
VISUALSTYLE
  5
33
102
{ACAD_REACTORS
330
2A
102
}
330
2A
100
AcDbVisualStyle
  2
Realistic
 70
     8
177
     2
291
     0
 71
     2
176
     1
 72
     2
176
     1
 73
     0
176
     1
 90
        0
176
     1
 40
-0.6
176
     1
 41
-30.0
176
     1
 62
     5
 63
     7
421
 16777215
176
     1
 74
     1
176
     1
 91
        0
176
     1
 64
     7
176
     1
 65
   257
176
     1
 75
     1
176
     1
175
     1
176
     1
 42
1.0
176
     1
 92
        8
176
     1
 66
     8
424
  7895160
176
     1
 43
1.0
176
     1
 76
     1
176
     1
 77
     6
176
     1
 78
     2
176
     1
 67
     7
176
     1
 79
     5
176
     1
170
     0
176
     1
171
     0
176
     1
290
     0
176
     1
 93
       13
176
     1
 44
0.0
176
     1
173
     0
176
     1
  0
VISUALSTYLE
  5
37
102
{ACAD_REACTORS
330
2A
102
}
330
2A
100
AcDbVisualStyle
  2
Thicken
 70
    13
177
     2
291
     1
 71
     2
176
     1
 72
     2
176
     1
 73
     0
176
     1
 90
        0
176
     1
 40
-0.6
176
     1
 41
-30.0
176
     1
 62
     5
 63
     7
421
 16777215
176
     1
 74
     1
176
     1
 91
        4
176
     1
 64
     7
176
     1
 65
   257
176
     1
 75
     1
176
     1
175
     1
176
     1
 42
1.0
176
     1
 92
       12
176
     1
 66
     7
176
     1
 43
1.0
176
     1
 76
     1
176
     1
 77
     6
176
     1
 78
     2
176
     1
 67
     7
176
     1
 79
     5
176
     1
170
     0
176
     1
171
     0
176
     1
290
     0
176
     1
 93
        1
176
     1
 44
0.0
176
     1
173
     0
176
     1
  0
XRECORD
  5
BA
102
{ACAD_REACTORS
330
B9
102
}
330
B9
100
AcDbXrecord
280
     1
1000

1000
CAXA_DRAFT_CURRENTBOMSTYLE
1000
标准
  0
XRECORD
  5
BB
102
{ACAD_REACTORS
330
B9
102
}
330
B9
100
AcDbXrecord
280
     1
1000

1000
CAXA_DRAFT_BOMSTYLE
1000
标准
1000

1041
7.0
1071
        0
1071
     1011
1041
1.66
1041
0.5
1071
1090519039
1071
1090519039
1071
1090519039
1071
1090519039
1041
3.5
1000
标准
1000
Continuous
1041
0.5
1071
        4
1041
0.5
1071
        4
1041
0.5
1071
        4
1041
0.5
1071
        4
1041
0.5
1071
        4
1041
0.25
1071
        3
1041
0.5
1071
        4
1041
0.5
1071
        4
1041
0.5
1071
        4
1041
0.5
1071
        4
1041
0.5
1071
        4
1041
0.25
1071
        3
1070
     0
1071
       10
1000
序号
1000
IndexID
1000

1071
       10
1071
       16
1070
     2
1070
     0
1041
0.0
1041
0.0
1041
0.0
1041
8.0
1041
14.0
1041
1.66
1041
0.5
1041
5.0
1000
标准
1071
        4
1070
     3
1071
     1001
1000
代号
1000
PCPNo
1000

1071
       10
1071
       32
1070
     2
1070
     0
1041
8.0
1041
0.0
1041
0.0
1041
40.0
1041
14.0
1041
1.66
1041
0.5
1041
5.0
1000
标准
1071
        4
1070
     3
1071
     1002
1000
名称
1000
PCPName
1000

1071
       10
1071
       32
1070
     2
1070
     0
1041
48.0
1041
0.0
1041
0.0
1041
44.0
1041
14.0
1041
1.66
1041
0.5
1041
5.0
1000
标准
1071
        4
1070
     3
1071
     1003
1000
数量
1000
Amount
1000

1071
        3
1071
       32
1070
     2
1070
     0
1041
92.0
1041
0.0
1041
0.0
1041
8.0
1041
14.0
1041
1.66
1041
0.5
1041
5.0
1000
标准
1071
        4
1070
     3
1071
     1004
1000
材料
1000
MaterialName
1000

1071
       10
1071
       32
1070
     2
1070
     0
1041
100.0
1041
0.0
1041
0.0
1041
38.0
1041
14.0
1041
1.66
1041
0.5
1041
5.0
1000
标准
1071
        4
1070
     3
1071
     1005
1000
重量
1000

1000

1071
        7
1071
       32
1070
     2
1070
     0
1041
138.0
1041
0.0
1041
0.0
1041
22.0
1041
7.0
1041
1.66
1041
0.5
1041
3.5
1000
标准
1071
        4
1070
     3
1071
     1006
1000
单件
1000
Weight
1000

1071
        7
1071
       32
1070
     2
1070
     1
1041
138.0
1041
7.0
1041
0.0
1041
10.0
1041
7.0
1041
1.66
1041
0.5
1041
3.5
1000
标准
1071
        4
1070
     3
1071
     1007
1000
总计
1000
TWeight
1000

1071
        7
1071
       32
1070
     2
1070
     1
1041
148.0
1041
7.0
1041
0.0
1041
12.0
1041
7.0
1041
1.66
1041
0.5
1041
3.5
1000
标准
1071
        4
1070
     3
1071
     1008
1000
备注
1000
Remark
1000

1071
       10
1071
       50
1070
     2
1070
     0
1041
160.0
1041
0.0
1041
0.0
1041
20.0
1041
14.0
1041
1.66
1041
0.5
1041
5.0
1000
标准
1071
        4
1070
     3
1071
     1009
1000
来源
1000
Source
1000

1071
       10
1071
       32
1070
     2
1070
     0
1041
180.0
1041
0.0
1041
0.0
1041
0.0
1041
14.0
1041
1.66
1041
0.5
1041
5.0
1000
标准
1071
        4
1070
     3
1071
     1010
1071
1090519039
1071
1090519039
1071
1090519039
  0
XRECORD
  5
B0
102
{ACAD_REACTORS
330
AF
102
}
330
AF
100
AcDbXrecord
280
     1
1000

1000
CAXA_DRAFT_CURRENTCUTSSTYLE
1000
标准
  0
XRECORD
  5
B1
102
{ACAD_REACTORS
330
AF
102
}
330
AF
100
AcDbXrecord
280
     1
1000

1000
CAXA_DRAFT_CUTSSTYLE
1000
标准
1000

1071
1090519039
1041
0.3499999940395355
1041
5.0
1000
标准
1070
     1
1041
4.0
1071
1090519039
1070
     0
1070
     0
1071
1090519039
1041
3.5
1070
     1
1041
1.0
1070
     0
1000
Dash Dot
  0
XRECORD
  5
B3
102
{ACAD_REACTORS
330
B2
102
}
330
B2
100
AcDbXrecord
280
     1
1000

1000
CAXA_DRAFT_CUTSSTYLEOVERRIDE
1070
     0
1070
     0
1070
     0
1070
     0
1070
     0
1070
     0
1070
     0
1070
     0
1070
     0
1070
     0
1070
     0
1070
     0
1070
     0
1070
     0
1070
     0
1070
     0
1070
     0
  0
XRECORD
  5
BD
102
{ACAD_REACTORS
330
BC
102
}
330
BC
100
AcDbXrecord
280
     1
1000

1000
CAXA_DRAFT_DATATABLE*Model_Space
1071
      101
1071
        2
1071
        0
1071
        0
1071
        0
1071
        9
1000
序号
1071
     1001
1000
代号
1071
     1002
1000
名称
1071
     1003
1000
数量
1071
     1004
1000
材料
1071
     1005
1000
单件
1071
     1007
1000
总计
1071
     1008
1000
备注
1071
     1009
1000
来源
1071
     1010
1000
序号
1070
     1
1000

1070
     1
1000

1070
     1
1000

1070
     1
1000

1070
     1
1071
        0
1071
        8
1000
代号
1000
名称
1000
数量
1000
材料
1000
单件
1000
总计
1000
备注
1000
来源
1071
        0
1071
        0
1000

1000

1070
     1
1000
标准
  0
XRECORD
  5
319
102
{ACAD_REACTORS
330
318
102
}
330
318
100
AcDbXrecord
280
     1
1000

1000
CAXA_DRAFT_DATATABLE*Paper_Space
1071
      101
1071
        2
1071
        0
1071
        0
1071
        0
1071
        9
1000
序号
1071
     1001
1000
代号
1071
     1002
1000
名称
1071
     1003
1000
数量
1071
     1004
1000
材料
1071
     1005
1000
单件
1071
     1007
1000
总计
1071
     1008
1000
备注
1071
     1009
1000
来源
1071
     1010
1000
序号
1070
     1
1000

1070
     1
1000

1070
     1
1000

1070
     1
1000

1070
     1
1071
        0
1071
        8
1000
代号
1000
名称
1000
数量
1000
材料
1000
单件
1000
总计
1000
备注
1000
来源
1071
        0
1071
        0
1000

1000

1070
     1
1000
标准
  0
XRECORD
  5
AB
102
{ACAD_REACTORS
330
AA
102
}
330
AA
100
AcDbXrecord
280
     1
1000

1000
CAXA_DRAFT_CURRENTDATUMSTYLE
1000
标准
  0
XRECORD
  5
AC
102
{ACAD_REACTORS
330
AA
102
}
330
AA
100
AcDbXrecord
280
     1
1000

1000
CAXA_DRAFT_DATUMSTYLE
1000
标准
1000

1070
     2
1071
1090519039
1071
1090519039
1041
3.5
1041
1.0
1000
标准
1000
标准
1071
1090519039
1070
     1
1041
0.0
1071
        1
1071
1090519039
1070
     1
  0
XRECORD
  5
AE
102
{ACAD_REACTORS
330
AD
102
}
330
AD
100
AcDbXrecord
280
     1
1000

1000
CAXA_DRAFT_DATUMSTYLEOVERRIDE
1070
     0
1070
     0
1070
     0
1070
     0
1070
     0
1070
     0
1070
     0
1070
     0
1070
     0
1070
     0
1070
     0
1070
     0
1070
     0
1070
     0
1070
     0
1070
     0
  0
XRECORD
  5
31C
102
{ACAD_REACTORS
330
31B
102
}
330
31B
100
AcDbXrecord
280
     1
1000

1000
CAXA_DRAFT_DIMSTYLE_ANGTXTVPOS
1070
     1
  0
XRECORD
  5
320
102
{ACAD_REACTORS
330
31F
102
}
330
31F
100
AcDbXrecord
280
     1
1000

1000
CAXA_DRAFT_DIMSTYLE_ISDISPZEROTOL
1070
     0
  0
XRECORD
  5
31E
102
{ACAD_REACTORS
330
31D
102
}
330
31D
100
AcDbXrecord
280
     1
1000

1000
CAXA_DRAFT_DIMSTYLE_ISFILLDFM
1070
     1
  0
XRECORD
  5
322
102
{ACAD_REACTORS
330
321
102
}
330
321
100
AcDbXrecord
280
     1
1000

1000
CAXA_DRAFT_DIMSTYLE_SYMBOLCOLOR
1071
1090519039
  0
XRECORD
  5
324
102
{ACAD_REACTORS
330
323
102
}
330
323
100
AcDbXrecord
280
     1
1000
CAXA_DRAFT_DRAFTDATA
1071
     1091
1004
0800000030002E003000000026000000430061007800610044007200610066007400200044006F00630075006D0065006E007400000016000000310032002E0030002E0030002E0032003500300000005C00000043006F00700079007200690067006800740020002800630029002000320030003100300020004300410058
1004
0041002E00200041006C006C0020007200690067006800740073002000720065007300650072007600650064002E0000000E0915EF49860549AB12F7410400FEB201000000E2070A00020017000B0022002700EE00E2070A00020017000B0022002700EE000100000000000000000000000000000000000000000000000000
1004
00
1004
00000000000000000000000000000000000000000000000000000000000000000000000000000000000000000000000000000000000000000000000000000000000000000000000000000000000000000000000000000000000000000000000000000000000000000000000000000000000000000000000000000000000000
1004
000000000000004E0000008F00960056008200C100E30029008300B100FE0028008500C000EA003D008700CD00E30025009E00B500910021008100D900950027008700C500E30024008300C40095005500F100C600AE000000020000000E00000041007500740068006F00720000001600000079006100780069006E005F00
1004
77
1004
0061006E00670000001E000000500072006F006400750063007400560065007200730069006F006E0000000A000000310031002E0030000000000000000800000030002E0030000000000000000000000000000000000000000000000000000000000000000000000000000000000000000000000000000000000000000000
1004
00000000000000000000000000000000000000000000000000000000000000000000000000000000000000000000000000000000000000000000000000000000000000000000000000000000000000000000000000000000000000000000000000000000000000000000010000000800000030002E00300000000000000000
1004
00
1004
00000000000000000000000000000000000000000000000000000000000000000000000000000000000000000000000000000000000000000000000000000000000000000000000000000000000000000000000000000000000000000000000000000000000000000000000000000000000000000000000000000000000000
1004
0000000000000000000000000000000000000000000000000000000800000030002E003000000000000000000000000000000000000000000000000000000000000000000000000000000000000000000000000000000000000000000000000000000000000000000000000000000000000000000000000000000000000000
1004
00
1004
0000000000000000000000000000000000000000000000000000000000000000000000000000000000000000000000000000000000000000000000000000000000000000000000
  0
XRECORD
  5
85
102
{ACAD_REACTORS
330
84
102
}
330
84
100
AcDbXrecord
280
     1
1000
CAXA_DRAFT_FILEVERSION
1000
12.0.0.250
1000
10.1.0.000
1000
12.0.0.000.20120615
  0
XRECORD
  5
A6
102
{ACAD_REACTORS
330
A5
102
}
330
A5
100
AcDbXrecord
280
     1
1000

1000
CAXA_DRAFT_CURRENTGEOTOLSTYLE
1000
标准
  0
XRECORD
  5
A7
102
{ACAD_REACTORS
330
A5
102
}
330
A5
100
AcDbXrecord
280
     1
1000

1000
CAXA_DRAFT_GEOTOLSTYLE
1000
标准
1000

1000
标准
1000
标准
1070
     0
1070
     0
1070
     0
1070
     0
1070
     0
1070
     0
1070
     3
1000
.啘
1070
     0
1070
     1
1070
     0
1070
     0
1070
     0
1070
     3
1041
1.0
1000
.
1070
     0
1070
     0
1070
     0
1000
Continuous
1071
1090519039
1071
1090519039
1041
3.5
1071
1090519039
1041
1.0
1071
1090519039
  0
XRECORD
  5
A9
102
{ACAD_REACTORS
330
A8
102
}
330
A8
100
AcDbXrecord
280
     1
1000

1000
CAXA_DRAFT_GEOTOLSTYLEOVERRIDE
1070
     0
1070
     0
1070
     0
1070
     0
1070
     0
1070
     0
1070
     0
1070
     0
1070
     0
1070
     0
1070
     0
1070
     0
1070
     0
1070
     0
1070
     0
1070
     0
1070
     0
1070
     0
1070
     0
1070
     0
1070
     0
1070
     0
1070
     0
1070
     0
1070
     0
1070
     0
1070
     0
1070
     0
1070
     0
1070
     0
  0
XRECORD
  5
99
102
{ACAD_REACTORS
330
98
102
}
330
98
100
AcDbXrecord
280
     1
1000

1000
CAXA_DRAFT_CURRENTLEADERSTYLE
1000
标准
  0
XRECORD
  5
9A
102
{ACAD_REACTORS
330
98
102
}
330
98
100
AcDbXrecord
280
     1
1000

1000
CAXA_DRAFT_LEADERSTYLE
1000
标准
1000

1070
     1
1041
4.0
1041
0.0
1041
0.0
1041
3.5
1000
Continuous
1071
1090519039
1041
3.5
1070
     1
  0
XRECORD
  5
B5
102
{ACAD_REACTORS
330
B4
102
}
330
B4
100
AcDbXrecord
280
     1
1000

1000
CAXA_DRAFT_CURRENTPARTNOSTYLE
1000
标准
  0
XRECORD
  5
B6
102
{ACAD_REACTORS
330
B4
102
}
330
B4
100
AcDbXrecord
280
     1
1000

1000
CAXA_DRAFT_PARTNOSTYLE
1000
标准
1000

1071
        0
1000
标准
1000
ByLayer
1041
5.0
1041
0.5
1071
        3
1041
2.0
1041
5.0
1041
10.0
1041
1.5
1041
1.1
1041
1.1
1071
        1
1000

1071
       -1
1071
       -1
1041
4.0
1041
1.0
1041
0.7
1041
0.9
1071
        1
1071
        1
1000
序号
1071
        1
1071
        2
1000

1000

1041
1.0
  0
XRECORD
  5
B8
102
{ACAD_REACTORS
330
B7
102
}
330
B7
100
AcDbXrecord
280
     1
1000

1000
CAXA_DRAFT_PARTNOSTYLEOVERRIDE
1070
     0
1070
     0
1070
     0
1070
     0
1070
     0
1070
     0
1070
     0
1070
     0
1070
     0
1070
     0
1070
     0
1070
     0
1070
     0
1070
     0
1070
     0
1070
     0
  0
XRECORD
  5
A1
102
{ACAD_REACTORS
330
A0
102
}
330
A0
100
AcDbXrecord
280
     1
1000

1000
CAXA_DRAFT_CURRENTROUGHSTYLE
1000
标准
  0
XRECORD
  5
A2
102
{ACAD_REACTORS
330
A0
102
}
330
A0
100
AcDbXrecord
280
     1
1000

1000
CAXA_DRAFT_ROUGHSTYLE
1000
标准
1000

1000
标准
1000
标准
1000
Continuous
1071
1090519039
1071
1090519039
1041
3.5
1041
1.0
1041
0.0
1071
        0
1041
0.0
1071
        0
  0
XRECORD
  5
A4
102
{ACAD_REACTORS
330
A3
102
}
330
A3
100
AcDbXrecord
280
     1
1000

1000
CAXA_DRAFT_ROUGHSTYLEOVERRIDE
1070
     0
1070
     0
1070
     0
1070
     0
1070
     0
1070
     0
1070
     0
1070
     0
1070
     0
1070
     0
1070
     0
1070
     0
  0
XRECORD
  5
9C
102
{ACAD_REACTORS
330
9B
102
}
330
9B
100
AcDbXrecord
280
     1
1000

1000
CAXA_DRAFT_CURRENTWELDSTYLE
1000
标准
  0
XRECORD
  5
9D
102
{ACAD_REACTORS
330
9B
102
}
330
9B
100
AcDbXrecord
280
     1
1000

1000
CAXA_DRAFT_WELDSTYLE
1000
标准
1000

1000
标准
1000
标准
1041
0.3
1070
     0
1041
1.0
1041
0.5
1041
3.5
1041
1.0
1071
1090519039
1071
1090519039
1000
Dash
1041
0.0
1071
        0
  0
XRECORD
  5
9F
102
{ACAD_REACTORS
330
9E
102
}
330
9E
100
AcDbXrecord
280
     1
1000

1000
CAXA_DRAFT_WELDSTYLEOVERRIDE
1070
     0
1070
     0
1070
     0
1070
     0
1070
     0
1070
     0
1070
     0
1070
     0
1070
     0
1070
     0
1070
     0
1070
     0
1070
     0
1070
     0
  0
ENDSEC
  0
SECTION
  2
THUMBNAILIMAGE
 90
    48214
310
28000000AC0000008C000000010010000000000020BC0000C40E0000C40E00000000000000000000000000000000000000000000000000000000000000000000000000000000000000000000000000000000000000000000000000000000000000000000000000000000000000000000000000000000000000000000000000
310
00000000000000000000000000000000000000000000000000000000000000000000000000000000000000000000000000000000000000000000000000000000000000000000000000000000000000000000000000000000000000000000000000000000000000000000000000000000000000000000000000000000000000
310
00000000000000000000000000000000000000000000000000000000000000000000000000000000000000000000000000000000000000000000000000000000000000000000000000000000000000000000000000000000000000000000000000000000000000000000000000000000000000000000000000000000000000
310
00000000000000000000000000000000000000000000000000000000000000000000000000000000000000000000000000000000000000000000000000000000000000000000000000000000000000000000000000000000000000000000000000000000000000000000000000000000000000000000000000000000000000
310
00000000000000000000000000000000000000000000000000000000000000000000000000000000000000000000000000000000000000000000000000000000000000000000000000000000000000000000000000000000000000000000000000000000000000000000000000000000000000000000000000000000000000
310
00000000000000000000000000000000000000000000000000000000000000000000000000000000000000000000000000000000000000000000000000000000000000000000000000000000000000000000000000000000000000000000000000000000000000000000000000000000000000000000000000000000000000
310
00000000000000000000000000000000000000000000000000000000000000000000000000000000000000000000000000000000000000000000000000000000000000000000000000000000000000000000000000000000000000000000000000000000000000000000000000000000000000000000000000000000000000
310
00000000000000000000000000000000000000000000000000000000000000000000000000000000000000000000000000000000000000000000000000000000000000000000000000000000000000000000000000000000000000000000000000000000000000000000000000000000000000000000000000000000000000
310
00000000000000000000000000000000000000000000000000000000000000000000000000000000000000000000000000000000000000000000000000000000000000000000000000000000000000000000000000000000000000000000000000000000000000000000000000000000000000000000000000000000000000
310
00000000000000000000000000000000000000000000000000000000000000000000000000000000000000000000000000000000000000000000000000000000000000000000000000000000000000000000000000000000000000000000000000000000000000000000000000000000000000000000000000000000000000
310
00000000000000000000000000000000000000000000000000000000000000000000000000000000000000000000000000000000000000000000000000000000000000000000000000000000000000000000000000000000000000000000000000000000000000000000000000000000000000000000000000000000000000
310
00000000000000000000000000000000000000000000000000000000000000000000000000000000000000000000000000000000000000000000000000000000000000000000000000000000000000000000000000000000000000000000000000000000000000000000000000000000000000000000000000000000000000
310
00000000000000000000000000000000000000000000000000000000000000000000000000000000000000000000000000000000000000000000000000000000000000000000000000000000000000000000000000000000000000000000000000000000000000000000000000000000000000000000000000000000000000
310
00000000000000000000000000000000000000000000000000000000000000000000000000000000000000000000000000000000000000000000000000000000000000000000000000000000000000000000000000000000000000000000000000000000000000000000000000000000000000000000000000000000000000
310
00000000000000000000000000000000000000000000000000000000000000000000000000000000000000000000000000000000000000000000000000000000000000000000000000000000000000000000000000000000000000000000000000000000000000000000000000000000000000000000000000000000000000
310
00000000000000000000000000000000000000000000000000000000000000000000000000000000000000000000000000000000000000000000000000000000000000000000000000000000000000000000000000000000000000000000000000000000000000000000000000000000000000000000000000000000000000
310
00000000000000000000000000000000000000000000000000000000000000000000000000000000000000000000000000000000000000000000000000000000000000000000000000000000000000000000000000000000000000000000000000000000000000000000000000000000000000000000000000000000000000
310
00000000000000000000000000000000000000000000000000000000000000000000000000000000000000000000000000000000000000000000000000000000000000000000000000000000000000000000000000000000000000000000000000000000000000000000000000000000000000000000000000000000000000
310
00000000000000000000000000000000000000000000000000000000000000000000000000000000000000000000000000000000000000000000000000000000000000000000000000000000000000000000000000000000000000000000000000000000000000000000000000000000000000000000000000000000000000
310
00000000000000000000000000000000000000000000000000000000000000000000000000000000000000000000000000000000000000000000000000000000000000000000000000000000000000000000000000000000000000000000000000000000000000000000000000000000000000000000000000000000000000
310
00000000000000000000000000000000000000000000000000000000000000000000000000000000000000000000000000000000000000000000000000000000000000000000000000000000000000000000000000000000000000000000000000000000000000000000000000000000000000000000000000000000000000
310
00000000000000000000000000000000000000000000000000000000000000000000000000000000000000000000000000000000000000000000000000000000000000000000000000000000000000000000000000000000000000000000000000000000000000000000000000000000000000000000000000000000000000
310
00000000000000000000000000000000000000000000000000000000000000000000000000000000000000000000000000000000000000000000000000000000000000000000000000000000000000000000000000000000000000000000000000000000000000000000000000000000000000000000000000000000000000
310
00000000000000000000000000000000000000000000000000000000000000000000000000000000000000000000000000000000000000000000000000000000000000000000000000000000000000000000000000000000000000000000000000000000000000000000000000000000000000000000000000000000000000
310
00000000000000000000000000000000000000000000000000000000000000000000000000000000000000000000000000000000000000000000000000000000000000000000000000000000000000000000000000000000000000000000000000000000000000000000000000000000000000000000000000000000000000
310
00000000000000000000000000000000000000000000000000000000000000000000000000000000000000000000000000000000000000000000000000000000000000000000000000000000000000000000000000000000000000000000000000000000000000000000000000000000000000000000000000000000000000
310
00000000000000000000000000000000000000000000000000000000000000000000000000000000000000000000000000000000000000000000000000000000000000000000000000000000000000000000000000000000000000000000000000000000000000000000000000000000000000000000000000000000000000
310
00000000000000000000000000000000000000000000000000000000000000000000000000000000000000000000000000000000000000000000000000000000000000000000000000000000000000000000000000000000000000000000000000000000000000000000000000000000000000000000000000000000000000
310
00000000000000000000000000000000000000000000000000000000000000000000000000000000000000000000000000000000000000000000000000000000000000000000000000000000000000000000000000000000000000000000000000000000000000000000000000000000000000000000000000000000000000
310
00000000000000000000000000000000000000000000000000000000000000000000000000000000000000000000000000000000000000000000000000000000000000000000000000000000000000000000000000000000000000000000000000000000000000000000000000000000000000000000000000000000000000
310
00000000000000000000000000000000000000000000000000000000000000000000000000000000000000000000000000000000000000000000000000000000000000000000000000000000000000000000000000000000000000000000000000000000000000000000000000000000000000000000000000000000000000
310
00000000000000000000000000000000000000000000000000000000000000000000000000000000000000000000000000000000000000000000000000000000000000000000000000000000000000000000000000000000000000000000000000000000000000000000000000000000000000000000000000000000000000
310
00000000000000000000000000000000000000000000000000000000000000000000000000000000000000000000000000000000000000000000000000000000000000000000000000000000000000000000000000000000000000000000000000000000000000000000000000000000000000000000000000000000000000
310
00000000000000000000000000000000000000000000000000000000000000000000000000000000000000000000000000000000000000000000000000000000000000000000000000000000000000000000000000000000000000000000000000000000000000000000000000000000000000000000000000000000000000
310
00000000000000000000000000000000000000000000000000000000000000000000000000000000000000000000000000000000000000000000000000000000000000000000000000000000000000000000000000000000000000000000000000000000000000000000000000000000000000000000000000000000000000
310
00000000000000000000000000000000000000000000000000000000000000000000000000000000000000000000000000000000000000000000000000000000000000000000000000000000000000000000000000000000000000000000000000000000000000000000000000000000000000000000000000000000000000
310
00000000000000000000000000000000000000000000000000000000000000000000000000000000000000000000000000000000000000000000000000000000000000000000000000000000000000000000000000000000000000000000000000000000000000000000000000000000000000000000000000000000000000
310
00000000000000000000000000000000000000000000000000000000000000000000000000000000000000000000000000000000000000000000000000000000000000000000000000000000000000000000000000000000000000000000000000000000000000000000000000000000000000000000000000000000000000
310
00000000000000000000000000000000000000000000000000000000000000000000000000000000000000000000000000000000000000000000000000000000000000000000000000000000000000000000000000000000000000000000000000000000000000000000000000000000000000000000000000000000000000
310
00000000000000000000000000000000000000000000000000000000000000000000000000000000000000000000000000000000000000000000000000000000000000000000000000000000000000000000000000000000000000000000000000000000000000000000000000000000000000000000000000000000000000
310
00000000000000000000000000000000000000000000000000000000000000000000000000000000000000000000000000000000000000000000000000000000000000000000000000000000000000000000000000000000000000000000000000000000000000000000000000000000000000000000000000000000000000
310
00000000000000000000000000000000000000000000000000000000000000000000000000000000000000000000000000000000000000000000000000000000000000000000000000000000000000000000000000000000000000000000000000000000000000000000000000000000000000000000000000000000000000
310
00000000000000000000000000000000000000000000000000000000000000000000000000000000000000000000000000000000000000000000000000000000000000000000000000000000000000000000000000000000000000000000000000000000000000000000000000000000000000000000000000000000000000
310
00000000000000000000000000000000000000000000000000000000000000000000000000000000000000000000000000000000000000000000000000000000000000000000000000000000000000000000000000000000000000000000000000000000000000000000000000000000000000000000000000000000000000
310
00000000000000000000000000000000000000000000000000000000000000000000000000000000000000000000000000000000000000000000000000000000000000000000000000000000000000000000000000000000000000000000000000000000000000000000000000000000000000000000000000000000000000
310
00000000000000000000000000000000000000000000000000000000000000000000000000000000000000000000000000000000000000000000000000000000000000000000000000000000000000000000000000000000000000000000000000000000000000000000000000000000000000000000000000000000000000
310
00000000000000000000000000000000000000000000000000000000000000000000000000000000000000000000000000000000000000000000000000000000000000000000000000000000000000000000000000000000000000000000000000000000000000000000000000000000000000000000000000000000000000
310
00000000000000000000000000000000000000000000000000000000000000000000000000000000000000000000000000000000000000000000000000000000000000000000000000000000000000000000000000000000000000000000000000000000000000000000000000000000000000000000000000000000000000
310
00000000000000000000000000000000000000000000000000000000000000000000000000000000000000000000000000000000000000000000000000000000000000000000000000000000000000000000000000000000000000000000000000000000000000000000000000000000000000000000000000000000000000
310
00000000000000000000000000000000000000000000000000000000000000000000000000000000000000000000000000000000000000000000000000000000000000000000000000000000000000000000000000000000000000000000000000000000000000000000000000000000000000000000000000000000000000
310
00000000000000000000000000000000000000000000000000000000000000000000000000000000000000000000000000000000000000000000000000000000000000000000000000000000000000000000000000000000000000000000000000000000000000000000000000000000000000000000000000000000000000
310
00000000000000000000000000000000000000000000000000000000000000000000000000000000000000000000000000000000000000000000000000000000000000000000000000000000000000000000000000000000000000000000000000000000000000000000000000000000000000000000000000000000000000
310
00000000000000000000000000000000000000000000000000000000000000000000000000000000000000000000000000000000000000000000000000000000000000000000000000000000000000000000000000000000000000000000000000000000000000000000000000000000000000000000000000000000000000
310
00000000000000000000000000000000000000000000000000000000000000000000000000000000000000000000000000000000000000000000000000000000000000000000000000000000000000000000000000000000000000000000000000000000000000000000000000000000000000000000000000000000000000
310
00000000000000000000000000000000000000000000000000000000000000000000000000000000000000000000000000000000000000000000000000000000000000000000000000000000000000000000000000000000000000000000000000000000000000000000000000000000000000000000000000000000000000
310
00000000000000000000000000000000000000000000000000000000000000000000000000000000000000000000000000000000000000000000000000000000000000000000000000000000000000000000000000000000000000000000000000000000000000000000000000000000000000000000000000000000000000
310
00000000000000000000000000000000000000000000000000000000000000000000000000000000000000000000000000000000000000000000000000000000000000000000000000000000000000000000000000000000000000000000000000000000000000000000000000000000000000000000000000000000000000
310
00000000000000000000000000000000000000000000000000000000000000000000000000000000000000000000000000000000000000000000000000000000000000000000000000000000000000000000000000000000000000000000000000000000000000000000000000000000000000000000000000000000000000
310
00000000000000000000000000000000000000000000000000000000000000000000000000000000000000000000000000000000000000000000000000000000000000000000000000000000000000000000000000000000000000000000000000000000000000000000000000000000000000000000000000000000000000
310
00000000000000000000000000000000000000000000000000000000000000000000000000000000000000000000000000000000000000000000000000000000000000000000000000000000000000000000000000000000000000000000000000000000000000000000000000000000000000000000000000000000000000
310
00000000000000000000000000000000000000000000000000000000000000000000000000000000000000000000000000000000000000000000000000000000000000000000000000000000000000000000000000000000000000000000000000000000000000000000000000000000000000000000000000000000000000
310
00000000000000000000000000000000000000000000000000000000000000000000000000000000000000000000000000000000000000000000000000000000000000000000000000000000000000000000000000000000000000000000000000000000000000000000000000000000000000000000000000000000000000
310
00000000000000000000000000000000000000000000000000000000000000000000000000000000000000000000000000000000000000000000000000000000000000000000000000000000000000000000000000000000000000000000000000000000000000000000000000000000000000000000000000000000000000
310
00000000000000000000000000000000000000000000000000000000000000000000000000000000000000000000000000000000000000000000000000000000000000000000000000000000000000000000000000000000000000000000000000000000000000000000000000000000000000000000000000000000000000
310
00000000000000000000000000000000000000000000000000000000000000000000000000000000000000000000000000000000000000000000000000000000000000000000000000000000000000000000000000000000000000000000000000000000000000000000000000000000000000000000000000000000000000
310
00000000000000000000000000000000000000000000000000000000000000000000000000000000000000000000000000000000000000000000000000000000000000000000000000000000000000000000000000000000000000000000000000000000000000000000000000000000000000000000000000000000000000
310
00000000000000000000000000000000000000000000000000000000000000000000000000000000000000000000000000000000000000000000000000000000000000000000000000000000000000000000000000000000000000000000000000000000000000000000000000000000000000000000000000000000000000
310
00000000000000000000000000000000000000000000000000000000000000000000000000000000000000000000000000000000000000000000000000000000000000000000000000000000000000000000000000000000000000000000000000000000000000000000000000000000000000000000000000000000000000
310
00000000000000000000000000000000000000000000000000000000000000000000000000000000000000000000000000000000000000000000000000000000000000000000000000000000000000000000000000000000000000000000000000000000000000000000000000000000000000000000000000000000000000
310
00000000000000000000000000000000000000000000000000000000000000000000000000000000000000000000000000000000000000000000000000000000000000000000000000000000000000000000000000000000000000000000000000000000000000000000000000000000000000000000000000000000000000
310
00000000000000000000000000000000000000000000000000000000000000000000000000000000000000000000000000000000000000000000000000000000000000000000000000000000000000000000000000000000000000000000000000000000000000000000000000000000000000000000000000000000000000
310
00000000000000000000000000000000000000000000000000000000000000000000000000000000000000000000000000000000000000000000000000000000000000000000000000000000000000000000000000000000000000000000000000000000000000000000000000000000000000000000000000000000000000
310
00000000000000000000000000000000000000000000000000000000000000000000000000000000000000000000000000000000000000000000000000000000000000000000000000000000000000000000000000000000000000000000000000000000000000000000000000000000000000000000000000000000000000
310
00000000000000000000000000000000000000000000000000000000000000000000000000000000000000000000000000000000000000000000000000000000000000000000000000000000000000000000000000000000000000000000000000000000000000000000000000000000000000000000000000000000000000
310
00000000000000000000000000000000000000000000000000000000000000000000000000000000000000000000000000000000000000000000000000000000000000000000000000000000000000000000000000000000000000000000000000000000000000000000000000000000000000000000000000000000000000
310
00000000000000000000000000000000000000000000000000000000000000000000000000000000000000000000000000000000000000000000000000000000000000000000000000000000000000000000000000000000000000000000000000000000000000000000000000000000000000000000000000000000000000
310
00000000000000000000000000000000000000000000000000000000000000000000000000000000000000000000000000000000000000000000000000000000000000000000000000000000000000000000000000000000000000000000000000000000000000000000000000000000000000000000000000000000000000
310
00000000000000000000000000000000000000000000000000000000000000000000000000000000000000000000000000000000000000000000000000000000000000000000000000000000000000000000000000000000000000000000000000000000000000000000000000000000000000000000000000000000000000
310
00000000000000000000000000000000000000000000000000000000000000000000000000000000000000000000000000000000000000000000000000000000000000000000000000000000000000000000000000000000000000000000000000000000000000000000000000000000000000000000000000000000000000
310
00000000000000000000000000000000000000000000000000000000000000000000000000000000000000000000000000000000000000000000000000000000000000000000000000000000000000000000000000000000000000000000000000000000000000000000000000000000000000000000000000000000000000
310
00000000000000000000000000000000000000000000000000000000000000000000000000000000000000000000000000000000000000000000000000000000000000000000000000000000000000000000000000000000000000000000000000000000000000000000000000000000000000000000000000000000000000
310
00000000000000000000000000000000000000000000000000000000000000000000000000000000000000000000000000000000000000000000000000000000000000000000000000000000000000000000000000000000000000000000000000000000000000000000000000000000000000000000000000000000000000
310
00000000000000000000000000000000000000000000000000000000000000000000000000000000000000000000000000000000000000000000000000000000000000000000000000000000000000000000000000000000000000000000000000000000000000000000000000000000000000000000000000000000000000
310
00000000000000000000000000000000000000000000000000000000000000000000000000000000000000000000000000000000000000000000000000000000000000000000000000000000000000000000000000000000000000000000000000000000000000000000000000000000000000000000000000000000000000
310
00000000000000000000000000000000000000000000000000000000000000000000000000000000000000000000000000000000000000000000000000000000000000000000000000000000000000000000000000000000000000000000000000000000000000000000000000000000000000000000000000000000000000
310
00000000000000000000000000000000000000000000000000000000000000000000000000000000000000000000000000000000000000000000000000000000000000000000000000000000000000000000000000000000000000000000000000000000000000000000000000000000000000000000000000000000000000
310
00000000000000000000000000000000000000000000000000000000000000000000000000000000000000000000000000000000000000000000000000000000000000000000000000000000000000000000000000000000000000000000000000000000000000000000000000000000000000000000000000000000000000
310
00000000000000000000000000000000000000000000000000000000000000000000000000000000000000000000000000000000000000000000000000000000000000000000000000000000000000000000000000000000000000000000000000000000000000000000000000000000000000000000000000000000000000
310
00000000000000000000000000000000000000000000000000000000000000000000000000000000000000000000000000000000000000000000000000000000000000000000000000000000000000000000000000000000000000000000000000000000000000000000000000000000000000000000000000000000000000
310
00000000000000000000000000000000000000000000000000000000000000000000000000000000000000000000000000000000000000000000000000000000000000000000000000000000000000000000000000000000000000000000000000000000000000000000000000000000000000000000000000000000000000
310
00000000000000000000000000000000000000000000000000000000000000000000000000000000000000000000000000000000000000000000000000000000000000000000000000000000000000000000000000000000000000000000000000000000000000000000000000000000000000000000E00300000000000000
310
00000000000000000000000000000000000000000000000000000000000000000000000000000000000000E00300000000000000000000000000000000000000000000000000000000000000000000000000000000000000000000000000000000000000000000000000000000000000000000000000000000000000000000
310
00000000000000000000000000000000000000000000000000000000000000000000000000000000000000000000000000000000000000000000000000000000000000000000000000000000000000000000000000000000000000000000000000000000000000000000000000000000000000000000000000000000000000
310
000000000000000000000000000000000000000000000000000000000000000000000000000000000000000000000000000000000000000000000000000000000000000000000000000000000000000000E0030000000000000000000000000000000000000000000000000000000000000000000000000000000000000000
310
000000000000E0030000000000000000000000000000000000000000000000000000000000000000000000000000000000000000000000000000000000000000000000000000000000000000000000000000000000000000000000000000000000000000000000000000000000000000000000000000000000000000000000
310
00000000000000000000000000000000000000000000000000000000000000000000000000000000000000000000000000000000000000000000000000000000000000000000000000000000000000000000000000000000000000000000000000000000000000000000000000000000000000000000000000000000000000
310
0000000000000000000000000000000000000000000000000000000000000000000000000000000000000000E003E003E003E003E003E003E003E003E003E003E003E003E003E003E003E003E003E003E003E003E003E003E003E003E003E003E0030000000000000000000000000000000000000000000000000000000000
310
00000000000000000000000000000000000000000000000000000000000000000000000000000000000000000000000000000000000000000000000000000000000000000000000000000000000000000000000000000000000000000000000000000000000000000000000000000000000000000000000000000000000000
310
00000000000000000000000000000000000000000000000000000000000000000000000000000000000000000000000000000000000000000000000000000000000000000000000000000000000000000000000000000000000000000000000000000000000000000000000000000000000000000000000000000000000000
310
00000000000000E003000000000000000000000000000000000000E0030000000000000000E0030000000000000000000000000000000000000000E003000000000000000000000000000000000000000000000000000000000000000000000000000000000000000000000000000000000000000000000000000000000000
310
00000000000000000000000000000000000000000000000000000000000000000000000000000000000000000000000000000000000000000000000000000000000000000000000000000000000000000000000000000000000000000000000000000000000000000000000000000000000000000000000000000000000000
310
00000000000000000000000000000000000000000000000000000000000000000000000000000000000000000000000000000000000000000000000000000000000000000000000000000000000000000000000000000000000000000000000000E003000000000000000000000000000000000000E003E003E003E003E003
310
E0030000000000000000000000000000000000000000E00300000000000000000000000000000000000000000000000000000000000000000000000000000000000000000000000000000000000000000000000000000000000000000000000000000000000000000000000000000000000000000000000000000000000000
310
00000000000000000000000000000000000000000000000000000000000000000000000000000000000000000000000000000000000000000000000000000000000000000000000000000000000000000000000000000000000000000000000000000000000000000000000000000000000000000000000000000000000000
310
000000000000000000000000000000000000000000000000000000000000000000000000000000000000000000000000000000000000000000000000E0030000000000000000000000000000E003000000000000000000000000E0030000000000000000000000000000000000000000E00300000000000000000000000000
310
0000000000E00300000000000000000000000000000000000000000000000000000000000000000000000000000000000000000000000000000000000000000000000000000000000000000000000000000000000000000000E003000000000000000000000000000000000000000000000000000000000000000000000000
310
00000000000000000000000000000000000000000000000000000000000000000000000000000000000000000000000000000000000000000000000000000000000000000000000000000000000000000000000000000000000000000000000000000000000000000000000000000000000000000000000000000000000000
310
0000000000000000000000000000000000000000000000E0030000000000000000000000000000E003000000000000000000000000E0030000000000000000000000000000000000000000E003000000000000000000000000000000000000E003000000000000000000000000000000000000000000000000000000000000
310
00000000000000000000000000000000000000000000000000000000000000000000000000000000000000000000000000000000E00300000000000000000000000000000000000000000000000000000000000000000000000000000000000000000000000000000000000000000000000000000000000000000000000000
310
0000000000000000000000000000000000000000000000000000000000000000000000000000000000000000000000000000000000000000000000000000000000000000000000000000000000000000000000000000000000000000000000000000000000000000000000000000000000E003000000000000000000000000
310
0000E003E003E003E003E003E003E003E0030000000000000000000000000000000000000000E003000000000000000000000000000000000000E003E003E003E003E003E003E003E003E003E003E003E003E003E003E003E003E003E003E003E003E003E003E003E003E003E003E003E003E003E003E003E003E003E003E0
310
03E003E003E003E003E003E003E003E0030000000000000000000000000000000000000000000000000000000000000000000000000000000000000000000000000000000000000000000000000000000000000000000000000000000000000000000000000000000000000000000000000000000000000000000000000000
310
00000000000000000000000000000000000000000000000000000000000000000000000000000000000000000000000000000000000000000000000000000000000000000000000000000000E0030000000000000000000000000000E0030000E00300000000E0030000E00300000000000000000000000000000000000000
310
00E003000000000000000000000000000000000000E003000000000000000000000000000000000000000000000000000000000000000000000000E0030000000000000000E00300000000000000000000000000000000000000000000000000000000000000000000E0030000000000000000000000000000000000000000
310
00000000000000000000000000000000000000000000000000000000000000000000000000000000000000000000000000000000000000000000000000000000000000000000000000000000000000000000000000000000000000000000000000000000000000000000000000000000000000000000000000000000000000
310
000000000000000000000000000000000000000000000000000000000000000000000000000000E0030000000000000000000000000000E0030000E003E003E003E0030000E0030000000000000000000000000000000000000000E003000000000000000000000000000000000000E0030000000000000000000000000000
310
00000000000000000000000000000000000000000000E003E003E003E003E003E00300000000000000000000000000000000000000000000000000000000000000000000E003000000000000000000000000000000000000000000000000000000000000000000000000000000000000000000000000000000000000000000
310
00000000000000000000000000000000000000000000000000000000000000000000000000000000000000000000000000000000000000000000000000000000000000000000000000000000000000000000000000000000000000000000000000000000000000000000000000000000000000000000000000000000000000
310
0000E0030000000000000000000000000000E003000000000000000000000000E0030000000000000000000000000000000000000000E003000000000000000000000000000000000000E003000000000000000000000000000000000000000000000000000000000000000000000000000000000000000000000000000000
310
00000000000000000000000000000000000000000000000000000000000000E00300000000000000000000000000000000000000000000000000000000000000000000000000000000000000000000000000000000000000000000000000000000000000000000000000000000000000000000000000000000000000000000
310
0000000000000000000000000000000000000000000000000000000000000000000000000000000000000000000000000000000000000000000000000000000000000000000000000000000000000000000000000000000000000000E0030000000000000000000000000000E003000000000000000000000000E003000000
310
0000000000000000000000000000000000E003000000000000000000000000000000000000E00300000000000000000000000000000000000000000000000000000000000000000000000000000000000000000000000000000000000000000000000000000000000000000000000000000000000000000000E00300000000
310
00000000000000000000000000000000000000000000000000000000000000000000000000000000000000000000000000000000000000000000000000000000000000000000000000000000000000000000000000000000000000000000000000000000000000000000000000000000000000000000000000000000000000
310
00000000000000007C00000000000000000000000000000000000000000000000000000000000000000000000000000000000000000000E0030000000000000000000000000000E00300000000007C000000000000E0030000000000000000000000000000000000000000E003000000000000000000000000000000000000
310
E003000000000000007C0000000000000000000000000000000000000000000000000000000000000000000000000000000000000000000000000000000000000000000000000000000000000000000000000000E0030000000000000000000000000000000000000000000000000000000000000000000000000000000000
310
000000000000000000000000000000000000000000000000000000000000000000000000000000000000000000000000000000000000000000000000000000000000000000000000000000000000000000000000000000FF7FFF7FFF7FFF7FFF7F007CFF7FFF7FFF7FE003E003E003E003E003E003E003E003E003E003E003
310
E003E0030000000000000000000000000000E003000000000000000000000000FF7FE003FF7FFF7F007CFF7FFF7FFF7FE0030000000000000000000000000000000000000000E00300000000000000000000000000000000FF7FE003FF7FFF7FFF7F007CFF7FFF7FFF7FFF7F00000000000000000000000000000000000000
310
0000000000000000000000000000000000000000000000000000000000000000000000000000000000000000000000E003000000000000000000000000000000000000000000000000000000000000000000000000000000000000000000000000000000000000000000000000000000000000000000000000000000000000
310
0000000000000000000000000000000000000000000000000000000000000000000000000000000000000000000000000000FF7FFF7FFF7FFF7FFF7F007CFF7FFF7FFF7FFF7F000000000000000000000000000000000000E003000000000000000000000000000000000000E003000000000000000000000000FF7FFF7FFF
310
7FFF7F007CFF7FFF7FFF7FFF7F0000000000000000000000000000000000000000E00300000000000000000000000000000000FF7FFF7FFF7FFF7FFF7F007CFF7FFF7FFF7FFF7F0000000000000000000000000000000000000000000000000000000000000000000000000000000000000000000000000000000000000000
310
00000000000000000000E00300000000000000000000000000000000000000000000000000000000000000000000000000000000000000000000000000000000000000000000000000000000000000000000000000000000000000000000000000000000000000000000000000000000000000000000000000000000000000
310
000000000000000000000000000000FF7FFF7FFF7FFF7F007CFF7FFF7FFF7FFF7F000000000000000000000000000000000000E003000000000000000000000000000000000000E003000000000000000000000000FF7FFF7FFF7FFF7F007CFF7FFF7FFF7FFF7F0000000000000000000000000000000000000000E0030000
310
00000000000000000000000000000000FF7FFF7FFF7FFF7F007CFF7FFF7FFF7FFF7F000000000000000000000000000000000000000000000000000000000000000000000000000000000000000000000000000000000000000000000000000000000000E00300000000000000000000000000000000000000000000000000
310
000000000000000000000000000000000000000000000000000000000000000000000000000000000000000000000000000000000000000000000000000000000000000000000000000000000000000000000000000000000000000000000000000000000000000000FF7FFF7F00000000007C0000FF7FFF7F000000000000
310
0000000000000000000000000000E003000000000000000000000000000000000000E003000000000000000000000000FF7FFF7F00000000007C00000000FF7FFF7F0000000000000000000000000000000000000000E003000000000000000000000000000000000000FF7FFF7F00000000007C0000FF7FFF7F0000000000
310
000000000000000000000000000000000000000000000000000000000000000000000000000000000000000000000000000000000000000000000000000000E0030000000000000000000000000000000000000000000000000000000000000000000000000000000000000000000000000000000000000000000000000000
310
0000000000000000000000000000000000000000000000000000000000000000000000000000000000000000000000000000000000000000000000000000000000000000FF7FFF7F00000000007C0000FF7FFF7F0000000000000000000000000000000000000000E003000000000000000000000000000000000000E00300
310
0000000000000000000000FF7FFF7F00000000007C00000000FF7FFF7F0000000000000000000000000000000000000000E003000000000000000000000000000000000000FF7FFF7F00000000007C0000FF7FFF7F000000000000000000000000000000000000000000000000000000000000000000000000000000000000
310
0000000000000000000000000000000000000000000000000000E003000000000000000000000000000000000000000000000000000000000000000000000000000000000000000000000000000000000000000000000000000000000000000000000000000000000000000000000000000000000000000000000000000000
310
00000000000000000000000000000000000000000000000000000000000000FF7FFF7F00000000007C0000FF7FFF7F0000000000000000000000000000000000000000E003000000000000000000000000000000000000E003000000000000000000000000FF7FFF7F00000000007C00000000FF7FFF7F0000000000000000
310
000000000000000000000000E003000000000000000000000000000000000000FF7FFF7F00000000007C0000FF7FFF7F0000000000000000000000000000000000000000000000000000000000000000000000000000000000000000000000000000000000000000000000000000000000000000E003000000000000000000
310
00000000000000000000000000000000000000000000000000000000000000000000000000000000000000000000000000000000000000000000000000000000000000000000000000000000000000000000000000000000000000000000000000000000000000000000000000000000000000000000000000FF7FFF7F0000
310
0000007C0000FF7FFF7F0000000000000000000000000000000000000000E003000000000000000000000000000000000000E003000000000000000000000000FF7FFF7F00000000007C00000000FF7FFF7F0000000000000000000000000000000000000000E003000000000000000000000000000000000000FF7FFF7F00
310
000000007C0000FF7FFF7F0000000000000000000000000000000000000000000000000000000000000000000000000000000000000000000000000000000000000000000000000000000000000000E00300000000000000000000000000000000000000000000000000000000000000000000000000000000000000000000
310
000000000000000000000000000000000000000000000000000000000000000000000000000000000000000000000000000000000000000000000000000000000000000000000000000000000000000000000000FF7FFF7F00000000007C0000FF7FFF7F0000000000000000000000000000000000000000E0030000000000
310
00000000000000000000000000E003000000000000000000000000FF7FFF7FFF7F0000007C0000FF7FFF7FFF7F0000000000000000000000000000000000000000E003000000000000000000000000000000000000FF7FFF7F00000000007C0000FF7FFF7F0000000000000000000000000000000000000000000000000000
310
000000000000000000000000000000000000000000000000000000000000000000000000000000000000E0030000000000000000000000000000000000000000000000000000000000000000000000000000000000000000000000000000000000000000000000000000000000000000000000000000000000000000000000
310
0000000000000000000000000000000000000000000000000000000000000000000000000000000000000000000000FF7FFF7FFF7FFF7F007CFF7FFF7FFF7F0000000000000000000000000000000000000000E0030000000000000000E003E003E003E003E003E003E003E003E003E003E003FF7FFF7FFF7FFF7F0000007C
310
0000FF7FFF7FFF7FFF7FFF7FFF7FFF7FFF7FFF7FFF7FFF7FFF7FFF7FE003000000000000000000000000000000000000FF7FFF7F0000FF7F007CFF7FFF7FFF7F000000000000000000000000000000000000000000000000000000000000000000000000000000000000000000000000000000000000000000000000000000
310
0000000000E003000000000000000000000000000000000000000000000000000000000000000000000000000000000000000000000000000000000000000000000000000000000000000000000000000000000000000000000000000000000000000000000000000000000000000000000000000000000000000000000000
310
00000000000000000000FF7FFF7FFF7FFF7F007CFF7FFF7FFF7F0000000000000000000000000000000000000000E003000000000000000000000000E0030000FF7FFF7FFF7FFF7FFF7FFF7FFF7FFF7FFF7FFF7FFF7FFF7F007CFF7FFF7FFF7FFF7FFF7FFF7FFF7FFF7FFF7FFF7FFF7FFF7FFF7FFF7FFF7F00000000000000
310
0000000000000000000000FF7FFF7FFF7FFF7F007CFF7FFF7FFF7F0000000000000000000000000000000000000000000000000000000000000000000000000000000000000000000000000000000000000000000000000000000000000000E003000000000000000000000000000000000000000000000000000000000000
310
00000000000000000000000000000000000000000000000000000000000000000000000000000000000000000000000000000000000000000000000000000000000000000000000000000000000000000000000000000000000000000000000000000000FF7FFF7FFF7F0000007C0000FF7FFF7F0000000000000000000000
310
000000000000000000E003000000000000E003E003E003E0030000FF7FFF7F000000000000FF7FFF7F000000000000FF7FFF7F007CFF7FFF7FFF7F00000000000000000000FF7FFF7FFF7F00000000FF7FFF7F000000000000000000000000000000000000FF7FFF7FFF7F0000007C0000FF7FFF7F00000000000000000000
310
00000000000000000000000000000000000000000000000000000000000000000000000000000000000000000000000000000000000000000000E00300000000000000000000000000000000000000000000000000000000000000000000000000000000000000000000000000000000000000000000000000000000000000
310
000000000000000000000000000000000000000000000000000000000000000000000000000000000000000000000000000000000000000000000000000000FF7FFF7F00000000007C0000FF7FFF7F0000000000000000000000000000000000000000E003000000000000E0030000E003E003007C007C007C007C007C007C
310
007C007C007C007C007C007C007C007C007C007C007C007C007C007C007C007C007C007C007C007C007C007C007C007C007C0000000000000000000000000000FF7FFF7F00000000007C0000FF7FFF7F0000000000000000000000000000000000000000000000000000000000000000000000000000000000000000000000
310
000000000000000000000000000000000000000000E0030000000000000000000000000000000000000000000000000000000000000000000000000000000000000000000000000000000000000000000000000000000000000000000000000000000000000000000000000000000000000000000000000000000000000000
310
0000000000000000000000000000000000000000000000000000FF7FFF7F00000000007C0000FF7FFF7F0000000000000000000000000000000000000000E003000000000000E003E003E003E0030000FF7FFF7F000000000000FF7FFF7F00000000000000000000007C00000000000000000000000000000000FF7FFF7FFF
310
7F00000000FF7FFF7F000000000000000000000000000000000000FF7FFF7F00000000007C0000FF7FFF7F0000000000000000000000000000000000000000000000000000000000000000000000000000000000000000000000000000000000000000000000000000000000000000E0030000000000000000000000000000
310
0000000000000000000000000000000000000000000000000000000000000000000000000000000000000000000000000000000000000000000000000000000000000000000000000000000000000000000000000000000000000000000000000000000000000000000000000000000000000000FF7FFF7FFF7F0000007C00
310
00FF7F00000000000000000000000000000000000000000000E003000000000000000000000000E0030000FF7FFF7F000000000000FF7FFF7F00000000000000000000007C00000000000000000000000000000000FF7FFF7FFF7F00000000FF7FFF7F000000000000000000000000000000000000FF7FFF7FFF7F0000007C
310
0000FF7F00000000000000000000000000000000000000000000000000000000000000000000000000000000000000000000000000000000000000000000000000000000000000000000E003000000000000000000000000000000000000000000000000000000000000000000000000000000000000000000000000000000
310
000000000000000000000000000000000000000000000000000000000000000000000000000000000000000000000000000000000000000000000000000000000000000000000000000000000000000000FF7FFF7FFF7F007CFF7FFF7F00000000000000000000000000000000000000000000E0030000000000000000E003
310
E003E003E003E003E003E003E003E003E003E003FF7FFF7FFF7FFF7FFF7F007CFF7FFF7FFF7FFF7FFF7FFF7FFF7FFF7FFF7FFF7FFF7FFF7FFF7FFF7FFF7F0000000000000000000000000000000000000000FF7FFF7FFF7F007CFF7FFF7F000000000000000000000000000000000000000000000000000000000000000000
310
00000000000000000000000000000000000000000000000000000000000000000000000000E00300000000000000000000000000000000000000000000000000000000000000000000000000000000000000000000000000000000000000000000000000000000000000000000000000000000000000000000000000000000
310
0000000000000000000000000000000000000000000000000000000000000000000000000000000000000000FF7FFF7FFF7F007CFF7FFF7F00000000000000000000000000000000000000000000E00300000000000000000000000000000000FF7FFF7FFF7FFF7FFF7FFF7FFF7FFF7FFF7FFF7FFF7FFF7F007CFF7FFF7FFF
310
7FFF7FFF7FFF7FFF7FFF7FFF7FFF7FFF7FFF7FFF7FFF7FFF7F0000000000000000000000000000000000000000FF7FFF7FFF7F007CFF7FFF7FFF7F0000000000000000000000000000000000000000000000000000000000000000000000000000000000000000000000000000000000000000000000000000000000000000
310
E0030000000000000000000000000000000000000000000000000000000000000000000000000000000000000000000000000000000000000000000000000000000000000000000000000000000000000000000000000000000000000000000000000000000000000000000000000000000000000000000000000000000000
310
0000000000FF7FFF7FFF7F0000007CFF7FFF7F00000000000000000000000000000000000000000000E00300000000000000000000000000000000FF7FFF7FFF7FFF7F00000000000000000000FF7FFF7FFF7F007C0000FF7FFF7F00000000000000000000000000000000FF7FFF7FFF7F0000000000000000000000000000
310
0000000000000000FF7FFF7FFF7F007CFF7FFF7FFF7F0000000000000000000000000000000000000000000000000000000000000000000000000000000000000000000000000000000000000000000000000000000000000000E0030000000000000000000000000000000000000000000000000000000000000000000000
310
0000000000000000000000000000000000000000000000000000000000000000000000000000000000000000000000000000000000000000000000000000000000000000000000000000000000000000000000000000000000000000000000FF7FFF7FFF7FFF7F007CFF7FFF7F000000000000000000000000000000000000
310
00000000E00300000000000000000000000000000000FF7FFF7FFF7FFF7F00000000000000000000FF7FFF7FFF7F007CFF7FFF7FFF7F00000000000000000000000000000000FF7FFF7FFF7F00000000000000000000000000000000000000000000FF7FFF7FFF7F007CFF7FFF7FFF7FFF7F00000000000000000000000000
310
0000000000000000000000000000000000000000000000000000000000000000000000000000000000000000000000000000000000E003000000000000000000000000000000000000000000000000000000000000000000000000000000000000000000000000000000000000000000000000000000000000000000000000
310
00000000000000000000000000000000000000000000000000000000000000000000000000000000000000000000000000000000000000000000FF7FFF7FFF7FFF7F007CFF7FFF7F00000000000000000000000000000000000000000000E003000000000000000000000000000000000000FF7FFF7FFF7F00000000000000
310
000000FF7FFF7FFF7F007CFF7FFF7FFF7F00000000000000000000000000000000FF7FFF7FFF7F00000000000000000000000000000000000000000000FF7FFF7FFF7F007CFF7FFF7FFF7FFF7F0000000000000000000000000000000000000000000000000000000000000000000000000000000000000000000000000000
310
00000000000000000000000000000000E00300000000000000000000000000000000000000000000000000000000000000000000000000000000000000000000000000000000000000000000000000000000000000000000000000000000000000000000000000000000000000000000000000000000000000000000000000
310
00000000000000000000000000000000000000FF7FFF7FFF7FFF7F0000007CFF7FFF7F00000000000000000000000000000000000000000000E00300000000000000000000000000000000000000000000000000000000000000000000FF7FFF7F0000007C0000FF7FFF7F00000000000000000000000000000000FF7FFF7F
310
FF7F00000000000000000000000000000000000000000000FF7FFF7F0000007CFF7FFF7FFF7FFF7FFF7F00000000000000000000000000000000000000000000000000000000000000000000000000000000000000000000000000000000000000000000000000000000E00300000000000000000000000000000000000000
310
00000000000000000000000000000000000000000000000000000000000000000000000000000000000000000000000000000000000000000000000000000000000000000000000000000000000000000000000000000000000000000000000000000000000000000000000000FF7FFF7FFF7FFF7F0000007CFF7FFF7F0000
310
0000000000000000000000000000000000000000E00300000000000000000000000000000000000000000000000000000000000000000000FF7FFF7F0000007C0000FF7FFF7F00000000000000000000000000000000FF7FFF7FFF7F00000000000000000000000000000000000000000000FF7FFF7F0000007CFF7FFF7FFF
310
7FFF7FFF7F00000000000000000000000000000000000000000000000000000000000000000000000000000000000000000000000000000000000000000000000000000000E0030000000000000000000000000000000000000000000000000000000000000000000000000000000000000000000000000000000000000000
310
00000000000000000000000000000000000000000000000000000000000000000000000000000000000000000000000000000000000000000000000000000000000000000000FF7FFF7FFF7FFF7FFF7F0000007CFF7FFF7F00000000000000000000000000000000000000000000E003000000000000000000000000000000
310
00000000000000000000000000000000000000FF7FFF7F0000007C0000FF7FFF7F00000000000000000000000000000000FF7FFF7FFF7F00000000000000000000000000000000000000000000FF7FFF7F0000007CFF7FFF7FFF7FFF7FFF7FFF7F000000000000000000000000000000000000000000000000000000000000
310
0000000000000000000000000000000000000000000000000000000000000000E003000000000000000000000000000000000000000000000000000000000000000000000000000000000000000000000000000000000000000000000000000000000000000000000000000000000000000000000000000000000000000000
310
000000000000000000000000000000000000000000000000000000000000000000FF7FFF7FFF7FFF7FFF7F0000007CFF7FFF7F000000000000000000000000000000000000E003E003E00300000000000000000000000000000000000000000000000000000000000000000000FF7FFF7F0000007C0000FF7FFF7F00000000
310
000000000000000000000000FF7FFF7FFF7F00000000000000000000000000000000000000000000FF7FFF7F0000007CFF7FFF7FFF7FFF7FFF7FFF7F0000000000000000000000000000000000000000000000000000000000000000000000000000000000000000000000000000000000000000000000000000E003000000
310
000000000000000000000000000000000000000000000000000000000000000000000000000000000000000000000000000000000000000000000000000000000000000000000000000000000000000000000000000000000000000000000000000000000000000000000000000000000000000000000000000000FF7FFF7F
310
FF7FFF7FFF7F0000007CFF7FFF7F000000000000000000000000000000000000E0030000E00300000000000000000000000000000000000000000000000000000000000000000000FF7FFF7F0000007C0000FF7FFF7F00000000000000000000000000000000FF7FFF7FFF7F00000000000000000000000000000000000000
310
000000FF7FFF7F0000007CFF7FFF7F0000FF7FFF7F00000000000000000000000000000000000000000000000000000000000000000000000000000000000000000000000000000000000000000000000000000000E00300000000000000000000000000000000000000000000000000000000000000000000000000000000
310
00000000000000000000000000000000000000000000000000000000000000000000000000000000000000000000000000000000000000000000000000000000000000000000000000000000000000000000000000000000FF7FFF7FFF7FFF7F0000007CFF7FFF7F000000000000000000000000000000000000E0030000E0
310
0300000000000000000000000000000000000000000000000000000000000000000000FF7FFF7F0000007C0000FF7FFF7F000000000000000000000000000000000000FF7FFF7F00000000000000000000000000000000000000000000FF7FFF7F0000007CFF7FFF7F0000FF7FFF7F00000000000000000000000000000000
310
000000000000000000000000000000000000000000000000000000000000000000000000000000000000000000000000E0030000000000000000000000000000000000000000000000000000000000000000000000000000000000000000000000000000000000000000000000000000000000000000000000000000000000
310
00000000000000000000000000000000000000000000000000000000000000000000000000000000000000000000000000000000000000FF7FFF7F0000007CFF7FFF7F000000000000000000000000000000000000E0030000E00300000000000000000000000000000000000000000000000000000000000000000000FF7F
310
FF7F0000007C0000FF7FFF7F0000000000000000000000000000000000000000000000000000000000000000000000000000000000000000FF7FFF7F0000007CFF7FFF7F0000000000000000000000000000000000000000000000000000000000000000000000000000000000000000000000000000000000000000000000
310
0000000000000000000000E003000000000000000000000000000000000000000000000000000000000000000000000000000000000000000000000000000000000000000000000000000000000000000000000000000000000000000000000000000000000000000000000000000000000000000000000000000000000000
310
000000000000000000000000000000000000FF7FFF7F0000007CFF7FFF7F000000000000000000000000000000000000E0030000E00300000000000000000000000000000000000000000000000000000000000000000000FF7FFF7F0000007C0000FF7FFF7F00000000000000000000000000000000000000000000000000
310
00000000000000000000000000000000000000FF7FFF7F0000007CFF7FFF7F00000000000000000000000000000000000000000000000000000000000000000000000000000000000000000000000000000000000000000000000000000000000000000000E003000000000000000000000000000000000000000000000000
310
000000000000000000000000000000000000000000000000000000000000000000000000000000000000000000000000000000000000000000000000000000000000000000000000000000000000000000000000000000000000000000000000000000000000000000000000FF7FFF7F0000007CFF7FFF7F00000000000000
310
0000000000000000000000E003E003E00300000000000000000000000000000000000000000000000000000000000000000000FF7FFF7F0000007C0000FF7FFF7F0000000000000000000000000000000000000000000000000000000000000000000000000000000000000000FF7FFF7F0000007CFF7FFF7F000000000000
310
00000000000000000000000000000000000000000000000000000000000000000000000000000000000000000000000000000000000000000000000000000000E00300000000000000000000000000000000000000000000000000000000000000000000000000000000000000000000000000000000000000000000000000
310
0000000000000000000000000000000000000000000000000000000000000000000000000000000000000000000000000000000000000000000000000000000000000000000000FF7FFF7F0000007CFF7FFF7F00000000000000000000000000000000000000000000E0030000000000000000000000000000000000000000
310
0000000000000000000000000000FF7FFF7F0000007C0000FF7FFF7F0000000000000000000000000000000000000000000000000000000000000000000000000000000000000000FF7FE0030000007CFF7FFF7F00000000000000000000000000000000000000000000000000000000000000000000000000000000000000
310
000000000000000000000000000000000000000000000000000000E0030000000000000000000000000000000000000000000000000000000000000000000000000000000000000000000000000000000000000000000000000000000000000000000000000000000000000000000000000000000000000000000000000000
310
00000000000000000000000000000000000000000000000000000000000000000000FF7FFF7F0000007CFF7FFF7F00000000000000000000000000000000000000000000E00300000000000000000000000000000000000000000000000000000000000000000000FF7FFF7F0000007C0000FF7FFF7F000000000000000000
310
000000000000000000000000000000000000000000000000000000E003E003E003E003E003E003E003E003E003E003E003E003E003E003E003000000000000000000000000000000000000000000000000000000000000000000000000000000000000000000000000000000000000000000000000E0030000000000000000
310
00000000000000000000000000000000000000000000000000000000000000000000000000000000000000000000000000000000000000000000000000000000000000000000000000000000000000000000000000000000000000000000000000000000000000000000000000000000000000000000000000000000FF7FFF
310
7F0000007CFF7FFF7F00000000000000000000000000000000000000000000E00300000000000000000000000000000000000000000000000000000000000000000000FF7FFF7F0000007C0000FF7FFF7F000000000000000000000000000000000000000000000000000000000000000000000000E003E003E003E003FF7F
310
FF7F0000007CFF7FE00300000000000000000000000000000000000000000000000000000000000000000000000000000000000000000000000000000000000000000000000000000000000000000000E003000000000000000000000000000000000000000000000000000000000000000000000000000000000000000000
310
000000000000000000000000000000000000000000000000000000000000000000000000000000000000000000000000000000000000000000000000000000000000000000000000000000000000000000000000000000FF7FFF7F0000007CFF7FFF7F00000000000000000000000000000000000000000000E00300000000
310
000000000000000000000000000000000000000000000000000000000000FF7FFF7F0000007C0000FF7FFF7F000000000000000000000000000000000000000000000000000000000000000000000000E00300000000E003FF7FFF7F0000007CFF7FE003000000000000000000000000000000000000000000000000000000
310
00000000000000000000000000000000000000000000000000000000000000000000000000000000000000E00300000000000000000000000000000000000000000000000000000000000000000000000000000000000000000000000000000000000000000000000000000000000000000000000000000000000000000000
310
0000000000000000000000000000000000000000000000000000000000000000000000000000000000000000000000000000FF7FFF7F0000007CFF7FFF7F00000000000000000000000000000000000000000000E00300000000000000000000000000000000000000000000000000000000000000000000FF7FFF7F000000
310
7C0000FF7FFF7F000000000000000000000000000000000000000000000000000000000000000000000000E003E003E003E003FF7FFF7F0000007CFF7FFF7F00000000000000000000000000000000000000000000000000000000000000000000000000000000000000000000000000000000000000000000000000000000
310
000000000000E0030000000000000000000000000000000000000000000000000000000000000000000000000000000000000000000000000000000000000000000000000000000000000000000000000000000000000000000000000000000000000000000000000000000000000000000000000000000000000000000000
310
00000000000000000000000000FF7FFF7F0000007CFF7FFF7F00000000000000000000000000000000000000000000E00300000000000000000000000000000000000000000000000000000000000000000000FF7FFF7F0000007C0000FF7FFF7F000000000000000000000000000000000000000000000000000000000000
310
0000000000000000000000000000FF7FFF7F0000007CFF7FFF7F00000000000000000000000000000000000000000000000000000000000000000000000000000000000000000000000000000000000000000000000000000000000000000000E0030000000000000000000000000000000000000000000000000000000000
310
00000000000000000000000000000000000000000000000000000000000000000000000000000000000000000000000000000000000000000000000000000000000000000000000000000000000000000000000000000000000000000000000000000000000000FF7FFF7F0000007CFF7FFF7F000000000000000000000000
310
00000000000000000000E00300000000000000000000000000000000000000000000000000000000000000000000FF7FFF7F0000007C0000FF7FFF7F0000000000000000000000000000000000000000000000000000000000000000000000000000000000000000FF7FFF7F0000007CFF7FFF7F0000000000000000000000
310
0000000000000000000000000000000000000000000000000000000000000000000000000000000000000000000000000000000000000000000000E003000000000000000000000000000000000000000000000000000000000000000000000000000000000000000000000000000000000000000000000000000000000000
310
000000000000000000000000000000000000000000000000000000000000000000000000000000000000000000000000000000000000000000000000000000000000FF7FFF7F0000007CFF7FFF7F00000000000000000000000000000000000000000000E00300000000000000000000000000000000000000000000000000
310
000000000000000000FF7FFF7F0000007C0000FF7FFF7F0000000000000000000000000000000000000000000000000000000000000000000000000000000000000000FF7FFF7F0000007CFF7FFF7F000000000000000000000000000000000000000000000000000000000000000000000000000000000000000000000000
310
00000000000000000000000000000000000000000000E00300000000000000000000000000000000000000000000000000000000000000000000000000000000000000000000000000000000000000000000000000000000000000000000000000000000000000000000000000000000000000000000000000000000000000
310
0000000000000000000000000000000000000000000000000000000000FF7FFF7F0000007CFF7FFF7F00000000000000000000000000000000000000000000E00300000000000000000000000000000000000000000000000000000000000000000000FF7FFF7FFF7F007CFF7FFF7FFF7F0000000000000000000000000000
310
000000000000000000000000000000000000000000000000000000000000FF7FFF7F0000007CFF7FFF7F00000000000000000000000000000000000000000000000000000000000000000000000000000000000000000000000000000000000000000000000000000000000000000000E00300000000000000000000000000
310
0000000000000000000000000000000000000000000000000000000000000000000000000000000000000000000000000000000000000000000000000000000000000000000000000000000000000000000000000000000000000000000000000000000000000000000000000000000000000000000000FF7FFF7F0000007C
310
FF7FFF7F00000000000000000000000000000000000000000000E00300000000000000000000000000000000000000000000000000000000000000000000FF7FFF7FFF7F007CFF7FFF7FFF7F0000000000000000000000000000000000000000000000000000000000000000000000000000000000000000FF7FFF7F000000
310
7CFF7FFF7F00000000000000000000000000000000000000000000000000000000000000000000000000000000000000000000000000000000000000000000000000000000000000000000E0030000000000000000000000000000000000000000000000000000000000000000000000000000000000000000000000000000
310
00000000000000000000000000000000000000000000000000000000000000000000000000000000000000000000000000000000000000000000000000000000000000000000000000000000000000000000FF7FFF7F0000007CFF7FFF7F00000000000000000000000000000000000000000000E003000000000000000000
310
00000000000000000000000000000000000000000000000000FF7FFF7F0000007C0000FF7FFF7F0000000000000000000000000000000000000000000000000000000000000000000000000000000000000000FF7FFF7F0000007CFF7FFF7F0000000000000000000000000000000000000000000000000000000000000000
310
0000000000000000000000000000000000000000000000000000000000000000000000000000E003000000000000000000000000000000000000000000000000000000000000000000000000000000000000000000000000000000000000000000000000000000000000000000000000000000000000000000000000000000
310
00000000000000000000000000000000000000000000000000000000000000000000000000000000000000FF7FFF7FFF7F007C0000FF7FFF7F00000000000000000000000000000000000000000000E00300000000000000000000000000000000000000000000000000000000000000000000FF7FFF7F0000007C0000FF7F
310
FF7F0000000000000000000000000000000000000000000000000000000000000000000000000000000000000000FF7FFF7F0000E003007CFF7FFF7F00000000000000000000000000000000000000000000000000000000000000000000000000000000000000000000000000000000000000000000000000000000000000
310
00E00300000000000000000000000000000000000000000000000000000000000000000000000000000000000000000000000000000000000000000000000000000000000000000000000000000000000000000000000000000000000000000000000000000000000000000000000000000000000000000000000000000000
310
00000000FF7FFF7FFF7F0000007CFF7FFF7FFF7F00000000000000000000000000000000000000000000E00300000000000000000000000000000000000000000000000000000000000000000000FF7FFF7F0000007C0000FF7FFF7F0000000000000000000000000000000000000000000000000000000000000000000000
310
0000000000000000000000FF7FFF7FE003007CFF7FFF7FFF7F000000000000000000000000000000000000000000000000000000000000000000000000000000000000000000000000000000000000000000000000000000000000E00300000000000000000000000000000000000000000000000000000000000000000000
310
00000000000000000000000000000000000000000000000000000000000000000000000000000000000000000000000000000000000000000000000000000000000000000000000000000000000000000000000000000000000000000000FF7FFF7FFF7F0000007CFF7FFF7F00000000000000000000000000000000000000
310
0000000000E00300000000000000000000000000000000000000000000000000000000000000000000FF7FFF7F0000007C0000FF7FFF7F000000000000000000000000000000000000000000000000000000000000000000000000000000000000000000000000FF7FE003007C0000FF7FFF7F000000000000000000000000
310
000000000000000000000000000000000000000000000000000000000000000000000000000000000000000000000000000000000000E0030000000000000000000000000000000000000000000000000000000000000000000000000000000000000000000000000000000000000000000000000000000000000000000000
310
00000000000000000000000000000000000000000000000000000000000000000000000000000000000000000000000000000000000000FF7FFF7FFF7F007C007CFF7FFF7F0000000000000000000000000000000000000000000000000000E003000000000000000000000000000000000000000000000000000000000000
310
00000000FF7FFF7F0000007C0000FF7FFF7F000000000000000000000000000000000000000000000000000000000000000000000000000000000000000000000000FF7FE003FF7F007C007CFF7FFF7FFF7F000000000000000000000000000000000000000000000000000000000000000000000000000000000000000000
310
7C0000000000000000007C000000000000E00300000000000000000000000000000000000000000000000000000000000000000000000000000000000000000000000000000000000000000000000000000000FF7FFF7FFF7FFF7FFF7FFF7FFF7FFF7FFF7FFF7FFF7F0000000000000000000000000000FF7FFF7FFF7FFF7F
310
FF7FFF7FFF7FFF7FFF7FFF7FFF7FFF7FFF7FFF7FFF7F007C00000000FF7FFF7F0000000000000000000000000000000000000000000000000000E00300000000000000000000000000000000000000000000000000000000000000000000FF7FFF7FFF7F007CFF7FFF7FFF7F00000000000000000000000000000000000000
310
0000000000000000000000000000000000000000000000000000000000FF7FE003000000000000007CFF7FFF7FFF7FFF7FFF7FFF7FFF7FFF7FFF7FFF7FFF7FFF7FFF7FFF7F0000000000000000000000000000FF7FFF7FFF7FE003FF7FFF7FFF7FFF7FE003FF7FFF7F0000E003000000000000000000000000000000000000
310
000000000000000000000000000000000000000000000000000000000000000000000000000000000000FF7FFF7FFF7FFF7FFF7FFF7FFF7FFF7FFF7FFF7FFF7FFF7FFF7FFF7FFF7FFF7FFF7FFF7FFF7FFF7FFF7FFF7FFF7FFF7FFF7FFF7FFF7FFF7FFF7FFF7FFF7FFF7FFF7F0000007C000000000000FF7FFF7F0000000000
310
000000000000000000000000000000000000000000E00300000000000000000000000000000000000000000000000000000000000000000000FF7FFF7FFF7F007CFF7FFF7FFF7F0000000000000000000000000000000000000000000000000000000000000000000000000000000000000000000000000000E003FF7F0000
310
00000000007C0000FF7FFF7FFF7FFF7FFF7FFF7FFF7FFF7FFF7FFF7FFF7FFF7FFF7FFF7FFF7FFF7FFF7FFF7FFF7FFF7FFF7F007CE003FF7FFF7FFF7FFF7FE003FF7FFF7FFF7FE00300000000000000000000000000000000000000000000000000000000000000000000000000000000000000000000000000000000000000
310
0000000000FF7FFF7FFF7FFF7FFF7FFF7FFF7FFF7FFF7FFF7FFF7FFF7FFF7FFF7FFF7FFF7F007C007C007C007C007C007C007C007C007C007C007C007C007C007C007C007C007C007C00000000FF7FFF7FFF7F00000000000000000000000000000000000000000000000000000000E0030000000000000000000000000000
310
0000000000000000000000000000000000000000FF7FFF7FFF7F007CFF7FFF7FFF7F0000000000000000000000000000000000000000000000000000000000000000000000000000000000000000000000000000E003FF7FFF7FFF7F00000000007C007C007C007C007C007C007C007C007C007C007C007C007C007C007C00
310
7C007C007CFF7FFF7FFF7FFF7FFF7FE003FF7FFF7FFF7FFF7FE003FF7FFF7FFF7FFF7F000000000000000000000000000000000000000000000000000000000000000000000000000000000000000000000000000000000000000000000000FF7F007C007C007C007C007C007C007C007C007C007C007C007C007C007C007C
310
00000000FF7FFF7FFF7F0000000000000000000000000000000000000000000000000000FF7FFF7FFF7FFF7F000000000000000000000000000000000000000000000000000000000000E00300000000000000000000000000000000000000000000000000000000000000000000FF7FFF7FFF7F007CFF7FFF7FFF7F000000
310
0000000000000000000000000000000000000000000000000000000000000000000000000000000000000000000000E0030000FF7FFF7FFF7FFF7F0000000000000000000000000000000000000000000000000000FF7FFF7F000000000000007C007C007C007C007CE003007C007C007C007CE003007C007C007C007C0000
310
00000000000000000000000000000000000000000000000000000000000000000000000000000000000000000000000000000000000000000000FF7FFF7F0000000000000000000000000000000000000000000000000000000000000000FF7FFF7FFF7FFF7F000000000000FF7FFF7FFF7FFF7FFF7FFF7FFF7FFF7FFF7FFF
310
7FFF7F00000000000000000000000000000000000000000000000000000000000000000000E003000000000000000000000000000000000000000000000000000000000000000000000000FF7FFF7F0000FF7FFF7FFF7F00000000000000000000000000000000000000000000000000000000000000000000000000000000
310
00000000000000000000E003000000000000FF7FFF7FFF7FFF7FFF7FFF7FFF7FFF7FFF7FFF7FFF7F000000000000FF7FFF7FFF7F00000000000000000000000000000000E0030000000000000000E00300000000FF7FFF7F000000000000000000000000000000000000000000000000000000000000000000000000000000
310
000000000000000000000000000000000000000000FF7FE003E003E003E003E003E003E003E003E003E003E003E003E003E003E003E003E003E003E003E003E003E003E003E003E003E003E003E003E003E003E003E003E003E003E003E003E003E003E003E003E003E003E003E003E003E003E003E003E003E003E003E003
310
E003E003E0030000000000000000000000000000000000000000000000000000000000000000FF7FFF7FFF7FFF7FFF7F00000000000000000000000000000000000000000000000000000000000000000000000000000000000000000000000000000000E00300000000000000000000FF7FFF7FFF7FFF7FFF7FFF7FFF7FFF
310
7FFF7FFF7FFF7FFF7FFF7FFF7FFF7FFF7FFF7FFF7FFF7FFF7FFF7FFF7FFF7FE003FF7FFF7FFF7FFF7FE003FF7FFF7FFF7FFF7F0000000000000000000000000000000000000000000000000000000000000000000000000000000000000000000000000000000000000000000000000000FF7FFF7FFF7FFF7FFF7FFF7FFF7F
310
FF7FFF7FFF7FFF7FFF7FFF7FFF7FFF7FFF7FFF7FFF7FFF7FFF7FFF7FFF7FFF7FFF7F000000000000000000000000000000000000000000000000000000000000000000000000000000000000000000000000000000000000000000000000000000000000000000000000000000000000000000000000000000000000000000
310
000000FF7FFF7FFF7FFF7F00000000000000000000000000000000000000000000000000000000000000000000000000000000000000000000000000000000E00300000000000000000000000000000000000000000000000000000000FF7FFF7FFF7FFF7FFF7FFF7FFF7FFF7FFF7FFF7FFF7FFF7FFF7FFF7FE003FF7FFF7F
310
FF7FFF7FE003FF7FFF7FFF7FFF7F0000000000000000000000000000000000000000000000000000000000000000000000000000000000000000000000000000000000000000000000000000000000000000000000000000000000000000000000000000000000000000000000000000000000000000000000000000000000
310
00000000000000000000000000000000000000000000000000000000000000000000000000000000000000000000000000000000000000000000000000000000000000000000000000000000000000000000000000000000000000000000000000000000000000000000000000000000000000000000000000000000000000
310
0000000000000000000000000000000000000000000000000000E0030000000000000000000000000000000000000000000000000000000000000000000000000000000000000000000000000000000000000000E0030000000000000000E00300000000000000000000000000000000000000000000000000000000000000
310
00000000000000000000000000000000000000000000000000000000000000000000000000000000000000000000000000000000000000000000000000000000000000000000000000000000000000000000000000000000000000000000000000000000000000000000000000000000000000000000000000000000000000
310
0000000000000000000000000000000000000000000000000000000000000000000000000000000000000000000000000000000000000000000000000000000000000000000000000000000000000000000000000000000000000000000000000000000000000000000000000000000000000000E003E003E003E003E003E0
310
03E003E003E003E003E003E003E003E003E003E003E003E003E003E003E003E003E003E003E003E003E003E003E003E0030000000000000000E0030000000000000000000000000000000000000000000000000000000000000000000000000000000000000000000000000000000000000000000000000000000000000000
310
00000000000000000000000000000000000000000000000000000000000000000000000000000000000000000000000000000000000000000000000000000000000000000000000000000000000000000000000000000000000000000000000000000000000000000000000000000000000000000000000000000000000000
310
00000000000000000000000000000000000000000000000000000000000000000000000000000000000000000000000000000000000000000000000000000000000000000000000000000000000000E00300000000000000000000000000000000000000000000E003E003E003E003E003E003000000000000000000000000
310
00000000000000000000E0030000000000000000E003000000000000000000000000000000000000000000000000000000000000000000000000000000000000000000000000000000000000000000000000000000000000000000000000000000000000000000000000000000000000000000000000000000000000000000
310
00000000000000000000000000000000000000000000000000000000000000000000000000000000000000000000000000000000000000000000000000000000000000000000000000000000000000000000000000000000000000000000000000000000000000000000000000000000000000000000000000000000000000
310
000000000000000000000000000000000000000000000000000000000000000000000000000000000000E00300000000000000000000000000000000000000000000E0030000000000000000E00300000000000000000000000000000000000000000000E0030000000000000000E003000000000000000000000000000000
310
00000000000000000000000000000000000000000000000000000000000000000000000000000000000000000000000000000000000000000000000000000000000000000000000000000000000000000000000000000000000000000000000000000000000000000000000000000000000000000000000000000000000000
310
00000000000000000000000000000000000000000000000000000000000000000000000000000000000000000000000000000000000000000000000000000000000000000000000000000000000000000000000000000000000000000000000000000000000000000000000000000000000000000000000000000000000000
310
0000000000E00300000000000000000000000000000000000000000000E003E003E003E003E003E0030000000000000000000000000000000000000000000000000000000000000000E00300000000000000000000000000000000000000000000000000000000000000000000000000000000000000000000000000000000
310
00000000000000000000000000000000000000000000000000000000000000000000000000000000000000000000000000000000000000000000000000000000000000000000000000000000000000000000000000000000000000000000000000000000000000000000000000000000000000000000000000000000000000
310
0000000000000000000000000000000000000000000000000000000000000000000000000000000000000000000000000000000000000000000000000000000000000000000000000000000000000000000000000000000000000000000000E003000000000000000000000000000000000000000000000000000000000000
310
000000000000000000000000000000000000000000000000000000000000000000000000E0030000000000000000000000000000000000000000000000000000000000000000000000000000000000000000000000000000000000000000000000000000000000000000000000000000000000000000000000000000000000
310
00000000000000000000000000000000000000000000000000000000000000000000000000000000000000000000000000000000000000000000000000000000000000000000000000000000000000000000000000000000000000000000000000000000000000000000000000000000000000000000000000000000000000
310
00000000000000000000000000000000000000000000000000000000000000000000000000000000000000000000000000000000000000000000E003E003E003E003E003E003E003E003E003E003E003E003E003E003E003E003E003E003E003E003E003E003E003E003E003E003E003E003E003E003E003E003E003E003E0
310
03000000000000000000000000000000000000000000000000000000000000000000000000000000000000000000000000000000000000000000000000000000000000000000000000000000000000000000000000000000000000000000000000000000000000000000000000000000000000000000000000000000000000
310
00000000000000000000000000000000000000000000000000000000000000000000000000000000000000000000000000000000000000000000000000000000000000000000000000000000000000000000000000000000000000000000000000000000000000000000000000000000000000000000000000000000000000
310
000000000000000000000000000000000000000000E00300000000000000000000000000000000000000000000000000000000E003E003E003E003E003E0030000000000000000000000000000000000000000000000000000E003000000000000000000000000000000000000000000000000000000000000000000000000
310
00000000000000000000000000000000000000000000000000000000000000000000000000000000000000000000000000000000000000000000000000000000000000000000000000000000000000000000000000000000000000000000000000000000000000000000000000000000000000000000000000000000000000
310
000000000000000000000000000000000000000000000000000000000000000000000000000000000000000000000000000000000000000000000000000000000000000000000000000000000000000000000000000000000000000000000000000000000000000000000000000000E0030000000000000000000000000000
310
0000000000000000000000000000E0030000000000000000E0030000000000000000000000000000000000000000000000000000E00300000000000000000000000000000000000000000000000000000000000000000000000000000000000000000000000000000000000000000000000000000000000000000000000000
310
00000000000000000000000000000000000000000000000000000000000000000000000000000000000000000000000000000000000000000000000000000000000000000000000000000000000000000000000000000000000000000000000000000000000000000000000000000000000000000000000000000000000000
310
0000000000000000000000000000000000000000000000000000000000000000000000000000000000000000000000000000000000000000000000000000000000000000000000000000000000000000000000000000000000000000000000000000000000000000E003E003E003E003E003E0030000000000000000000000
310
00000000000000000000000000000000000000000000000000000000000000000000000000000000000000000000000000000000000000000000000000000000000000000000000000000000000000000000000000000000000000000000000000000000000000000000000000000000000000000000000000000000000000
310
00000000000000000000000000000000000000000000000000000000000000000000000000000000000000000000000000000000000000000000000000000000000000000000000000000000000000000000000000000000000000000000000000000000000000000000000000000000000000000000000000000000000000
310
00000000000000000000000000000000000000000000000000000000000000000000000000000000000000000000000000000000000000000000000000000000000000000000000000000000000000000000000000000000000000000000000000000000000000000000000000000000000000000000000000000000000000
310
00000000000000000000000000000000000000000000000000000000000000000000000000000000000000000000000000000000000000000000000000000000000000000000000000000000000000000000000000000000000000000000000000000000000000000000000000000000000000000000000000000000000000
310
00000000000000000000000000000000000000000000000000000000000000000000000000000000000000000000000000000000000000000000000000000000000000000000000000000000000000000000000000000000000000000000000000000000000000000000000000000000000000000000000000000000000000
310
00000000000000000000000000000000000000000000000000000000000000000000000000000000000000000000000000000000000000000000000000000000000000000000000000000000000000000000000000000000000000000000000000000000000000000000000000000000000000000000000000000000000000
310
00000000000000000000000000000000000000000000000000000000000000000000000000000000000000000000000000000000000000000000000000000000000000000000000000000000000000000000000000000000000000000000000000000000000000000000000000000000000000000000000000000000000000
310
00000000000000000000000000000000000000000000000000000000000000000000000000000000000000000000000000000000000000000000000000000000000000000000000000000000000000000000000000000000000000000000000000000000000000000000000000000000000000000000000000000000000000
310
00000000000000000000000000000000000000000000000000000000000000000000000000000000000000000000000000000000000000000000000000000000000000000000000000000000000000000000000000000000000000000000000000000000000000000000000000000000000000000000000000000000000000
310
00000000000000000000000000000000000000000000000000000000000000000000000000000000000000000000000000000000000000000000000000000000000000000000000000000000000000000000000000000000000000000000000000000000000000000000000000000000000000000000000000000000000000
310
00000000000000000000000000000000000000000000000000000000000000000000000000000000000000000000000000000000000000000000000000000000000000000000000000000000000000000000000000000000000000000000000000000000000000000000000000000000000000000000000000000000000000
310
00000000000000000000000000000000000000000000000000000000000000000000000000000000000000000000000000000000000000000000000000000000000000000000000000000000000000000000000000000000000000000000000000000000000000000000000000000000000000000000000000000000000000
310
00000000000000000000000000000000000000000000000000000000000000000000000000000000000000000000000000000000000000000000000000000000000000000000000000000000000000000000000000000000000000000000000000000000000000000000000000000000000000000000000000000000000000
310
00000000000000000000000000000000000000000000000000000000000000000000000000000000000000000000000000000000000000000000000000000000000000000000000000000000000000000000000000000000000000000000000000000000000000000000000000000000000000000000000000000000000000
310
00000000000000000000000000000000000000000000000000000000000000000000000000000000000000000000000000000000000000000000000000000000000000000000000000000000000000000000000000000000000000000000000000000000000000000000000000000000000000000000000000000000000000
310
00000000000000000000000000000000000000000000000000000000000000000000000000000000000000000000000000000000000000000000000000000000000000000000000000000000000000000000000000000000000000000000000000000000000000000000000000000000000000000000000000000000000000
310
00000000000000000000000000000000000000000000000000000000000000000000000000000000000000000000000000000000000000000000000000000000000000000000000000000000000000000000000000000000000000000000000000000000000000000000000000000000000000000000000000000000000000
310
00000000000000000000000000000000000000000000000000000000000000000000000000000000000000000000000000000000000000000000000000000000000000000000000000000000000000000000000000000000000000000000000000000000000000000000000000000000000000000000000000000000000000
310
00000000000000000000000000000000000000000000000000000000000000000000000000000000000000000000000000000000000000000000000000000000000000000000000000000000000000000000000000000000000000000000000000000000000000000000000000000000000000000000000000000000000000
310
00000000000000000000000000000000000000000000000000000000000000000000000000000000000000000000000000000000000000000000000000000000000000000000000000000000000000000000000000000000000000000000000000000000000000000000000000000000000000000000000000000000000000
310
00000000000000000000000000000000000000000000000000000000000000000000000000000000000000000000000000000000000000000000000000000000000000000000000000000000000000000000000000000000000000000000000000000000000000000000000000000000000000000000000000000000000000
310
00000000000000000000000000000000000000000000000000000000000000000000000000000000000000000000000000000000000000000000000000000000000000000000000000000000000000000000000000000000000000000000000000000000000000000000000000000000000000000000000000000000000000
310
00000000000000000000000000000000000000000000000000000000000000000000000000000000000000000000000000000000000000000000000000000000000000000000000000000000000000000000000000000000000000000000000000000000000000000000000000000000000000000000000000000000000000
310
00000000000000000000000000000000000000000000000000000000000000000000000000000000000000000000000000000000000000000000000000000000000000000000000000000000000000000000000000000000000000000000000000000000000000000000000000000000000000000000000000000000000000
310
00000000000000000000000000000000000000000000000000000000000000000000000000000000000000000000000000000000000000000000000000000000000000000000000000000000000000000000000000000000000000000000000000000000000000000000000000000000000000000000000000000000000000
310
00000000000000000000000000000000000000000000000000000000000000000000000000000000000000000000000000000000000000000000000000000000000000000000000000000000000000000000000000000000000000000000000000000000000000000000000000000000000000000000000000000000000000
310
00000000000000000000000000000000000000000000000000000000000000000000000000000000000000000000000000000000000000000000000000000000000000000000000000000000000000000000000000000000000000000000000000000000000000000000000000000000000000000000000000000000000000
310
00000000000000000000000000000000000000000000000000000000000000000000000000000000000000000000000000000000000000000000000000000000000000000000000000000000000000000000000000000000000000000000000000000000000000000000000000000000000000000000000000000000000000
310
00000000000000000000000000000000000000000000000000000000000000000000000000000000000000000000000000000000000000000000000000000000000000000000000000000000000000000000000000000000000000000000000000000000000000000000000000000000000000000000000000000000000000
310
00000000000000000000000000000000000000000000000000000000000000000000000000000000000000000000000000000000000000000000000000000000000000000000000000000000000000000000000000000000000000000000000000000000000000000000000000000000000000000000000000000000000000
310
00000000000000000000000000000000000000000000000000000000000000000000000000000000000000000000000000000000000000000000000000000000000000000000000000000000000000000000000000000000000000000000000000000000000000000000000000000000000000000000000000000000000000
310
00000000000000000000000000000000000000000000000000000000000000000000000000000000000000000000000000000000000000000000000000000000000000000000000000000000000000000000000000000000000000000000000000000000000000000000000000000000000000000000000000000000000000
310
00000000000000000000000000000000000000000000000000000000000000000000000000000000000000000000000000000000000000000000000000000000000000000000000000000000000000000000000000000000000000000000000000000000000000000000000000000000000000000000000000000000000000
310
00000000000000000000000000000000000000000000000000000000000000000000000000000000000000000000000000000000000000000000000000000000000000000000000000000000000000000000000000000000000000000000000000000000000000000000000000000000000000000000000000000000000000
310
00000000000000000000000000000000000000000000000000000000000000000000000000000000000000000000000000000000000000000000000000000000000000000000000000000000000000000000000000000000000000000000000000000000000000000000000000000000000000000000000000000000000000
310
00000000000000000000000000000000000000000000000000000000000000000000000000000000000000000000000000000000000000000000000000000000000000000000000000000000000000000000000000000000000000000000000000000000000000000000000000000000000000000000000000000000000000
310
00000000000000000000000000000000000000000000000000000000000000000000000000000000000000000000000000000000000000000000000000000000000000000000000000000000000000000000000000000000000000000000000000000000000000000000000000000000000000000000000000000000000000
310
00000000000000000000000000000000000000000000000000000000000000000000000000000000000000000000000000000000000000000000000000000000000000000000000000000000000000000000000000000000000000000000000000000000000000000000000000000000000000000000000000000000000000
310
00000000000000000000000000000000000000000000000000000000000000000000000000000000000000000000000000000000000000000000000000000000000000000000000000000000000000000000000000000000000000000000000000000000000000000000000000000000000000000000000000000000000000
310
00000000000000000000000000000000000000000000000000000000000000000000000000000000000000000000000000000000000000000000000000000000000000000000000000000000000000000000000000000000000000000000000000000000000000000000000000000000000000000000000000000000000000
310
00000000000000000000000000000000000000000000000000000000000000000000000000000000000000000000000000000000000000000000000000000000000000000000000000000000000000000000000000000000000000000000000000000000000000000000000000000000000000000000000000000000000000
310
00000000000000000000000000000000000000000000000000000000000000000000000000000000000000000000000000000000000000000000000000000000000000000000000000000000000000000000000000000000000000000000000000000000000000000000000000000000000000000000000000000000000000
310
00000000000000000000000000000000000000000000000000000000000000000000000000000000000000000000000000000000000000000000000000000000000000000000000000000000000000000000000000000000000000000000000000000000000000000000000000000000000000000000000000000000000000
310
00000000000000000000000000000000000000000000000000000000000000000000000000000000000000000000000000000000000000000000000000000000000000000000000000000000000000000000000000000000000000000000000000000000000000000000000000000000000000000000000000000000000000
310
00000000000000000000000000000000000000000000000000000000000000000000000000000000000000000000000000000000000000000000000000000000000000000000000000000000000000000000000000000000000000000000000000000000000000000000000000000000000000000000000000000000000000
310
00000000000000000000000000000000000000000000000000000000000000000000000000000000000000000000000000000000000000000000000000000000000000000000000000000000000000000000000000000000000000000000000000000000000000000000000000000000000000000000000000000000000000
310
00000000000000000000000000000000000000000000000000000000000000000000000000000000000000000000000000000000000000000000000000000000000000000000000000000000000000000000000000000000000000000000000000000000000000000000000000000000000000000000000000000000000000
310
00000000000000000000000000000000000000000000000000000000000000000000000000000000000000000000000000000000000000000000000000000000000000000000000000000000000000000000000000000000000000000000000000000000000000000000000000000000000000000000000000000000000000
310
00000000000000000000000000000000000000000000000000000000000000000000000000000000000000000000000000000000000000000000000000000000000000000000000000000000000000000000000000000000000000000000000000000000000000000000000000000000000000000000000000000000000000
310
00000000000000000000000000000000000000000000000000000000000000000000000000000000000000000000000000000000000000000000000000000000000000000000000000000000000000000000000000000000000000000000000000000000000000000000000000000000000000000000000000000000000000
310
00000000000000000000000000000000000000000000000000000000000000000000000000000000000000000000000000000000000000000000000000000000000000000000000000000000000000000000000000000000000000000000000000000000000000000000000000000000000000000000000000000000000000
310
00000000000000000000000000000000000000000000000000000000000000000000000000000000000000000000000000000000000000000000000000000000000000000000000000000000000000000000000000000000000000000000000000000000000000000000000000000000000000000000000000000000000000
310
00000000000000000000000000000000000000000000000000000000000000000000000000000000000000000000000000000000000000000000000000000000000000000000000000000000000000000000000000000000000000000000000000000000000000000000000000000000000000000000000000000000000000
310
00000000000000000000000000000000000000000000000000000000000000000000000000000000000000000000000000000000000000000000000000000000000000000000000000000000000000000000000000000000000000000000000000000000000000000000000000000000000000000000000000000000000000
310
00000000000000000000000000000000000000000000000000000000000000000000000000000000000000000000000000000000000000000000000000000000000000000000000000000000000000000000000000000000000000000000000000000000000000000000000000000000000000000000000000000000000000
310
00000000000000000000000000000000000000000000000000000000000000000000000000000000000000000000000000000000000000000000000000000000000000000000000000000000000000000000000000000000000000000000000000000000000000000000000000000000000000000000000000000000000000
310
00000000000000000000000000000000000000000000000000000000000000000000000000000000000000000000000000000000000000000000000000000000000000000000000000000000000000000000000000000000000000000000000000000000000000000000000000000000000000000000000000000000000000
310
00000000000000000000000000000000000000000000000000000000000000000000000000000000000000000000000000000000000000000000000000000000000000000000000000000000000000000000000000000000000000000000000000000000000000000000000000000000000000000000000000000000000000
310
00000000000000000000000000000000000000000000000000000000000000000000000000000000000000000000000000000000000000000000000000000000000000000000000000000000000000000000000000000000000000000000000000000000000000000000000000000000000000000000000000000000000000
310
00000000000000000000000000000000000000000000000000000000000000000000000000000000000000000000000000000000000000000000000000000000000000000000000000000000000000000000000000000000000000000000000000000000000000000000000000000000000000000000000000000000000000
310
00000000000000000000000000000000000000000000000000000000000000000000000000000000000000000000000000000000000000000000000000000000000000000000000000000000000000000000000000000000000000000000000000000000000000000000000000000000000000000000000000000000000000
310
00000000000000000000000000000000000000000000000000000000000000000000000000000000000000000000000000000000000000000000000000000000000000000000000000000000000000000000000000000000000000000000000000000000000000000000000000000000000000000000000000000000000000
310
00000000000000000000000000000000000000000000000000000000000000000000000000000000000000000000000000000000000000000000000000000000000000000000000000000000000000000000000000000000000000000000000000000000000000000000000000000000000000000000000000000000000000
310
00000000000000000000000000000000000000000000000000000000000000000000000000000000000000000000000000000000000000000000000000000000000000000000000000000000000000000000000000000000000000000000000000000000000000000000000000000000000000000000000000000000000000
310
00000000000000000000000000000000000000000000000000000000000000000000000000000000000000000000000000000000000000000000000000000000000000000000000000000000000000000000000000000000000000000000000000000000000000000000000000000000000000000000000000000000000000
310
00000000000000000000000000000000000000000000000000000000000000000000000000000000000000000000000000000000000000000000000000000000000000000000000000000000000000000000000000000000000000000000000000000000000000000000000000000000000000000000000000000000000000
310
00000000000000000000000000000000000000000000000000000000000000000000000000000000000000000000000000000000000000000000000000000000000000000000000000000000000000000000000000000000000000000000000000000000000000000000000000000000000000000000000000000000000000
310
00000000000000000000000000000000000000000000000000000000000000000000000000000000000000000000000000000000000000000000000000000000000000000000000000000000000000000000000000000000000000000000000000000000000000000000000000000000000000000000000000000000000000
310
00000000000000000000000000000000000000000000000000000000000000000000000000000000000000000000000000000000000000000000000000000000000000000000000000000000000000000000000000000000000000000000000000000000000000000000000000000000000000000000000000000000000000
310
00000000000000000000000000000000000000000000000000000000000000000000000000000000000000000000000000000000000000000000000000000000000000000000000000000000000000000000000000000000000000000000000000000000000000000000000000000000000000000000000000000000000000
310
00000000000000000000000000000000000000000000000000000000000000000000000000000000000000000000000000000000000000000000000000000000000000000000000000000000000000000000000000000000000000000000000000000000000000000000000000000000000000000000000000000000000000
310
00000000000000000000000000000000000000000000000000000000000000000000000000000000000000000000000000000000000000000000000000000000000000000000000000000000000000000000000000000000000000000000000000000000000000000000000000000000000000000000000000000000000000
310
00000000000000000000000000000000000000000000000000000000000000000000000000000000000000000000000000000000000000000000000000000000000000000000000000000000000000000000000000000000000000000000000000000000000000000000000000000000000000000000000000000000000000
310
00000000000000000000000000000000000000000000000000000000000000000000000000000000000000000000000000000000000000000000000000000000000000000000000000000000000000000000000000000000000000000000000000000000000000000000000000000000000000000000000000000000000000
310
00000000000000000000000000000000000000000000000000000000000000000000000000000000000000000000000000000000000000000000000000000000000000000000000000000000000000000000000000000000000000000000000000000000000000000000000000000000000000000000000000000000000000
310
00000000000000000000000000000000000000000000000000000000000000000000000000000000000000000000000000000000000000000000000000000000000000000000000000000000000000000000000000000000000000000000000000000000000000000000000000000000000000000000000000000000000000
310
00000000000000000000000000000000000000000000000000000000000000000000000000000000000000000000000000000000000000000000000000000000000000000000000000000000000000000000000000000000000000000000000000000000000000000000000000000000000000000000000000000000000000
310
00000000000000000000000000000000000000000000000000000000000000000000000000000000000000000000000000000000000000000000000000000000000000000000000000000000000000000000000000000000000000000000000000000000000000000000000000000000000000000000000000000000000000
310
00000000000000000000000000000000000000000000000000000000000000000000000000000000000000000000000000000000000000000000000000000000000000000000000000000000000000000000000000000000000000000000000000000000000000000000000000000000000000000000000000000000000000
310
00000000000000000000000000000000000000000000000000000000000000000000000000000000000000000000000000000000000000000000000000000000000000000000000000000000000000000000000000000000000000000000000000000000000000000000000000000000000000000000000000000000000000
310
00000000000000000000000000000000000000000000000000000000000000000000000000000000000000000000000000000000000000000000000000000000000000000000000000000000000000000000000000000000000000000000000000000000000000000000000000000000000000000000000000000000000000
310
00000000000000000000000000000000000000000000000000000000000000000000000000000000000000000000000000000000000000000000000000000000000000000000000000000000000000000000000000000000000000000000000000000000000000000000000000000000000000000000000000000000000000
310
00000000000000000000000000000000000000000000000000000000000000000000000000000000000000000000000000000000000000000000000000000000000000000000000000000000000000000000000000000000000000000000000000000000000000000000000000000000000000000000000000000000000000
310
00000000000000000000000000000000000000000000000000000000000000000000000000000000000000000000000000000000000000000000000000000000000000000000000000000000000000000000000000000000000000000000000000000000000000000000000000000000000000000000000000000000000000
310
00000000000000000000000000000000000000000000000000000000000000000000000000000000000000000000000000000000000000000000000000000000000000000000000000000000000000000000000000000000000000000000000000000000000000000000000000000000000000000000000000000000000000
310
00000000000000000000000000000000000000000000000000000000000000000000000000000000000000000000000000000000000000000000000000000000000000000000000000000000000000000000000000000000000000000000000000000000000000000000000000000000000000000000000000000000000000
310
00000000000000000000000000000000000000000000000000000000000000000000000000000000000000000000000000000000000000000000000000000000000000000000000000000000000000000000000000000000000000000000000000000000000000000000000000000000000000000000000000000000000000
310
00000000000000000000000000000000000000000000000000000000000000000000000000000000000000000000000000000000000000000000000000000000000000000000000000000000000000000000000000000000000000000000000000000000000000000000000000000000000000000000000000000000000000
310
00000000000000000000000000000000000000000000000000000000000000000000000000000000000000000000000000000000000000000000000000000000000000000000000000000000000000000000000000000000000000000000000000000000000000000000000000000000000000000000000000000000000000
310
00000000000000000000000000000000000000000000000000000000000000000000000000000000000000000000000000000000000000000000000000000000000000000000000000000000000000000000000000000000000000000000000000000000000000000000000000000000000000000000000000000000000000
310
00000000000000000000000000000000000000000000000000000000000000000000000000000000000000000000000000000000000000000000000000000000000000000000000000000000000000000000000000000000000000000000000000000000000000000000000000000000000000000000000000000000000000
310
00000000000000000000000000000000000000000000000000000000000000000000000000000000000000000000000000000000000000000000000000000000000000000000000000000000000000000000000000000000000000000000000000000000000000000000000000000000000000000000000000000000000000
310
000000000000000000000000000000000000000000000000000000000000000000000000000000000000000000000000000000000000000000000000000000000000000000B8FF0000030000003C00F90A
  0
ENDSEC
  0
EOF
